osu file format v14

[General]
AudioFilename: Tristam - My Friend.mp3
AudioLeadIn: 0
PreviewTime: 90084
Countdown: 0
SampleSet: Soft
StackLeniency: 0.6
Mode: 0
LetterboxInBreaks: 0
WidescreenStoryboard: 1

[Editor]
Bookmarks: 22675,45263,67851,90439,113027,135616,158204,180792,203380,225969,245733,248557
DistanceSpacing: 0.6
BeatDivisor: 4
GridSize: 4
TimelineZoom: 1.4

[Metadata]
Title:My Friend
TitleUnicode:My Friend
Artist:Tristam
ArtistUnicode:Tristam
Creator:grumd
Version:Extra
Source:
Tags:drumstep monstercat ReFaller Shmiklak Fanteer Secretpipe vanucik5656
BeatmapID:1048018
BeatmapSetID:417938

[Difficulty]
HPDrainRate:6.5
CircleSize:4
OverallDifficulty:9
ApproachRate:9
SliderMultiplier:1.4
SliderTickRate:1

[Events]
//Background and Video events
0,0,"822092656.jpg",0,0
//Break Periods
2,113225,135014
//Storyboard Layer 0 (Background)
//Storyboard Layer 1 (Fail)
//Storyboard Layer 2 (Pass)
//Storyboard Layer 3 (Foreground)
//Storyboard Sound Samples

[TimingPoints]
22673,352.941176470588,4,2,0,50,1,0
22673,-166.666666666667,4,2,0,50,0,0
45261,-166.666666666667,4,2,0,30,0,0
67143,-200,4,2,0,60,0,0
67849,-90.9090909090909,4,2,0,80,0,0
89202,-90.9090909090909,4,2,0,50,0,0
90437,-90.9090909090909,4,2,0,80,0,1
107378,-90.9090909090909,4,2,0,60,0,1
109496,-111.111111111111,4,2,0,40,0,1
111614,-133.333333333333,4,2,0,20,0,1
113025,-133.333333333333,4,2,0,30,0,0
135614,-166.666666666667,4,2,0,50,0,0
158202,-166.666666666667,4,2,0,30,0,0
180084,-200,4,2,0,60,0,0
180790,-90.9090909090909,4,2,0,80,0,0
201967,-90.9090909090909,4,2,0,60,0,0
202320,-90.9090909090909,4,2,0,30,0,0
202672,-90.9090909090909,4,2,0,40,0,0
203025,-90.9090909090909,4,2,0,50,0,0
203378,-90.9090909090909,4,2,0,80,0,1
224555,-90.9090909090909,4,2,0,60,0,0
224908,-90.9090909090909,4,2,0,40,0,0
225261,-90.9090909090909,4,2,0,50,0,0
225614,-90.9090909090909,4,2,0,60,0,0
225967,-90.9090909090909,4,2,0,90,0,1
245731,-90.9090909090909,4,2,0,60,0,0
246437,-90.9090909090909,4,2,0,50,0,0
247143,-90.9090909090909,4,2,0,40,0,0
247849,-90.9090909090909,4,2,0,30,0,0
248202,-90.9090909090909,4,2,0,20,0,0
248378,-90.9090909090909,4,2,0,10,0,0

[Colours]
Combo1 : 241,65,65
Combo2 : 164,207,240
Combo3 : 130,138,247
Combo4 : 182,148,245
Combo5 : 248,165,124

[HitObjects]
316,98,22673,6,0,L|322:56,1,41.9999987182618,4|0,0:3|0:0,0:0:0:0:
174,131,23025,2,0,L|159:232,1,83.9999974365235,0|0,0:0|0:0,0:0:0:0:
210,276,23555,1,0,0:0:0:0:
32,287,23731,2,0,L|25:332,1,41.9999987182618,0|0,0:0|0:0,0:0:0:0:
230,270,24084,6,0,L|242:186,1,83.9999974365235,8|0,0:0|0:0,0:0:0:0:
101,111,24614,1,0,0:0:0:0:
83,190,24790,2,0,L|88:242,1,41.9999987182618,0|0,0:0|0:0,0:0:0:0:
125,299,25143,2,0,L|120:257,1,41.9999987182618,0|0,0:0|0:0,0:0:0:0:
365,217,25496,5,4,0:3:0:0:
167,185,25673,1,4,0:3:0:0:
358,315,25849,2,0,L|347:230,1,83.9999974365235,0|0,0:0|0:0,0:0:0:0:
436,345,26378,1,0,0:0:0:0:
282,341,26555,2,0,L|276:294,1,41.9999987182618,0|0,0:0|0:0,0:0:0:0:
379,81,26908,38,0,L|389:164,1,83.9999974365235,8|0,0:0|0:0,0:0:0:0:
347,231,27437,1,0,0:0:0:0:
194,103,27614,2,0,L|139:95,1,41.9999987182618,0|0,0:0|0:0,0:0:0:0:
24,239,27967,2,0,L|65:245,1,41.9999987182618,0|0,0:0|0:0,0:0:0:0:
272,142,28320,5,4,0:3:0:0:
216,341,28496,1,0,0:0:0:0:
157,178,28673,2,0,L|64:165,1,83.9999974365235,0|0,0:0|0:0,0:0:0:0:
193,253,29202,1,0,0:0:0:0:
239,104,29378,2,0,L|292:96,1,41.9999987182618,0|0,0:0|0:0,0:0:0:0:
502,149,29731,6,0,L|418:160,1,83.9999974365235,8|0,0:0|0:0,0:0:0:0:
388,234,30261,1,0,0:0:0:0:
410,310,30437,2,0,L|417:265,1,41.9999987182618,0|0,0:0|0:0,0:0:0:0:
286,286,30790,2,0,L|279:327,1,41.9999987182618,0|0,0:0|0:0,0:0:0:0:
238,138,31143,37,4,0:3:0:0:
428,193,31320,1,4,0:3:0:0:
178,299,31496,2,0,L|85:283,1,83.9999974365235,0|0,0:0|0:0,0:0:0:0:
40,225,32025,1,0,0:0:0:0:
178,299,32202,2,0,L|186:350,1,41.9999987182618,0|0,0:0|0:0,0:0:0:0:
285,99,32555,6,0,L|271:2,1,83.9999974365235,8|0,0:0|0:0,0:0:0:0:
241,169,33084,1,0,0:0:0:0:
356,47,33261,2,0,L|410:56,1,41.9999987182618,0|0,0:0|0:0,0:0:0:0:
454,215,33614,1,8,0:0:0:0:
409,57,33790,1,0,0:0:0:0:
339,267,33967,6,0,L|286:276,1,41.9999987182618,4|0,0:3|0:0,0:0:0:0:
36,164,34320,2,0,L|123:181,1,83.9999974365235,0|0,0:0|0:0,0:0:0:0:
151,252,34849,1,0,0:0:0:0:
76,97,35025,2,0,L|125:106,1,41.9999987182618,0|0,0:0|0:0,0:0:0:0:
241,287,35378,38,0,L|158:270,1,83.9999974365235,8|0,0:0|0:0,0:0:0:0:
308,240,35908,1,0,0:0:0:0:
368,343,36084,2,0,L|410:336,1,41.9999987182618,0|0,0:0|0:0,0:0:0:0:
295,228,36437,2,0,L|253:235,1,41.9999987182618,0|0,0:0|0:0,0:0:0:0:
444,263,36790,5,4,0:3:0:0:
403,65,36967,1,4,0:3:0:0:
278,217,37143,2,0,L|183:232,1,83.9999974365235,0|0,0:0|0:0,0:0:0:0:
122,197,37673,1,0,0:0:0:0:
183,308,37849,2,0,L|175:351,1,41.9999987182618,0|0,0:0|0:0,0:0:0:0:
229,75,38202,5,8,0:0:0:0:
248,82,38731,1,0,0:0:0:0:
377,39,38908,2,0,L|366:81,1,41.9999987182618,0|0,0:0|0:0,0:0:0:0:
480,187,39261,2,0,L|469:146,1,41.9999987182618,0|0,0:0|0:0,0:0:0:0:
316,258,39614,37,4,0:3:0:0:
256,101,39790,1,0,0:0:0:0:
151,292,39967,2,0,P|190:304|232:305,1,83.9999974365235,0|0,0:0|0:0,0:0:0:0:
305,276,40496,1,0,0:0:0:0:
182,147,40673,2,0,L|137:155,1,41.9999987182618,0|0,0:0|0:0,0:0:0:0:
231,79,41025,6,0,P|273:108|351:109,1,125.999996154785,8|0,0:0|0:0,0:0:0:0:
405,60,41731,2,0,L|394:11,1,41.9999987182618,0|0,0:0|0:0,0:0:0:0:
481,132,42084,2,0,L|490:172,1,41.9999987182618,0|0,0:0|0:0,0:0:0:0:
408,348,42437,5,4,0:3:0:0:
184,306,42614,1,4,0:3:0:0:
383,233,42790,2,0,L|402:135,1,83.9999974365235,0|0,0:0|0:0,0:0:0:0:
454,94,43320,1,0,0:0:0:0:
273,55,43496,2,0,L|222:66,1,41.9999987182618,0|0,0:0|0:0,0:0:0:0:
472,171,43849,38,0,P|475:86|407:45,1,167.999994873047,8|0,0:0|0:0,0:0:0:0:
247,306,45261,6,0,P|177:356|74:340,1,167.999994873047,2|0,0:0|0:0,0:0:0:0:
40,297,46143,2,0,L|35:246,1,41.9999987182618,0|0,0:0|0:0,0:0:0:0:
214,152,46496,2,0,L|223:246,2,83.9999974365235,0|0|0,0:0|0:0|0:0,0:0:0:0:
280,110,47378,2,0,L|330:118,1,41.9999987182618,2|0,0:0|0:0,0:0:0:0:
376,60,47731,2,0,L|424:54,1,41.9999987182618,2|0,0:0|0:0,0:0:0:0:
482,104,48084,5,2,0:0:0:0:
387,254,48437,2,0,L|397:309,1,41.9999987182618,0|0,0:0|0:0,0:0:0:0:
310,293,48790,2,0,P|361:261|361:155,1,167.999994873047,0|0,0:0|0:0,0:0:0:0:
293,127,49673,1,0,0:0:0:0:
231,324,50202,2,0,L|181:312,1,41.9999987182618,2|0,0:0|0:0,0:0:0:0:
310,293,50555,2,0,L|362:303,1,41.9999987182618,2|0,0:0|0:0,0:0:0:0:
282,217,50908,37,2,0:0:0:0:
329,75,51261,2,0,L|380:64,1,41.9999987182618,0|0,0:0|0:0,0:0:0:0:
282,217,51614,2,0,P|236:254|169:253,1,125.999996154785,0|0,0:0|0:0,0:0:0:0:
95,276,52320,2,0,L|86:333,1,41.9999987182618,0|0,0:0|0:0,0:0:0:0:
94,87,53025,1,2,0:0:0:0:
72,168,53202,1,0,0:0:0:0:
199,129,53378,1,2,0:0:0:0:
185,48,53555,1,0,0:0:0:0:
250,195,53731,6,0,P|314:199|382:126,1,167.999994873047,2|0,0:0|0:0,0:0:0:0:
352,54,54614,1,0,0:0:0:0:
477,153,54790,2,0,L|486:208,1,41.9999987182618,0|0,0:0|0:0,0:0:0:0:
372,337,55143,2,0,L|397:202,1,125.999996154785,0|0,0:0|0:0,0:0:0:0:
326,175,55849,2,0,L|317:220,1,41.9999987182618,2|0,0:0|0:0,0:0:0:0:
218,292,56202,2,0,L|226:250,1,41.9999987182618,2|0,0:0|0:0,0:0:0:0:
57,167,56555,5,2,0:0:0:0:
57,167,56908,2,0,L|52:114,1,41.9999987182618,0|0,0:0|0:0,0:0:0:0:
132,199,57261,2,0,L|112:285,1,83.9999974365235,0|0,0:0|0:0,0:0:0:0:
179,320,57790,2,0,P|223:292|273:286,1,83.9999974365235,0|0,0:0|0:0,0:0:0:0:
443,342,58320,2,0,P|419:341|398:335,1,41.9999987182618,0|0,0:0|0:0,0:0:0:0:
348,176,58673,1,2,0:0:0:0:
338,184,59025,2,0,L|283:176,1,41.9999987182618,2|0,0:0|0:0,0:0:0:0:
415,150,59378,37,2,0:0:0:0:
391,71,59555,1,0,0:0:0:0:
229,111,59731,2,0,L|219:153,1,41.9999987182618,0|0,0:0|0:0,0:0:0:0:
237,313,60084,2,0,L|256:228,1,83.9999974365235,0|0,0:0|0:0,0:0:0:0:
111,164,60614,1,0,0:0:0:0:
30,272,60790,2,0,P|34:303|41:323,1,41.9999987182618,0|0,0:0|0:0,0:0:0:0:
112,341,61143,1,0,0:0:0:0:
241,247,61320,2,0,P|283:247|326:263,1,83.9999974365235,0|0,0:0|0:0,0:0:0:0:
375,318,61849,1,2,0:0:0:0:
422,173,62025,1,0,0:0:0:0:
497,212,62202,6,0,L|501:270,1,41.9999987182618,2|0,0:0|0:0,0:0:0:0:
422,173,62555,2,0,P|385:191|334:195,1,83.9999974365235,0|0,0:0|0:0,0:0:0:0:
273,162,63084,1,0,0:0:0:0:
332,32,63261,2,0,P|356:34|379:41,1,41.9999987182618,0|0,0:0|0:0,0:0:0:0:
170,155,63614,2,0,P|127:131|111:45,1,125.999996154785,0|0,0:0|0:0,0:0:0:0:
187,75,64320,1,2,0:0:0:0:
332,134,64496,1,0,0:0:0:0:
332,134,64584,1,0,0:0:0:0:
332,134,64673,1,2,0:0:0:0:
395,83,64849,1,0,0:0:0:0:
502,193,65025,6,0,L|493:251,1,41.9999987182618,2|0,0:0|0:0,0:0:0:0:
422,270,65378,1,0,0:0:0:0:
232,176,65555,2,0,L|324:159,1,83.9999974365235,0|0,0:0|0:0,0:0:0:0:
141,330,66084,2,0,L|90:340,1,41.9999987182618,0|0,0:0|0:0,0:0:0:0:
227,275,66437,2,0,L|278:285,1,41.9999987182618,0|0,0:0|0:0,0:0:0:0:
67,147,66790,2,0,L|16:157,1,41.9999987182618,0|0,0:0|0:0,0:0:0:0:
309,43,67143,6,0,P|355:77|422:62,1,122.5,12|0,0:0|0:0,0:0:0:0:
427,54,67849,6,0,P|439:165|346:233,1,231.000007049561,6|0,1:2|0:0,0:0:0:0:
266,197,68555,2,0,L|246:113,1,77.0000023498536,8|0,0:0|0:0,0:0:0:0:
197,275,68908,2,0,L|214:349,1,77.0000023498536,0|0,0:0|0:0,0:0:0:0:
47,226,69261,54,0,B|69:183|63:138|32:103|32:103|130:130,1,231.000007049561,0|0,1:0|0:0,0:0:0:0:
267,69,69967,2,0,L|356:53,1,77.0000023498536,8|0,0:0|0:0,0:0:0:0:
455,157,70320,2,0,L|366:141,1,77.0000023498536,0|0,0:0|0:0,0:0:0:0:
266,284,70673,6,0,P|243:331|80:338,1,231.000007049561,0|0,1:0|0:0,0:0:0:0:
192,103,71378,2,0,P|237:107|279:123,1,77.0000023498536,8|0,0:0|0:0,0:0:0:0:
87,198,71731,2,0,P|50:209|11:212,1,77.0000023498536,0|0,0:0|0:0,0:0:0:0:
106,67,72084,54,0,B|129:14|186:-5|242:24|242:24|258:101,1,231.000007049561,0|0,1:0|0:0,0:0:0:0:
384,281,72790,2,0,L|398:205,1,77.0000023498536,8|0,0:0|0:0,0:0:0:0:
232,73,73143,2,0,L|247:150,1,77.0000023498536,0|0,0:0|0:0,0:0:0:0:
179,346,73496,6,0,P|62:341|21:239,1,231.000007049561,0|0,1:0|0:0,0:0:0:0:
331,291,74202,2,0,P|369:303|418:305,1,77.0000023498536,8|0,0:0|0:0,0:0:0:0:
466,192,74555,2,0,P|428:180|379:178,1,77.0000023498536,0|0,0:0|0:0,0:0:0:0:
161,207,74908,54,0,P|105:205|174:187,1,231.000007049561,0|0,1:0|0:0,0:0:0:0:
25,242,75614,2,0,P|10:206|8:157,1,77.0000023498536,8|0,0:0|0:0,0:0:0:0:
240,107,75967,2,0,P|256:141|261:179,1,77.0000023498536,0|0,0:0|0:0,0:0:0:0:
481,351,76320,6,0,P|419:335|397:184,1,231.000007049561,0|0,1:0|0:0,0:0:0:0:
475,249,77025,2,0,L|493:335,1,77.0000023498536,8|0,0:0|0:0,0:0:0:0:
387,170,77378,2,0,L|402:94,1,77.0000023498536,0|0,0:0|0:0,0:0:0:0:
203,231,77731,54,0,B|228:273|215:329|165:349|165:349|70:335,1,231.000007049561,0|0,1:0|0:0,0:0:0:0:
218,223,78437,2,0,L|320:240,1,77.0000023498536,8|0,0:0|0:0,0:0:0:0:
89,152,78790,2,0,L|-13:169,1,77.0000023498536,0|0,0:0|0:0,0:0:0:0:
171,36,79143,6,0,B|208:84|273:64|273:64|338:44|385:85,1,231.000007049561,0|0,1:0|0:0,0:0:0:0:
354,318,79849,2,0,L|259:342,1,77.0000023498536,8|0,0:0|0:0,0:0:0:0:
98,329,80202,2,0,L|172:310,1,77.0000023498536,0|0,0:0|0:0,0:0:0:0:
239,153,80555,54,0,P|230:87|88:40,1,231.000007049561,0|0,1:0|0:0,0:0:0:0:
183,230,81261,2,0,P|223:244|274:241,1,77.0000023498536,8|0,0:0|0:0,0:0:0:0:
143,142,81614,2,0,P|104:143|68:156,1,77.0000023498536,0|0,0:0|0:0,0:0:0:0:
252,347,81967,6,0,P|338:314|343:181,1,231.000007049561,0|0,1:0|0:0,0:0:0:0:
110,107,82672,2,0,L|22:97,1,77.0000023498536,8|0,0:0|0:0,0:0:0:0:
192,175,83025,2,0,L|275:158,1,77.0000023498536,0|0,0:0|0:0,0:0:0:0:
63,344,83378,54,0,L|21:108,1,231.000007049561,0|0,1:0|0:0,0:0:0:0:
237,127,84084,2,0,L|316:140,1,77.0000023498536,8|0,0:0|0:0,0:0:0:0:
138,288,84437,2,0,L|54:278,1,77.0000023498536,0|0,0:0|0:0,0:0:0:0:
169,61,84790,6,0,P|143:146|247:223,1,231.000007049561,0|0,1:0|0:0,0:0:0:0:
392,138,85496,2,0,P|431:123|475:117,1,77.0000023498536,8|0,0:0|0:0,0:0:0:0:
292,341,85849,2,0,P|254:334|218:320,1,77.0000023498536,0|0,0:0|0:0,0:0:0:0:
121,129,86202,54,0,P|173:35|306:47,1,231.000007049561,0|0,1:0|0:0,0:0:0:0:
330,220,86908,2,0,L|310:304,1,77.0000023498536,8|0,0:0|0:0,0:0:0:0:
448,110,87261,2,0,L|468:194,1,77.0000023498536,0|0,0:0|0:0,0:0:0:0:
308,46,87614,6,0,P|297:101|146:109,1,231.000007049561,0|0,1:0|0:0,0:0:0:0:
328,52,88320,2,0,L|342:142,1,77.0000023498536,8|0,0:0|0:0,0:0:0:0:
117,197,88672,2,0,L|128:120,1,77.0000023498536,0|0,0:0|0:0,0:0:0:0:
302,288,89025,53,0,1:0:0:0:
459,166,90437,6,0,L|443:261,1,77.0000023498536,6|0,1:2|0:0,0:0:0:0:
195,307,90790,1,0,0:0:0:0:
253,40,90967,1,0,0:0:0:0:
341,268,91143,1,8,0:0:0:0:
68,122,91320,1,0,0:0:0:0:
382,69,91496,1,0,0:0:0:0:
68,122,91672,1,0,0:0:0:0:
161,350,91849,53,0,1:0:0:0:
219,142,92025,1,0,0:0:0:0:
21,274,92202,1,0,0:0:0:0:
314,327,92378,1,0,0:0:0:0:
79,200,92555,1,8,0:0:0:0:
314,116,92731,1,0,0:0:0:0:
208,355,92908,2,0,P|254:384|325:374,1,115.50000352478,0|0,0:0|0:0,0:0:0:0:
328,366,93261,6,0,L|347:281,1,77.0000023498536,0|0,1:0|0:0,0:0:0:0:
292,62,93614,1,0,0:0:0:0:
34,126,93790,1,0,0:0:0:0:
248,224,93967,1,8,0:0:0:0:
190,24,94143,1,0,0:0:0:0:
139,300,94320,1,0,0:0:0:0:
383,145,94496,1,0,0:0:0:0:
107,104,94672,53,0,1:0:0:0:
352,268,94849,1,0,0:0:0:0:
407,45,95025,1,0,0:0:0:0:
352,268,95202,1,0,0:0:0:0:
294,66,95378,1,8,0:0:0:0:
501,208,95555,1,0,0:0:0:0:
177,251,95731,2,0,L|164:348,1,77.0000023498536,0|0,0:0|0:0,0:0:0:0:
126,38,96084,5,0,1:0:0:0:
46,278,96261,1,0,0:0:0:0:
297,123,96437,1,0,0:0:0:0:
21,73,96614,1,0,0:0:0:0:
256,241,96790,1,8,0:0:0:0:
334,18,96967,1,0,0:0:0:0:
404,304,97143,1,0,0:0:0:0:
457,78,97320,1,0,0:0:0:0:
224,252,97496,53,0,1:0:0:0:
304,29,97672,1,0,0:0:0:0:
433,317,97849,1,0,0:0:0:0:
483,68,98025,1,0,0:0:0:0:
247,268,98202,1,8,0:0:0:0:
206,13,98378,1,0,0:0:0:0:
372,276,98555,2,0,P|365:316|350:350,1,77.0000023498536,0|0,0:0|0:0,0:0:0:0:
85,372,98908,5,0,1:0:0:0:
155,84,99084,1,0,0:0:0:0:
235,315,99261,1,0,0:0:0:0:
155,84,99437,1,0,0:0:0:0:
368,37,99614,1,8,0:0:0:0:
299,257,99790,1,0,0:0:0:0:
219,20,99967,1,0,0:0:0:0:
18,120,100143,1,0,0:0:0:0:
299,257,100320,53,0,1:0:0:0:
61,311,100496,1,0,0:0:0:0:
155,84,100672,1,0,0:0:0:0:
241,343,100849,1,0,0:0:0:0:
327,128,101025,1,8,0:0:0:0:
18,201,101202,1,0,0:0:0:0:
248,317,101378,2,0,L|347:305,1,77.0000023498536,0|0,0:0|0:0,0:0:0:0:
366,43,101731,5,0,1:0:0:0:
445,317,101908,1,0,0:0:0:0:
189,238,102084,1,0,0:0:0:0:
483,146,102261,1,0,0:0:0:0:
189,238,102437,1,8,0:0:0:0:
455,288,102614,1,0,0:0:0:0:
398,54,102790,1,0,0:0:0:0:
285,269,102967,1,0,0:0:0:0:
494,118,103143,53,0,1:0:0:0:
240,80,103320,1,0,0:0:0:0:
183,353,103496,1,0,0:0:0:0:
122,128,103672,1,0,0:0:0:0:
373,224,103849,1,8,0:0:0:0:
63,301,104025,1,0,0:0:0:0:
345,213,104202,2,0,L|365:339,1,115.50000352478,0|0,0:0|0:0,0:0:0:0:
368,344,104555,6,0,L|447:354,1,77.0000023498536,0|0,1:0|0:0,0:0:0:0:
509,286,104908,1,0,0:0:0:0:
237,322,105084,1,0,0:0:0:0:
298,59,105261,1,8,0:0:0:0:
368,268,105437,1,0,0:0:0:0:
145,154,105614,1,0,0:0:0:0:
438,109,105790,1,0,0:0:0:0:
212,263,105967,53,0,1:0:0:0:
147,49,106143,1,0,0:0:0:0:
75,228,106320,1,0,0:0:0:0:
269,114,106496,1,0,0:0:0:0:
180,350,106672,1,8,0:0:0:0:
126,144,106849,1,0,0:0:0:0:
334,306,107025,2,0,L|353:210,1,77.0000023498536,0|0,0:0|0:0,0:0:0:0:
281,33,107378,5,0,1:0:0:0:
494,107,107555,1,0,0:0:0:0:
246,181,107731,1,0,0:0:0:0:
471,100,107908,1,0,0:0:0:0:
289,44,108084,1,8,0:0:0:0:
330,264,108261,1,0,0:0:0:0:
184,102,108437,1,0,0:0:0:0:
426,182,108614,1,0,0:0:0:0:
246,275,108790,53,0,1:0:0:0:
412,175,108967,1,0,0:0:0:0:
431,311,109143,1,0,0:0:0:0:
496,126,109320,1,0,0:0:0:0:
308,202,109496,2,0,L|229:192,1,62.9999980773926,8|0,0:0|0:0,0:0:0:0:
201,125,109849,1,0,0:0:0:0:
135,244,110025,1,0,0:0:0:0:
47,154,110202,6,0,L|57:226,1,62.9999980773926,0|0,1:0|0:0,0:0:0:0:
135,244,110555,1,0,0:0:0:0:
216,217,110731,1,0,0:0:0:0:
132,333,110908,1,0,0:0:0:0:
117,238,111084,1,0,0:0:0:0:
225,356,111261,1,0,0:0:0:0:
353,312,111437,1,0,0:0:0:0:
301,211,111614,54,0,L|240:200,1,52.5000020027161,0|0,1:0|0:0,0:0:0:0:
225,356,111967,1,0,0:0:0:0:
121,307,112143,2,0,L|174:297,2,52.5000020027161,0|0|0,0:0|0:0|0:0,0:0:0:0:
58,251,112672,2,0,L|1:241,1,52.5000020027161,0|0,0:0|0:0,0:0:0:0:
121,198,113025,37,0,1:0:0:0:
448,328,135614,6,0,P|443:304|432:283,1,41.9999987182618,4|0,0:3|0:0,0:0:0:0:
260,253,135967,2,0,P|224:269|172:275,1,83.9999974365235,0|0,0:0|0:0,0:0:0:0:
105,253,136496,1,0,0:0:0:0:
135,141,136672,2,0,L|146:187,1,41.9999987182618,0|0,0:0|0:0,0:0:0:0:
377,149,137025,38,0,L|395:49,1,83.9999974365235,8|0,0:0|0:0,0:0:0:0:
421,217,137555,1,0,0:0:0:0:
292,157,137731,2,0,P|270:159|246:166,1,41.9999987182618,0|0,0:0|0:0,0:0:0:0:
207,297,138084,2,0,P|227:302|248:304,1,41.9999987182618,0|0,0:0|0:0,0:0:0:0:
158,236,138437,5,4,0:3:0:0:
367,183,138614,1,4,0:3:0:0:
195,83,138790,2,0,L|108:101,1,83.9999974365235,0|0,0:0|0:0,0:0:0:0:
82,171,139320,1,0,0:0:0:0:
143,226,139496,2,0,L|138:269,1,41.9999987182618,0|0,0:0|0:0,0:0:0:0:
321,353,139849,6,0,L|332:256,1,83.9999974365235,8|0,0:0|0:0,0:0:0:0:
297,202,140378,1,0,0:0:0:0:
400,295,140555,2,0,L|394:347,1,41.9999987182618,0|0,0:0|0:0,0:0:0:0:
461,193,140908,2,0,L|467:245,1,41.9999987182618,0|0,0:0|0:0,0:0:0:0:
415,118,141261,37,4,0:3:0:0:
173,202,141437,1,0,0:0:0:0:
401,107,141614,2,0,L|411:206,1,83.9999974365235,0|0,0:0|0:0,0:0:0:0:
353,242,142143,1,0,0:0:0:0:
279,221,142320,2,0,L|287:170,1,41.9999987182618,0|0,0:0|0:0,0:0:0:0:
121,319,142672,6,0,P|77:313|36:290,1,83.9999974365235,8|0,0:0|0:0,0:0:0:0:
10,227,143202,1,0,0:0:0:0:
161,176,143378,2,0,L|170:125,1,41.9999987182618,0|0,0:0|0:0,0:0:0:0:
215,265,143731,2,0,L|224:214,1,41.9999987182618,0|0,0:0|0:0,0:0:0:0:
470,181,144084,5,4,0:3:0:0:
405,361,144261,1,4,0:3:0:0:
292,150,144437,2,0,L|310:55,1,83.9999974365235,0|0,0:0|0:0,0:0:0:0:
344,209,144967,1,0,0:0:0:0:
283,318,145143,2,0,L|238:309,1,41.9999987182618,0|0,0:0|0:0,0:0:0:0:
58,232,145496,38,0,L|153:250,1,83.9999974365235,8|0,0:0|0:0,0:0:0:0:
207,210,146025,1,0,0:0:0:0:
157,71,146202,2,0,L|62:89,1,83.9999974365235,0|0,0:0|0:0,0:0:0:0:
37,155,146731,1,0,0:0:0:0:
109,335,146908,6,0,L|89:285,1,41.9999987182618,4|0,0:3|0:0,0:0:0:0:
43,137,147261,2,0,L|82:228,1,83.9999974365235,0|0,0:0|0:0,0:0:0:0:
152,231,147790,1,0,0:0:0:0:
215,179,147967,2,0,P|220:157|221:131,1,41.9999987182618,0|0,0:0|0:0,0:0:0:0:
264,303,148320,6,0,P|304:321|347:324,1,83.9999974365235,8|0,0:0|0:0,0:0:0:0:
406,278,148849,1,0,0:0:0:0:
339,108,149025,2,0,L|285:116,1,41.9999987182618,0|0,0:0|0:0,0:0:0:0:
400,167,149378,2,0,L|454:175,1,41.9999987182618,0|0,0:0|0:0,0:0:0:0:
190,244,149731,37,4,0:3:0:0:
417,333,149908,1,4,0:3:0:0:
205,233,150084,2,0,L|111:251,1,83.9999974365235,0|0,0:0|0:0,0:0:0:0:
78,311,150614,1,0,0:0:0:0:
6,280,150790,2,0,L|11:232,1,41.9999987182618,0|0,0:0|0:0,0:0:0:0:
158,82,151143,6,0,L|172:182,1,83.9999974365235,8|0,0:0|0:0,0:0:0:0:
235,204,151672,1,0,0:0:0:0:
406,130,151849,2,0,L|394:180,1,41.9999987182618,0|0,0:0|0:0,0:0:0:0:
323,147,152202,2,0,L|311:197,1,41.9999987182618,0|0,0:0|0:0,0:0:0:0:
378,319,152555,5,4,0:3:0:0:
424,115,152731,1,0,0:0:0:0:
390,307,152908,2,0,L|300:323,1,83.9999974365235,0|0,0:0|0:0,0:0:0:0:
235,295,153437,1,0,0:0:0:0:
231,311,153790,1,0,0:0:0:0:
120,157,153967,38,0,L|127:211,1,41.9999987182618,8|0,0:0|0:0,0:0:0:0:
103,151,154496,1,0,0:0:0:0:
418,94,154849,2,0,L|411:146,2,41.9999987182618,0|0|0,0:0|0:0|0:0,0:0:0:0:
201,152,155378,5,4,0:3:0:0:
404,79,155555,1,4,0:3:0:0:
215,137,155731,2,0,L|128:126,1,83.9999974365235,0|0,0:0|0:0,0:0:0:0:
259,202,156261,1,0,0:0:0:0:
66,92,156437,2,0,L|122:85,1,41.9999987182618,0|0,0:0|0:0,0:0:0:0:
268,222,156790,6,0,L|212:215,1,41.9999987182618,8|0,0:0|0:0,0:0:0:0:
482,153,157320,1,0,0:0:0:0:
224,348,158202,38,0,P|183:353|79:275,1,167.999994873047,2|0,0:0|0:0,0:0:0:0:
96,185,159261,1,0,0:0:0:0:
96,185,159437,2,0,L|233:166,1,125.999996154785,0|0,0:0|0:0,0:0:0:0:
400,285,160320,2,0,L|395:332,1,41.9999987182618,2|0,0:0|0:0,0:0:0:0:
468,211,160672,2,0,L|478:260,1,41.9999987182618,2|0,0:0|0:0,0:0:0:0:
403,157,161025,5,2,0:0:0:0:
195,247,161378,2,0,L|148:238,1,41.9999987182618,0|0,0:0|0:0,0:0:0:0:
79,269,161731,2,0,P|84:325|188:367,1,167.999994873047,0|0,0:0|0:0,0:0:0:0:
248,155,162790,2,0,L|237:106,1,41.9999987182618,0|0,0:0|0:0,0:0:0:0:
321,189,163143,1,2,0:0:0:0:
399,166,163320,1,0,0:0:0:0:
454,298,163496,1,2,0:0:0:0:
376,286,163672,1,0,0:0:0:0:
268,358,163849,6,0,B|221:366|192:333|192:333|157:300|115:308,1,167.999994873047,2|0,0:0|0:0,0:0:0:0:
52,355,164731,1,0,0:0:0:0:
92,214,164908,2,0,L|81:170,1,41.9999987182618,0|0,0:0|0:0,0:0:0:0:
151,41,165261,2,0,P|137:81|224:164,1,167.999994873047,0|2,0:0|0:0,0:0:0:0:
287,144,166143,1,0,0:0:0:0:
408,216,166320,2,0,L|403:270,1,41.9999987182618,2|0,0:0|0:0,0:0:0:0:
482,184,166672,38,0,L|462:54,1,125.999996154785,2|0,0:0|0:0,0:0:0:0:
323,136,167378,2,0,L|332:193,1,41.9999987182618,0|0,0:0|0:0,0:0:0:0:
251,172,167731,2,0,L|260:229,1,41.9999987182618,0|0,0:0|0:0,0:0:0:0:
174,181,168084,2,0,P|213:152|226:70,1,125.999996154785,0|0,0:0|0:0,0:0:0:0:
163,37,168790,1,2,0:0:0:0:
36,123,168967,2,0,L|-11:116,2,41.9999987182618,0|2|0,0:0|0:0|0:0,0:0:0:0:
73,192,169496,6,0,L|168:176,1,83.9999974365235,2|0,0:0|0:0,0:0:0:0:
325,243,170025,1,0,0:0:0:0:
274,177,170202,2,0,L|283:131,1,41.9999987182618,0|0,0:0|0:0,0:0:0:0:
403,224,170555,2,0,L|411:265,1,41.9999987182618,0|0,0:0|0:0,0:0:0:0:
323,349,170908,2,0,P|256:352|180:282,1,167.999994873047,0|2,0:0|0:0,0:0:0:0:
200,214,171790,1,0,0:0:0:0:
70,276,171967,2,0,L|24:268,1,41.9999987182618,2|0,0:0|0:0,0:0:0:0:
0,196,172320,5,2,0:0:0:0:
241,107,172672,2,0,L|293:115,1,41.9999987182618,0|0,0:0|0:0,0:0:0:0:
199,38,173025,2,0,P|165:81|161:120,1,83.9999974365235,0|0,0:0|0:0,0:0:0:0:
356,186,173731,1,0,0:0:0:0:
401,67,173908,2,0,L|413:112,1,41.9999987182618,0|0,0:0|0:0,0:0:0:0:
356,186,174261,2,0,L|331:94,1,83.9999974365235,0|0,0:0|0:0,0:0:0:0:
426,222,174790,1,2,0:0:0:0:
395,295,174967,1,0,0:0:0:0:
265,257,175143,38,0,L|215:268,1,41.9999987182618,2|0,0:0|0:0,0:0:0:0:
169,329,175496,2,0,L|126:322,1,41.9999987182618,0|0,0:0|0:0,0:0:0:0:
75,262,175849,2,0,P|62:206|139:130,1,167.999994873047,0|0,0:0|0:0,0:0:0:0:
202,164,176731,1,0,0:0:0:0:
329,101,176908,2,0,P|317:60|286:20,2,83.9999974365235,0|2|2,0:0|0:0|0:0,0:0:0:0:
202,164,177790,1,0,0:0:0:0:
371,232,177967,6,0,L|458:220,1,83.9999974365235,2|0,0:0|0:0,0:0:0:0:
391,350,178496,2,0,L|292:335,1,83.9999974365235,0|0,0:0|0:0,0:0:0:0:
211,233,179025,2,0,L|219:284,1,41.9999987182618,0|0,0:0|0:0,0:0:0:0:
145,363,179378,2,0,L|132:266,1,83.9999974365235,0|0,0:0|0:0,0:0:0:0:
34,235,179908,1,0,0:0:0:0:
373,117,180084,22,0,P|419:153|415:224,1,122.5,12|0,0:0|0:0,0:0:0:0:
411,226,180790,6,0,L|178:268,1,231.000007049561,6|0,1:2|0:0,0:0:0:0:
38,36,181496,2,0,L|134:49,1,77.0000023498536,8|0,0:0|0:0,0:0:0:0:
212,152,181849,2,0,L|116:139,1,77.0000023498536,0|0,0:0|0:0,0:0:0:0:
8,296,182202,54,0,P|28:338|200:358,1,231.000007049561,0|0,1:0|0:0,0:0:0:0:
266,142,182908,2,0,P|252:104|250:60,1,77.0000023498536,8|0,0:0|0:0,0:0:0:0:
411,35,183261,2,0,P|407:73|394:109,1,77.0000023498536,0|0,0:0|0:0,0:0:0:0:
152,213,183614,6,0,B|98:209|59:171|56:114|56:114|82:31,1,231.000007049561,0|0,1:0|0:0,0:0:0:0:
227,289,184320,2,0,L|195:393,1,77.0000023498536,8|0,0:0|0:0,0:0:0:0:
348,324,184672,2,0,L|380:220,1,77.0000023498536,0|0,0:0|0:0,0:0:0:0:
277,26,185025,54,0,P|254:82|94:95,1,231.000007049561,0|0,1:0|0:0,0:0:0:0:
170,22,185731,2,0,L|260:42,1,77.0000023498536,8|0,0:0|0:0,0:0:0:0:
387,113,186084,2,0,L|297:133,1,77.0000023498536,0|0,0:0|0:0,0:0:0:0:
70,317,186437,6,0,L|303:263,1,231.000007049561,0|0,1:0|0:0,0:0:0:0:
479,33,187143,2,0,P|463:69|457:113,1,77.0000023498536,8|0,0:0|0:0,0:0:0:0:
421,256,187496,2,0,P|414:218|399:183,1,77.0000023498536,0|0,0:0|0:0,0:0:0:0:
104,106,187849,54,0,P|36:158|35:306,1,231.000007049561,0|0,1:0|0:0,0:0:0:0:
252,358,188555,2,0,L|351:338,1,77.0000023498536,8|0,0:0|0:0,0:0:0:0:
455,270,188908,2,0,L|356:250,1,77.0000023498536,0|0,0:0|0:0,0:0:0:0:
199,68,189261,6,0,B|215:145|215:145|208:196|155:228|97:224,1,231.000007049561,0|0,1:0|0:0,0:0:0:0:
211,46,189967,2,0,L|236:151,1,77.0000023498536,8|0,0:0|0:0,0:0:0:0:
424,0,190320,2,0,L|399:105,1,77.0000023498536,0|0,0:0|0:0,0:0:0:0:
262,294,190672,54,0,P|302:367|436:342,1,231.000007049561,0|0,1:0|0:0,0:0:0:0:
284,164,191378,2,0,P|245:164|205:174,1,77.0000023498536,8|0,0:0|0:0,0:0:0:0:
36,303,191731,2,0,P|75:303|116:293,1,77.0000023498536,0|0,0:0|0:0,0:0:0:0:
215,44,192084,6,0,P|145:23|39:135,1,231.000007049561,0|0,1:0|0:0,0:0:0:0:
305,246,192790,2,0,P|343:241|381:226,1,77.0000023498536,8|0,0:0|0:0,0:0:0:0:
221,345,193143,2,0,P|256:358|294:363,1,77.0000023498536,0|0,0:0|0:0,0:0:0:0:
43,235,193496,54,0,P|143:202|152:73,1,231.000007049561,0|0,1:0|0:0,0:0:0:0:
63,134,194202,2,0,L|78:233,1,77.0000023498536,8|0,0:0|0:0,0:0:0:0:
259,154,194555,2,0,L|244:253,1,77.0000023498536,0|0,0:0|0:0,0:0:0:0:
464,187,194908,6,0,B|429:248|417:324|417:324|414:277|397:234,1,231.000007049561,0|0,1:0|0:0,0:0:0:0:
323,83,195614,2,0,P|288:65|250:60,1,77.0000023498536,8|0,0:0|0:0,0:0:0:0:
176,208,195967,2,0,P|141:225|104:231,1,77.0000023498536,0|0,0:0|0:0,0:0:0:0:
8,33,196320,54,0,P|118:31|185:135,1,231.000007049561,0|0,1:0|0:0,0:0:0:0:
90,353,197025,2,0,L|1:371,1,77.0000023498536,8|0,0:0|0:0,0:0:0:0:
221,283,197378,2,0,L|310:301,1,77.0000023498536,0|0,0:0|0:0,0:0:0:0:
504,115,197731,6,0,P|490:53|322:32,1,231.000007049561,0|0,1:0|0:0,0:0:0:0:
261,224,198437,2,0,P|302:243|350:246,1,77.0000023498536,8|0,0:0|0:0,0:0:0:0:
236,99,198790,2,0,P|195:80|147:77,1,77.0000023498536,0|0,0:0|0:0,0:0:0:0:
0,253,199143,54,0,P|20:320|168:340,1,231.000007049561,0|0,1:0|0:0,0:0:0:0:
220,130,199849,2,0,L|206:43,1,77.0000023498536,8|0,0:0|0:0,0:0:0:0:
320,79,200202,2,0,L|306:-8,1,77.0000023498536,0|0,0:0|0:0,0:0:0:0:
502,186,200555,6,0,B|458:243|479:326|479:326|446:288|398:279,1,231.000007049561,0|0,1:0|0:0,0:0:0:0:
263,309,201261,2,0,P|228:322|188:326,1,77.0000023498536,8|0,0:0|0:0,0:0:0:0:
100,226,201614,2,0,P|63:212|25:208,1,77.0000023498536,0|0,0:0|0:0,0:0:0:0:
11,351,201967,5,0,1:0:0:0:
112,313,202320,1,2,0:0:0:0:
217,334,202672,1,2,0:0:0:0:
315,290,203025,1,2,0:0:0:0:
455,350,203378,38,0,P|470:310|475:263,1,77.0000023498536,6|0,1:2|0:0,0:0:0:0:
410,62,203731,1,0,0:0:0:0:
190,113,203908,1,0,0:0:0:0:
372,157,204084,2,0,L|385:239,1,77.0000023498536,8|0,0:0|0:0,0:0:0:0:
276,353,204437,1,0,0:0:0:0:
348,149,204614,1,0,0:0:0:0:
397,330,204790,6,0,L|486:343,1,77.0000023498536,0|0,1:0|0:0,0:0:0:0:
245,169,205143,2,0,L|156:182,1,77.0000023498536,0|0,0:0|0:0,0:0:0:0:
17,304,205496,1,8,0:0:0:0:
237,352,205672,1,0,0:0:0:0:
137,94,205849,1,0,0:0:0:0:
103,285,206025,1,0,0:0:0:0:
164,83,206202,54,0,P|204:88|243:103,1,77.0000023498536,0|0,1:0|0:0,0:0:0:0:
286,281,206555,1,0,0:0:0:0:
464,218,206731,1,0,0:0:0:0:
242,370,206908,1,8,0:0:0:0:
287,160,207084,1,0,0:0:0:0:
418,303,207261,2,0,P|418:346|405:386,1,77.0000023498536,0|0,0:0|0:0,0:0:0:0:
78,279,207614,6,0,P|66:221|138:140,1,154.000004699707,0|0,1:0|0:0,0:0:0:0:
316,225,208143,1,0,0:0:0:0:
478,174,208320,2,0,L|490:88,1,77.0000023498536,8|0,0:0|0:0,0:0:0:0:
233,37,208672,1,0,0:0:0:0:
190,253,208849,1,0,0:0:0:0:
370,57,209025,54,0,L|380:138,1,77.0000023498536,0|0,1:0|0:0,0:0:0:0:
214,265,209378,1,0,0:0:0:0:
41,204,209555,1,0,0:0:0:0:
237,141,209731,1,8,0:0:0:0:
69,301,209908,1,0,0:0:0:0:
142,120,210084,2,0,L|128:33,1,77.0000023498536,0|0,0:0|0:0,0:0:0:0:
224,253,210437,6,0,P|217:325|268:382,1,154.000004699707,0|0,1:0|0:0,0:0:0:0:
479,353,210967,1,0,0:0:0:0:
429,121,211143,2,0,L|339:108,1,77.0000023498536,8|0,0:0|0:0,0:0:0:0:
132,237,211496,1,0,0:0:0:0:
108,77,211672,1,0,0:0:0:0:
149,260,211849,54,0,L|234:273,1,77.0000023498536,0|0,1:0|0:0,0:0:0:0:
427,222,212202,1,0,0:0:0:0:
384,60,212378,1,0,0:0:0:0:
318,313,212555,2,0,P|348:332|394:342,1,77.0000023498536,8|0,0:0|0:0,0:0:0:0:
200,98,212908,2,0,P|162:106|130:126,1,77.0000023498536,0|0,0:0|0:0,0:0:0:0:
465,149,213261,6,0,P|471:82|396:18,1,154.000004699707,0|0,1:0|0:0,0:0:0:0:
202,189,213790,1,0,0:0:0:0:
24,104,213967,2,0,L|40:18,1,77.0000023498536,8|0,0:0|0:0,0:0:0:0:
78,287,214320,1,0,0:0:0:0:
325,224,214496,1,0,0:0:0:0:
131,162,214672,54,0,L|119:80,1,77.0000023498536,0|0,1:0|0:0,0:0:0:0:
351,238,215025,2,0,L|338:321,1,77.0000023498536,0|0,0:0|0:0,0:0:0:0:
264,35,215378,2,0,P|293:83|400:94,1,154.000004699707,8|0,0:0|0:0,0:0:0:0:
461,30,215908,1,0,0:0:0:0:
398,195,216084,6,0,P|407:234|429:273,1,77.0000023498536,0|0,1:0|0:0,0:0:0:0:
175,245,216437,2,0,P|161:282|157:322,1,77.0000023498536,0|0,0:0|0:0,0:0:0:0:
278,130,216790,2,0,P|256:83|148:56,1,154.000004699707,8|0,0:0|0:0,0:0:0:0:
75,130,217320,1,0,0:0:0:0:
252,301,217496,54,0,L|333:288,1,77.0000023498536,0|0,1:0|0:0,0:0:0:0:
502,91,217849,2,0,L|422:77,1,77.0000023498536,0|0,0:0|0:0,0:0:0:0:
203,161,218202,1,8,0:0:0:0:
242,18,218378,1,0,0:0:0:0:
229,175,218555,1,0,0:0:0:0:
218,30,218731,1,0,0:0:0:0:
317,224,218908,6,0,P|405:223|454:156,1,154.000004699707,0|0,1:0|0:0,0:0:0:0:
412,76,219437,1,0,0:0:0:0:
88,156,219614,1,8,0:0:0:0:
279,146,219790,1,0,0:0:0:0:
82,131,219967,1,0,0:0:0:0:
271,172,220143,1,0,0:0:0:0:
36,295,220320,54,0,L|49:374,1,77.0000023498536,0|0,1:0|0:0,0:0:0:0:
194,238,220672,1,0,0:0:0:0:
147,61,220849,1,0,0:0:0:0:
89,208,221025,1,8,0:0:0:0:
304,187,221202,1,0,0:0:0:0:
141,332,221378,2,0,P|101:331|64:321,1,77.0000023498536,0|0,0:0|0:0,0:0:0:0:
306,100,221731,6,0,P|367:124|386:214,1,154.000004699707,0|0,1:0|0:0,0:0:0:0:
222,291,222261,1,0,0:0:0:0:
413,156,222437,2,0,L|500:167,1,77.0000023498536,8|0,0:0|0:0,0:0:0:0:
233,315,222790,2,0,L|146:304,1,77.0000023498536,0|0,0:0|0:0,0:0:0:0:
109,98,223143,53,0,1:0:0:0:
37,251,223320,1,0,0:0:0:0:
256,202,223496,1,0,0:0:0:0:
198,27,223672,1,0,0:0:0:0:
153,182,223849,1,8,0:0:0:0:
333,129,224025,1,0,0:0:0:0:
112,56,224202,2,0,P|73:62|37:80,1,77.0000023498536,0|0,0:0|0:0,0:0:0:0:
0,257,224555,21,0,1:0:0:0:
90,273,224908,1,2,0:0:0:0:
180,289,225261,1,2,0:0:0:0:
270,305,225614,1,2,0:0:0:0:
445,60,225967,54,0,L|462:153,1,77.0000023498536,6|0,1:2|0:0,0:0:0:0:
331,225,226320,1,0,0:0:0:0:
423,248,226496,1,0,0:0:0:0:
271,103,226672,53,8,0:0:0:0:
213,299,226849,1,0,0:0:0:0:
163,157,227025,1,0,0:0:0:0:
341,253,227202,1,0,0:0:0:0:
77,227,227378,5,0,1:0:0:0:
393,157,227555,1,0,0:0:0:0:
192,73,227731,1,0,0:0:0:0:
103,314,227908,1,0,0:0:0:0:
36,49,228084,53,8,0:0:0:0:
293,214,228261,1,0,0:0:0:0:
0,322,228437,1,0,0:0:0:0:
201,98,228614,1,0,0:0:0:0:
270,291,228790,5,0,1:0:0:0:
313,137,228967,1,0,0:0:0:0:
179,240,229143,1,0,0:0:0:0:
358,264,229320,1,0,0:0:0:0:
291,57,229496,53,8,0:0:0:0:
189,326,229672,1,0,0:0:0:0:
136,107,229849,1,0,0:0:0:0:
416,199,230025,1,0,0:0:0:0:
67,263,230202,5,0,1:0:0:0:
361,328,230378,1,0,0:0:0:0:
306,42,230555,1,0,0:0:0:0:
217,272,230731,1,0,0:0:0:0:
486,144,230908,53,8,0:0:0:0:
61,64,231084,1,0,0:0:0:0:
415,288,231261,1,0,0:0:0:0:
212,21,231437,1,0,0:0:0:0:
71,372,231614,5,4,1:2:0:0:
150,184,231790,1,0,0:0:0:0:
205,340,231967,2,0,L|293:350,1,77.0000023498536,0|0,0:0|0:0,0:0:0:0:
475,296,232320,1,8,0:0:0:0:
298,205,232496,1,0,0:0:0:0:
342,46,232672,2,0,L|354:135,1,77.0000023498536,0|0,0:0|0:0,0:0:0:0:
130,321,233025,54,0,P|74:327|5:265,1,154.000004699707,0|0,1:0|0:0,0:0:0:0:
57,80,233555,1,0,0:0:0:0:
223,127,233731,1,8,0:0:0:0:
93,192,233908,1,0,0:0:0:0:
353,33,234084,1,0,0:0:0:0:
217,358,234261,1,0,0:0:0:0:
152,82,234437,6,0,L|166:-3,1,77.0000023498536,0|0,1:0|0:0,0:0:0:0:
206,179,234790,1,0,0:0:0:0:
468,137,234967,1,0,0:0:0:0:
264,52,235143,1,8,0:0:0:0:
297,302,235320,1,0,0:0:0:0:
441,128,235496,2,0,P|434:86|416:44,1,77.0000023498536,0|0,0:0|0:0,0:0:0:0:
272,314,235849,54,0,P|307:353|412:348,1,154.000004699707,0|0,1:0|0:0,0:0:0:0:
288,216,236378,1,0,0:0:0:0:
102,300,236555,2,0,L|24:285,1,77.0000023498536,8|0,0:0|0:0,0:0:0:0:
192,160,236908,1,0,0:0:0:0:
110,328,237084,1,0,0:0:0:0:
62,104,237261,5,4,1:2:0:0:
208,243,237437,1,0,0:0:0:0:
333,65,237614,2,0,L|252:76,1,77.0000023498536,0|0,0:0|0:0,0:0:0:0:
374,306,237967,2,0,L|455:317,1,77.0000023498536,8|0,0:0|0:0,0:0:0:0:
318,217,238320,1,0,0:0:0:0:
92,303,238496,1,0,0:0:0:0:
249,143,238672,53,0,1:0:0:0:
300,349,238849,1,0,0:0:0:0:
64,139,239025,2,0,L|46:221,1,77.0000023498536,0|0,0:0|0:0,0:0:0:0:
384,140,239378,2,0,P|376:65|297:20,1,154.000004699707,8|0,0:0|0:0,0:0:0:0:
148,92,239908,1,0,0:0:0:0:
382,241,240084,5,0,1:0:0:0:
227,296,240261,1,0,0:0:0:0:
416,361,240437,1,0,0:0:0:0:
295,197,240614,1,0,0:0:0:0:
40,364,240790,1,8,0:0:0:0:
102,178,240967,1,0,0:0:0:0:
155,349,241143,1,0,0:0:0:0:
0,234,241320,1,0,0:0:0:0:
324,187,241496,54,0,L|340:97,1,77.0000023498536,0|0,1:0|0:0,0:0:0:0:
290,33,241849,1,0,0:0:0:0:
154,274,242025,1,0,0:0:0:0:
66,13,242202,1,8,0:0:0:0:
361,266,242378,1,0,0:0:0:0:
28,314,242555,1,0,0:0:0:0:
244,125,242731,1,0,0:0:0:0:
307,348,242908,6,0,P|341:360|390:361,1,77.0000023498536,4|0,1:2|0:0,0:0:0:0:
473,198,243261,1,0,0:0:0:0:
249,254,243437,1,0,0:0:0:0:
389,52,243614,1,8,0:0:0:0:
413,270,243790,1,0,0:0:0:0:
231,132,243967,1,0,0:0:0:0:
121,288,244143,1,0,0:0:0:0:
45,95,244320,54,0,L|63:7,1,77.0000023498536,0|0,1:0|0:0,0:0:0:0:
259,142,244672,2,0,L|274:217,1,77.0000023498536,0|0,0:0|0:0,0:0:0:0:
81,49,245025,2,0,L|65:124,1,77.0000023498536,8|0,0:0|0:0,0:0:0:0:
255,242,245378,2,0,L|239:166,1,77.0000023498536,0|0,0:0|0:0,0:0:0:0:
29,316,245731,5,0,1:0:0:0:
256,192,245908,12,2,248378,0:0:0:0:
