osu file format v14

[General]
AudioFilename: Tristam - My Friend.mp3
AudioLeadIn: 0
PreviewTime: 90084
Countdown: 0
SampleSet: Soft
StackLeniency: 0.6
Mode: 0
LetterboxInBreaks: 1
WidescreenStoryboard: 1

[Editor]
Bookmarks: 22675,45261,67849,90437,113025,135614,158202,180790,203378,225967,245731,248378
DistanceSpacing: 1.2
BeatDivisor: 2
GridSize: 4
TimelineZoom: 1.4

[Metadata]
Title:My Friend
TitleUnicode:My Friend
Artist:Tristam
ArtistUnicode:Tristam
Creator:grumd
Version:Easy (by ReFaller)
Source:
Tags:drumstep monstercat ReFaller Shmiklak Fanteer Secretpipe vanucik5656
BeatmapID:1080520
BeatmapSetID:417938

[Difficulty]
HPDrainRate:1.5
CircleSize:2.5
OverallDifficulty:2
ApproachRate:3
SliderMultiplier:0.6
SliderTickRate:1

[Events]
//Background and Video events
0,0,"822092656.jpg",0,0
//Break Periods
2,113225,134174
//Storyboard Layer 0 (Background)
//Storyboard Layer 1 (Fail)
//Storyboard Layer 2 (Pass)
//Storyboard Layer 3 (Foreground)
//Storyboard Sound Samples

[TimingPoints]
22673,352.941176470588,4,2,0,50,1,0
22673,-166.666666666667,4,2,0,50,0,0
45261,-166.666666666667,4,2,0,30,0,0
67849,-100,4,2,0,80,0,0
90437,-100,4,2,0,80,0,1
107378,-100,4,2,0,60,0,1
109496,-100,4,2,0,40,0,1
111614,-100,4,2,0,20,0,1
113025,-133.333333333333,4,2,0,30,0,0
135614,-166.666666666667,4,2,0,50,0,0
158202,-166.666666666667,4,2,0,30,0,0
180790,-100,4,2,0,80,0,0
201967,-100,4,2,0,60,0,0
203378,-100,4,2,0,80,0,1
224555,-100,4,2,0,60,0,0
225967,-100,4,2,0,90,0,1
245731,-100,4,2,0,60,0,0
246437,-100,4,2,0,50,0,0
247143,-100,4,2,0,40,0,0
247849,-100,4,2,0,30,0,0
248202,-100,4,2,0,20,0,0
248378,-100,4,2,0,10,0,0

[Colours]
Combo1 : 241,65,65
Combo2 : 164,207,240
Combo3 : 130,138,247
Combo4 : 182,148,245
Combo5 : 248,165,124

[HitObjects]
50,278,22673,6,0,P|115:309|195:301,1,143.999995605469,4|8,0:3|0:0,0:0:0:0:
260,216,25496,2,0,B|224:192|224:192|120:187,1,143.999995605469,4|8,0:3|0:0,0:0:0:0:
68,85,28320,6,0,L|213:73,1,143.999995605469,4|8,0:3|0:0,0:0:0:0:
325,92,31143,2,0,B|361:137|361:137|370:228,1,143.999995605469,4|8,0:3|0:0,0:0:0:0:
321,327,33967,6,0,P|272:283|255:206,1,143.999995605469,4|8,0:3|0:0,0:0:0:0:
254,93,36790,2,0,L|110:81,1,143.999995605469,4|8,0:3|0:0,0:0:0:0:
32,166,39614,38,0,P|86:214|155:220,1,143.999995605469,4|8,0:3|0:0,0:0:0:0:
267,196,42437,2,0,P|337:202|390:249,1,143.999995605469,4|8,0:3|0:0,0:0:0:0:
291,309,45261,6,0,P|218:316|155:289,1,143.999995605469,2|0,0:0|0:0,0:0:0:0:
113,212,47378,1,2,0:0:0:0:
160,139,48084,2,0,B|220:129|220:129|307:145,1,143.999995605469,2|0,0:0|0:0,0:0:0:0:
382,174,50202,1,2,0:0:0:0:
462,205,50908,6,0,P|489:139|482:68,1,143.999995605469,2|0,0:0|0:0,0:0:0:0:
417,12,53025,1,2,0:0:0:0:
333,34,53731,2,0,L|188:20,1,143.999995605469,2|0,0:0|0:0,0:0:0:0:
67,142,56555,38,0,P|123:190|199:196,1,143.999995605469,2|0,0:0|0:0,0:0:0:0:
256,254,58673,1,2,0:0:0:0:
325,203,59378,2,0,P|399:190|463:226,1,143.999995605469,2|0,0:0|0:0,0:0:0:0:
502,294,61496,1,2,0:0:0:0:
256,192,62202,12,0,65025,0:0:0:0:
294,202,67143,5,0,0:0:0:0:
292,298,67849,22,0,P|349:315|414:309,2,120,6|8|0,1:2|0:0|1:0,0:0:0:0:
205,256,69967,1,8,0:0:0:0:
121,303,70673,1,0,1:0:0:0:
41,249,71378,2,0,L|35:120,2,120,8|0|8,0:0|1:0|0:0,0:0:0:0:
121,303,73496,5,0,1:0:0:0:
199,247,74202,2,0,L|205:118,2,120,8|0|8,0:0|1:0|0:0,0:0:0:0:
267,314,76320,2,0,P|324:331|389:325,1,120,0|8,1:0|0:0,0:0:0:0:
409,233,77731,2,0,P|352:216|287:222,1,120,0|8,1:0|0:0,0:0:0:0:
199,247,79143,53,0,1:0:0:0:
105,268,79849,2,0,B|68:153|68:153|64:87|122:54,1,240,8|8,0:0|0:0,0:0:0:0:
216,37,81967,1,0,1:0:0:0:
293,94,82672,2,0,B|355:122|410:96|410:96|376:216,1,240,8|8,0:0|0:0,0:0:0:0:
438,285,84790,5,0,1:0:0:0:
358,339,85496,2,0,B|298:364|242:338|242:338|188:305|127:337,1,240,8|8,0:0|0:0,0:0:0:0:
33,358,87614,2,0,P|17:301|28:234,1,120,0|8,1:0|0:0,0:0:0:0:
69,156,89025,1,0,1:0:0:0:
220,37,90437,54,0,L|237:156,1,120,6|8,1:2|0:0,0:0:0:0:
332,167,91849,2,0,L|315:48,1,120,0|8,1:0|0:0,0:0:0:0:
220,37,93261,2,0,B|160:30|160:30|95:52,1,120,0|8,1:0|0:0,0:0:0:0:
53,130,94672,2,0,B|113:137|113:137|178:115,1,120,0|8,1:0|0:0,0:0:0:0:
265,121,96084,5,0,1:0:0:0:
306,209,96790,1,8,0:0:0:0:
251,287,97496,1,0,1:0:0:0:
154,279,98202,1,8,0:0:0:0:
115,191,98908,2,0,P|56:188|1:227,1,120,0|8,1:0|0:0,0:0:0:0:
81,279,100320,2,0,P|140:282|195:243,1,120,0|8,1:0|0:0,0:0:0:0:
273,203,101731,54,0,B|333:210|333:210|398:188,2,120,0|8|0,1:0|0:0|1:0,0:0:0:0:
190,153,103849,1,8,0:0:0:0:
94,150,104555,2,0,B|38:173|38:173|-6:225,2,120,0|8|0,1:0|0:0|1:0,0:0:0:0:
190,153,106672,1,8,0:0:0:0:
285,160,107378,6,0,P|307:105|290:40,1,120,0|8,1:0|0:0,0:0:0:0:
214,98,108790,2,0,P|191:152|208:217,1,120,0|8,1:0|0:0,0:0:0:0:
256,192,110202,12,0,113025,1:0:0:0:
349,91,135614,6,0,B|248:95|248:95|212:119,1,143.999995605469,4|8,0:3|0:0,0:0:0:0:
288,208,138437,2,0,P|359:212|423:181,1,143.999995605469,4|8,0:3|0:0,0:0:0:0:
349,91,141261,6,0,P|284:60|213:64,1,143.999995605469,4|8,0:3|0:0,0:0:0:0:
134,148,144084,2,0,L|121:300,1,143.999995605469,4|8,0:3|0:0,0:0:0:0:
232,322,146908,6,0,B|252:277|252:277|248:225|248:225|268:184,1,143.999995605469,4|8,0:3|0:0,0:0:0:0:
344,102,149731,2,0,P|376:153|370:237,1,143.999995605469,4|8,0:3|0:0,0:0:0:0:
267,186,152555,38,0,B|214:174|214:174|121:197,1,143.999995605469,4|8,0:3|0:0,0:0:0:0:
216,268,155378,2,0,B|268:279|268:279|362:257,1,143.999995605469,4|8,0:3|0:0,0:0:0:0:
394,149,158202,6,0,P|334:106|266:98,1,143.999995605469,2|0,0:0|0:0,0:0:0:0:
191,144,160319,1,2,0:0:0:0:
195,231,161025,2,0,B|241:269|241:269|325:299,1,143.999995605469,2|0,0:0|0:0,0:0:0:0:
406,287,163143,1,2,0:0:0:0:
467,225,163849,6,0,L|453:81,1,143.999995605469,2|0,0:0|0:0,0:0:0:0:
380,35,165966,1,2,0:0:0:0:
311,87,166672,2,0,P|240:93|174:66,1,143.999995605469,2|0,0:0|0:0,0:0:0:0:
44,181,169496,38,0,P|68:250|131:293,1,143.999995605469,2|0,0:0|0:0,0:0:0:0:
206,314,171614,1,2,0:0:0:0:
272,259,172319,2,0,B|285:207|285:207|261:117,1,143.999995605469,2|0,0:0|0:0,0:0:0:0:
228,39,174437,1,2,0:0:0:0:
256,192,175143,12,0,177967,0:0:0:0:
156,195,180084,21,0,0:0:0:0:
156,99,180790,6,0,P|99:82|34:88,2,120,6|8|0,1:2|0:0|1:0,0:0:0:0:
243,141,182908,1,8,0:0:0:0:
327,94,183614,1,0,1:0:0:0:
407,148,184319,2,0,L|413:277,2,120,8|0|8,0:0|1:0|0:0,0:0:0:0:
327,94,186437,5,0,1:0:0:0:
249,150,187143,2,0,L|243:279,2,120,8|0|8,0:0|1:0|0:0,0:0:0:0:
181,83,189261,2,0,P|124:66|59:72,1,120,0|8,1:0|0:0,0:0:0:0:
39,164,190672,2,0,P|96:181|161:175,1,120,0|8,1:0|0:0,0:0:0:0:
249,150,192084,53,0,1:0:0:0:
343,129,192790,2,0,P|377:217|314:340,1,240,8|8,0:0|0:0,0:0:0:0:
218,335,194908,1,0,1:0:0:0:
124,312,195613,2,0,B|62:284|7:310|7:310|41:190,1,240,8|8,0:0|0:0,0:0:0:0:
99,120,197731,5,0,1:0:0:0:
173,180,198437,2,0,B|233:205|289:179|289:179|343:146|404:178,1,240,8|8,0:0|0:0,0:0:0:0:
460,255,200555,2,0,P|404:273|348:256,1,120,0|8,1:0|0:0,0:0:0:0:
290,179,201966,1,0,1:0:0:0:
290,179,203378,54,0,P|253:225|253:292,2,120,6|8|0,1:2|0:0|1:0,0:0:0:0:
342,259,205496,1,8,0:0:0:0:
417,200,206202,2,0,P|414:140|377:94,2,120,0|8|0,1:0|0:0|1:0,0:0:0:0:
342,259,208320,1,8,0:0:0:0:
257,212,209025,6,0,B|199:198|199:198|141:212,1,120,0|8,1:0|0:0,0:0:0:0:
82,289,210437,2,0,B|140:303|140:303|198:289,1,120,0|8,1:0|0:0,0:0:0:0:
294,301,211849,1,0,1:0:0:0:
383,264,212555,1,8,0:0:0:0:
346,175,213261,1,0,1:0:0:0:
257,212,213967,1,8,0:0:0:0:
162,229,214672,54,0,B|127:182|127:182|87:127|108:51|180:31,2,240,0|0|0,1:0|1:0|1:0,0:0:0:0:
236,291,218202,2,0,P|296:289|355:317,2,120,8|0|8,0:0|1:0|0:0,0:0:0:0:
143,317,220320,6,0,P|58:282|46:148,1,240,0|0,1:0|1:0,0:0:0:0:
110,76,222437,1,8,0:0:0:0:
203,98,223143,2,0,L|326:85,1,120,0|8,1:0|0:0,0:0:0:0:
414,58,224555,1,0,1:0:0:0:
364,243,225967,54,0,B|429:267|489:228,2,120,6|8|0,1:2|0:0|1:0,0:0:0:0:
281,193,228085,1,8,0:0:0:0:
185,182,228791,2,0,B|121:194|85:257,2,120,0|8|0,1:0|0:0|1:0,0:0:0:0:
281,193,230908,1,8,0:0:0:0:
367,151,231614,6,0,B|361:84|300:60|300:60|180:45,1,240,4|0,1:2|1:0,0:0:0:0:
94,88,233731,1,8,0:0:0:0:
114,181,234437,2,0,P|217:241|348:244,1,240,0|0,1:0|1:0,0:0:0:0:
429,225,236555,1,8,0:0:0:0:
365,152,237261,54,0,B|321:203|342:262|342:262|286:236|225:257|225:257|171:285|106:257,1,360,4|8,1:2|0:0,0:0:0:0:
50,180,240084,2,0,B|94:129|73:70|73:70|129:96|190:75|190:75|244:47|309:75,1,360,0|8,1:0|0:0,0:0:0:0:
365,152,242908,6,0,P|363:247|251:330,2,240,4|0|0,1:2|1:0|1:0,0:0:0:0:
256,192,246084,12,0,248378,0:0:0:0:
