osu file format v14

[General]
AudioFilename: Tristam - My Friend.mp3
AudioLeadIn: 0
PreviewTime: 90084
Countdown: 0
SampleSet: Soft
StackLeniency: 0.6
Mode: 0
LetterboxInBreaks: 1
WidescreenStoryboard: 1

[Editor]
Bookmarks: 22675,45261,67849,90437,113025,135614,158202,180790,203378,225967,245731,248378
DistanceSpacing: 1
BeatDivisor: 1
GridSize: 4
TimelineZoom: 0.3

[Metadata]
Title:My Friend
TitleUnicode:My Friend
Artist:Tristam
ArtistUnicode:Tristam
Creator:grumd
Version:Beginner (by Shmiklak)
Source:
Tags:drumstep monstercat ReFaller Shmiklak Fanteer Secretpipe vanucik5656
BeatmapID:1249753
BeatmapSetID:417938

[Difficulty]
HPDrainRate:0
CircleSize:2
OverallDifficulty:0
ApproachRate:0
SliderMultiplier:0.400000005960464
SliderTickRate:1

[Events]
//Background and Video events
0,0,"822092656.jpg",0,0
//Break Periods
2,45460,66049
2,113225,133814
2,158402,178990
//Storyboard Layer 0 (Background)
//Storyboard Layer 1 (Fail)
//Storyboard Layer 2 (Pass)
//Storyboard Layer 3 (Foreground)
//Storyboard Sound Samples

[TimingPoints]
22673,352.941176470588,4,2,0,50,1,0
22673,-125,4,2,0,50,0,0
45261,-125,4,2,0,30,0,0
67849,-125,4,2,0,80,0,0
90437,-125,4,2,0,80,0,1
97509,352.941176470588,4,2,0,80,1,1
107378,-125,4,2,0,60,0,1
109496,-125,4,2,0,40,0,1
111614,-125,4,2,0,20,0,1
113025,-125,4,2,0,30,0,0
135614,-125,4,2,0,50,0,0
158202,-125,4,2,0,30,0,0
180790,-125,4,2,0,80,0,0
201967,-125,4,2,0,60,0,0
203378,-125,4,2,0,80,0,1
224555,-125,4,2,0,60,0,0
225967,-125,4,2,0,90,0,1
245731,-125,4,2,0,60,0,0
246437,-125,4,2,0,50,0,0
247143,-125,4,2,0,40,0,0
247849,-125,4,2,0,30,0,0
248202,-125,4,2,0,20,0,0
248378,-125,4,2,0,10,0,0

[Colours]
Combo1 : 241,65,65
Combo2 : 164,207,240
Combo3 : 130,138,247
Combo4 : 182,148,245
Combo5 : 248,165,124

[HitObjects]
136,68,22673,6,0,P|256:28|388:92,2,256.000003814697,4|4|4,0:3|0:3|0:3,0:0:0:0:
76,181,29731,1,8,0:0:0:0:
148,288,31143,2,0,B|256:360|256:360|364:288,1,256.000003814697,4|4,0:3|0:3,0:0:0:0:
488,268,35378,5,8,0:0:0:0:
388,188,36790,2,0,P|356:136|484:40,1,256.000003814697,4|4,0:3|0:3,0:0:0:0:
492,164,41025,2,0,B|480:296|480:296|440:352|360:372|248:324,1,384.000005722045,8|2,0:0|0:0,0:0:0:0:
16,108,67849,6,0,B|140:140|140:140|260:92,1,256.000003814697,6|0,1:2|1:0,0:0:0:0:
320,112,71378,2,0,P|344:172|320:228,1,128.000001907348,8|8,0:0|0:0,0:0:0:0:
276,276,73496,2,0,B|248:288|228:324|228:324|189:306|144:276|144:276|120:320|68:344,1,256.000003814697,0|0,1:0|1:0,0:0:0:0:
20,312,77025,2,0,P|8:256|24:184,1,128.000001907348,8|8,0:0|0:0,0:0:0:0:
67,142,79143,6,0,B|120:107|185:149|185:149|252:195|332:142,1,256.000003814697,0|0,1:0|1:0,0:0:0:0:
365,126,82672,2,0,B|424:104|424:104|500:148,1,128.000001907348,8|8,0:0|0:0,0:0:0:0:
508,192,84790,2,0,B|520:244|512:272|512:272|472:284|448:320|448:320|400:320|360:276,1,256.000003814697,0|0,1:0|1:0,0:0:0:0:
316,240,88320,2,0,P|272:236|240:248,1,64.0000009536742,8|0,0:0|1:0,0:0:0:0:
253,241,90437,6,0,B|190:241|190:241|132:211,1,128.000001907348,6|0,1:2|1:0,0:0:0:0:
132,82,93261,2,0,B|190:52|190:52|262:52,1,128.000001907348,0|0,1:0|1:0,0:0:0:0:
380,52,96084,2,0,B|415:105|373:174|373:174|327:237|380:317,1,256.000003814697,0|0,1:0|1:0,0:0:0:0:
411,338,99614,2,0,L|276:324,1,128.000001907348,8|8,0:0|0:0,0:0:0:0:
224,352,101731,6,0,P|140:356|96:312,1,128.000001907348,0|0,1:0|1:0,0:0:0:0:
108,203,104555,2,0,P|162:171|223:182,1,128.000001907348,0|0,1:0|1:0,0:0:0:0:
314,272,107378,2,0,B|274:215|320:152|320:152|362:83|327:30,1,256.000003814697,0|0,1:0|1:0,0:0:0:0:
201,32,111614,2,0,P|149:32|65:76,1,128.000001907348,0|0,1:0|1:0,0:0:0:0:
132,88,135614,6,0,B|191:46|258:88|258:88|331:139|387:102,2,256.000003814697,4|4|4,0:3|0:3|0:3,0:0:0:0:
60,192,142672,1,8,0:0:0:0:
140,292,144084,2,0,B|256:344|256:344|380:292,1,256.000003814697,4|4,0:3|0:3,0:0:0:0:
452,192,148320,5,8,0:0:0:0:
356,108,149731,1,4,0:3:0:0:
248,180,151143,2,0,B|204:195|168:192|168:192|144:168|124:156|124:156|64:184|48:256,2,256.000003814697,8|8|0,0:0|0:0|0:0,0:0:0:0:
356,108,158202,5,2,0:0:0:0:
447,312,180790,6,0,B|323:284|323:284|187:336,1,256.000003814697,6|0,1:2|1:0,0:0:0:0:
140,348,184319,2,0,P|116:288|140:232,1,128.000001907348,8|8,0:0|0:0,0:0:0:0:
180,184,186437,2,0,P|236:204|356:76,1,256.000003814697,0|0,1:0|1:0,0:0:0:0:
401,35,189967,2,0,P|465:63|488:124,1,128.000001907348,8|8,0:0|0:0,0:0:0:0:
442,158,192084,6,0,B|389:193|324:151|324:151|257:105|177:158,1,256.000003814697,0|0,1:0|1:0,0:0:0:0:
155,189,195613,2,0,B|96:211|96:211|20:167,1,128.000001907348,8|8,0:0|0:0,0:0:0:0:
8,115,197731,2,0,P|44:75|200:143,1,256.000003814697,0|0,1:0|1:0,0:0:0:0:
245,188,201261,2,0,P|289:192|321:180,1,64.0000009536742,8|0,0:0|1:0,0:0:0:0:
307,186,203378,6,0,P|356:188|300:308,1,256.000003814697,6|0,1:2|1:0,0:0:0:0:
176,308,207614,2,0,P|84:248|172:184,1,256.000003814697,0|0,1:0|1:0,0:0:0:0:
240,76,211849,2,0,L|240:216,1,128.000001907348,0|0,1:0|1:0,0:0:0:0:
316,308,214672,6,0,B|380:324|380:324|450:306,1,128.000001907348,0|0,1:0|1:0,0:0:0:0:
364,203,217496,2,0,B|303:187|303:187|239:203,1,128.000001907348,0|0,1:0|1:0,0:0:0:0:
144,284,220320,2,0,B|109:231|151:166|151:166|197:99|144:19,1,256.000003814697,0|0,1:0|1:0,0:0:0:0:
44,104,224555,1,0,1:0:0:0:
60,232,225967,6,0,P|172:292|284:208,1,256.000003814697,6|0,1:2|1:0,0:0:0:0:
282,98,230202,2,0,B|162:54|162:54|38:106,1,256.000003814697,0|0,1:0|1:0,0:0:0:0:
112,212,234437,1,0,1:0:0:0:
240,212,235849,1,0,1:0:0:0:
330,302,237261,6,0,B|392:320|392:320|468:300,1,128.000001907348,4|0,1:2|1:0,0:0:0:0:
453,175,240084,2,0,B|391:158|391:158|329:176,1,128.000001907348,0|0,1:0|1:0,0:0:0:0:
244,272,242908,2,0,B|191:307|126:265|126:265|59:219|-21:272,2,256.000003814697,4|0|0,1:2|1:0|0:0,0:0:0:0:
256,192,249967,12,0,258437,0:0:0:0:
