osu file format v14

[General]
AudioFilename: audio.mp3
AudioLeadIn: 0
PreviewTime: 68839
Countdown: 0
SampleSet: Normal
StackLeniency: 0.7
Mode: 0
LetterboxInBreaks: 0
WidescreenStoryboard: 0

[Editor]
Bookmarks: 35174,52278,68567,69653,71825,73997,76169,78341,80513,82685,87029,91373,95717,100060,102504
DistanceSpacing: 0.7
BeatDivisor: 4
GridSize: 4
TimelineZoom: 1

[Metadata]
Title:My Friend (Speed Up Ver.)
TitleUnicode:My Friend (Speed Up Ver.)
Artist:Tristam
ArtistUnicode:Tristam
Creator:Vaxalk
Version:RADIANT JOURNEY
Source:
Tags:
BeatmapID:1870830
BeatmapSetID:895349

[Difficulty]
HPDrainRate:3
CircleSize:3.5
OverallDifficulty:6
ApproachRate:9.5
SliderMultiplier:1.6
SliderTickRate:1

[Events]
//Background and Video events
0,0,"711435.jpg",0,0
//Break Periods
//Storyboard Layer 0 (Background)
//Storyboard Layer 1 (Fail)
//Storyboard Layer 2 (Pass)
//Storyboard Layer 3 (Foreground)
//Storyboard Sound Samples

[TimingPoints]
17527,542.986425339367,4,1,0,100,1,0
52278,-66.6666666666667,4,1,0,100,0,1
52278,-66.6666666666667,4,1,0,100,0,1
68567,-66.6666666666667,4,1,0,100,0,0
69653,-50,4,1,0,100,0,1
87029,-200,4,1,0,100,0,0

[HitObjects]
116,90,17527,5,0,0:0:0:0:
131,116,17662,1,0,0:0:0:0:
155,148,17798,2,0,P|164:200|90:344,1,200
69,329,18612,2,0,P|140:312|326:336,1,240
419,306,19698,5,0,0:0:0:0:
408,270,19834,1,0,0:0:0:0:
396,231,19970,2,0,P|380:156|439:44,1,200
456,145,20784,2,0,P|391:158|225:95,1,240
135,101,21870,5,0,0:0:0:0:
98,116,22006,1,0,0:0:0:0:
55,135,22142,2,0,P|65:235|181:253,1,200
167,305,22956,2,0,P|204:227|345:144,1,240
256,290,24042,5,0,0:0:0:0:
254,253,24178,1,0,0:0:0:0:
247,220,24314,2,0,P|192:121|102:55,1,200
80,198,25128,2,0,P|129:189|275:38,1,240
375,95,26214,5,0,0:0:0:0:
350,113,26350,1,0,0:0:0:0:
326,140,26486,2,0,P|294:200|324:330,1,200
231,326,27300,2,0,P|270:275|220:115,1,240
153,223,28386,5,0,0:0:0:0:
177,223,28522,1,0,0:0:0:0:
213,223,28658,2,0,L|431:223,1,200
301,321,29472,2,0,L|301:215,1,80
361,95,30015,2,0,L|361:186,1,80
463,226,30558,5,0,0:0:0:0:
432,234,30694,1,0,0:0:0:0:
404,241,30830,2,0,B|371:261|325:240|325:240|291:258|291:258|226:243|191:265,1,200
78,280,31644,2,0,B|140:128|160:205|218:70,1,240
261,47,32730,5,0,0:0:0:0:
288,59,32866,1,0,0:0:0:0:
310,78,33002,2,0,P|357:124|324:262,1,200
273,350,33816,2,0,P|209:276|293:161,1,240
346,144,34902,1,0,0:0:0:0:
179,48,35174,5,0,0:0:0:0:
179,68,35309,1,0,0:0:0:0:
178,88,35445,2,0,L|178:222,1,120
317,220,35988,2,0,P|310:250|281:275,2,40
266,117,36395,2,0,P|330:90|359:96,2,80
407,195,37346,6,0,L|373:230,2,40
308,296,37888,1,0,0:0:0:0:
143,258,38160,1,0,0:0:0:0:
222,213,38296,1,0,0:0:0:0:
293,164,38431,1,0,0:0:0:0:
372,119,38567,2,0,L|465:63,2,80
428,202,39246,2,0,L|374:236,1,40
356,254,39517,5,0,0:0:0:0:
224,312,39653,1,0,0:0:0:0:
258,198,39789,2,0,L|291:285,1,80
303,314,40196,1,0,0:0:0:0:
303,314,40332,2,0,L|199:314,1,80
66,221,40739,2,0,L|153:221,1,80
252,217,41146,2,0,L|252:262,1,40
397,242,41418,2,0,L|397:62,1,160
126,118,43183,1,0,0:0:0:0:
149,96,43318,1,0,0:0:0:0:
173,76,43454,6,0,P|235:78|284:98,1,80
389,110,43861,2,0,L|375:177,2,40
410,229,44269,2,0,L|355:230,1,40
270,316,44540,2,0,L|316:316,1,40
218,224,44812,2,0,L|168:224,1,40
96,318,45083,2,0,L|142:318,2,40
65,152,45490,2,0,L|65:196,1,40
52,64,45762,2,0,L|121:63,1,40
258,140,46033,6,0,L|258:190,2,40
300,248,46441,2,0,P|253:260|192:234,1,80
140,327,46848,2,0,L|140:259,1,40
143,151,47255,1,0,0:0:0:0:
272,152,47527,2,0,L|339:151,2,40
358,85,47934,2,0,P|392:139|376:197,1,120
404,234,48477,2,0,P|358:221|261:258,1,120
208,312,49020,2,0,L|208:260,1,40
209,190,49291,2,0,L|161:190,1,40
209,110,49563,2,0,L|258:110,1,40
209,29,49834,1,0,0:0:0:0:
209,29,49970,2,0,P|309:29|153:167,1,520
260,130,52278,6,0,P|331:143|376:249,1,180.000006866455
426,307,52821,2,0,L|241:215,1,180.000006866455
128,249,53364,2,0,L|295:336,1,180.000006866455
196,189,53907,2,0,L|11:97,1,180.000006866455
267,54,54450,6,0,P|314:117|295:258,1,180.000006866455
170,156,54993,2,0,P|243:133|371:153,1,180.000006866455
305,271,55536,2,0,P|238:297|123:274,1,180.000006866455
14,182,56079,2,0,P|87:159|215:179,1,180.000006866455
283,285,56622,6,0,L|283:100,1,180.000006866455
367,327,57165,2,0,P|304:363|202:325,1,180.000006866455
130,214,57707,2,0,P|199:212|297:303,1,180.000006866455
130,308,58250,2,0,P|50:255|63:146,1,180.000006866455
110,51,58793,6,0,P|138:109|121:230,1,180.000006866455
270,51,59336,2,0,P|270:115|204:217,1,180.000006866455
431,97,59879,2,0,P|404:155|300:220,1,180.000006866455
441,253,60422,2,0,L|283:338,1,180.000006866455
201,248,60965,6,0,P|136:218|215:224,1,180.000006866455
184,100,61508,2,0,P|266:130|286:234,1,180.000006866455
259,75,62051,2,0,P|303:150|251:243,1,180.000006866455
334,105,62594,2,0,P|318:191|219:228,1,180.000006866455
121,226,63137,6,0,P|212:243|231:333,1,180.000006866455
155,302,63680,2,0,P|200:246|332:233,1,180.000006866455
106,185,64223,2,0,P|178:183|273:276,1,180.000006866455
165,73,64766,2,0,P|212:127|202:259,1,180.000006866455
138,174,65309,6,0,L|329:156,1,180.000006866455
335,246,65852,2,0,B|272:299|272:299|139:303,1,180.000006866455
350,174,66395,2,0,B|342:256|342:256|251:353,1,180.000006866455
259,229,66938,2,0,B|341:236|341:236|437:327,1,180.000006866455
465,342,67481,6,0,L|275:342,1,180.000006866455
66,260,68024,2,0,L|258:260,1,180.000006866455
274,260,68567,1,0,0:0:0:0:
274,260,68839,5,0,0:0:0:0:
151,140,69110,1,0,0:0:0:0:
263,25,69382,1,0,0:0:0:0:
375,84,69653,5,0,0:0:0:0:
253,228,69789,1,0,0:0:0:0:
292,40,69925,1,0,0:0:0:0:
218,238,70060,1,0,0:0:0:0:
176,36,70196,5,0,0:0:0:0:
200,259,70332,1,0,0:0:0:0:
59,96,70468,1,0,0:0:0:0:
193,290,70603,1,0,0:0:0:0:
45,310,70739,5,0,0:0:0:0:
215,311,70875,1,0,0:0:0:0:
195,125,71011,1,0,0:0:0:0:
250,321,71146,1,0,0:0:0:0:
90,221,71282,5,0,0:0:0:0:
306,155,71418,1,0,0:0:0:0:
462,298,71554,2,0,B|421:301|421:301|382:284,1,80
238,284,71825,5,0,0:0:0:0:
463,174,71961,1,0,0:0:0:0:
187,193,72097,1,0,0:0:0:0:
417,276,72232,5,0,0:0:0:0:
319,68,72368,1,0,0:0:0:0:
338,332,72504,1,0,0:0:0:0:
433,116,72640,5,0,0:0:0:0:
178,139,72775,1,0,0:0:0:0:
480,225,72911,1,0,0:0:0:0:
238,50,73047,5,0,0:0:0:0:
246,317,73183,1,0,0:0:0:0:
325,93,73318,1,0,0:0:0:0:
154,208,73454,5,0,0:0:0:0:
396,206,73590,1,0,0:0:0:0:
153,121,73726,2,0,B|193:131|193:131|244:113,1,80
304,93,73997,5,0,0:0:0:0:
195,314,74133,1,0,0:0:0:0:
391,163,74269,1,0,0:0:0:0:
128,216,74404,1,0,0:0:0:0:
359,280,74541,5,0,0:0:0:0:
170,116,74676,1,0,0:0:0:0:
294,323,74812,1,0,0:0:0:0:
228,62,74948,1,0,0:0:0:0:
168,295,75083,5,0,0:0:0:0:
377,134,75218,1,0,0:0:0:0:
168,295,75354,1,0,0:0:0:0:
377,134,75490,1,0,0:0:0:0:
83,129,75626,5,0,0:0:0:0:
398,267,75762,1,0,0:0:0:0:
110,127,75898,2,0,P|153:120|191:128,1,80
197,212,76169,5,0,0:0:0:0:
246,341,76305,1,0,0:0:0:0:
240,165,76441,5,0,0:0:0:0:
216,286,76576,1,0,0:0:0:0:
192,98,76712,5,0,0:0:0:0:
279,261,76848,1,0,0:0:0:0:
267,36,76984,5,0,0:0:0:0:
216,229,77119,1,0,0:0:0:0:
312,169,77255,5,0,0:0:0:0:
160,187,77391,1,0,0:0:0:0:
352,240,77527,5,0,0:0:0:0:
149,187,77662,1,0,0:0:0:0:
399,144,77798,5,0,0:0:0:0:
141,187,77934,1,0,0:0:0:0:
445,227,78069,5,0,0:0:0:0:
132,187,78205,1,0,0:0:0:0:
362,297,78341,5,0,0:0:0:0:
117,292,78477,1,0,0:0:0:0:
166,139,78612,1,0,0:0:0:0:
264,338,78748,1,0,0:0:0:0:
300,63,78884,5,0,0:0:0:0:
184,256,79020,1,0,0:0:0:0:
357,196,79155,1,0,0:0:0:0:
145,102,79291,1,0,0:0:0:0:
293,296,79427,5,0,0:0:0:0:
102,197,79563,1,0,0:0:0:0:
352,109,79698,1,0,0:0:0:0:
163,292,79834,1,0,0:0:0:0:
234,57,79970,5,0,0:0:0:0:
338,309,80106,1,0,0:0:0:0:
158,139,80241,2,0,L|94:76,1,80
50,26,80513,5,0,0:0:0:0:
276,152,80649,1,0,0:0:0:0:
42,135,80784,5,0,0:0:0:0:
295,134,80920,1,0,0:0:0:0:
77,249,81056,5,0,0:0:0:0:
304,105,81192,1,0,0:0:0:0:
179,327,81327,5,0,0:0:0:0:
295,78,81463,1,0,0:0:0:0:
317,350,81599,5,0,0:0:0:0:
278,59,81735,1,0,0:0:0:0:
436,311,81870,5,0,0:0:0:0:
258,44,82006,1,0,0:0:0:0:
474,179,82142,5,0,0:0:0:0:
233,50,82278,1,0,0:0:0:0:
419,29,82413,2,0,P|389:53|366:108,1,80
300,346,82685,5,0,0:0:0:0:
410,147,82820,1,0,0:0:0:0:
211,37,82956,1,0,0:0:0:0:
101,236,83092,1,0,0:0:0:0:
348,281,83228,5,0,0:0:0:0:
345,99,83363,1,0,0:0:0:0:
163,102,83499,1,0,0:0:0:0:
166,284,83635,1,0,0:0:0:0:
330,210,83771,5,0,0:0:0:0:
274,117,83906,1,0,0:0:0:0:
181,173,84042,1,0,0:0:0:0:
237,266,84178,1,0,0:0:0:0:
300,179,84314,5,0,0:0:0:0:
243,147,84449,1,0,0:0:0:0:
211,204,84585,1,0,0:0:0:0:
268,236,84721,1,0,0:0:0:0:
275,172,84857,5,0,0:0:0:0:
236,172,84992,1,0,0:0:0:0:
236,211,85128,1,0,0:0:0:0:
275,211,85264,1,0,0:0:0:0:
262,165,85400,5,0,0:0:0:0:
229,185,85535,1,0,0:0:0:0:
249,218,85671,1,0,0:0:0:0:
282,198,85807,1,0,0:0:0:0:
248,165,85943,5,0,0:0:0:0:
229,199,86078,1,0,0:0:0:0:
263,218,86214,1,0,0:0:0:0:
282,184,86350,1,0,0:0:0:0:
236,172,86486,5,0,0:0:0:0:
236,211,86621,1,0,0:0:0:0:
275,211,86757,1,0,0:0:0:0:
275,172,86893,1,0,0:0:0:0:
256,195,87029,6,0,P|213:64|236:226,1,620
256,195,91373,2,0,P|333:141|248:215,1,620
194,249,95717,2,0,P|176:73|255:264,1,620
250,154,100060,2,0,P|365:203|244:201,1,340
256,192,102504,12,0,103861,0:0:0:0:
