osu file format v14

[General]
AudioFilename: audio.mp3
AudioLeadIn: 0
PreviewTime: 68839
Countdown: 0
SampleSet: Normal
StackLeniency: 0.7
Mode: 0
LetterboxInBreaks: 0
WidescreenStoryboard: 0

[Editor]
Bookmarks: 35174,52278,68567,69653,71825,73997,76169,78341,80513,82685,84857,87029,91373,95717,100060,102504
DistanceSpacing: 0.7
BeatDivisor: 4
GridSize: 4
TimelineZoom: 1

[Metadata]
Title:My Friend (Speed Up Ver.)
TitleUnicode:My Friend (Speed Up Ver.)
Artist:Tristam
ArtistUnicode:Tristam
Creator:Vaxalk
Version:Easy
Source:
Tags:
BeatmapID:1875081
BeatmapSetID:895349

[Difficulty]
HPDrainRate:2
CircleSize:2
OverallDifficulty:2
ApproachRate:7
SliderMultiplier:1
SliderTickRate:1

[Events]
//Background and Video events
0,0,"journey-3840x2160-mountains-4k-5k-1098.jpg",0,0
//Break Periods
//Storyboard Layer 0 (Background)
//Storyboard Layer 1 (Fail)
//Storyboard Layer 2 (Pass)
//Storyboard Layer 3 (Foreground)
//Storyboard Sound Samples

[TimingPoints]
17527,542.986425339367,4,1,0,100,1,0
52278,-100,4,1,0,100,0,1
68567,-100,4,1,0,100,0,0
69653,-100,4,1,0,100,0,1
87029,-133.333333333333,4,1,0,100,0,0
91373,-200,4,1,0,100,0,0

[HitObjects]
107,110,17527,6,0,P|212:147|269:232,1,200
294,334,19698,2,0,P|189:297|132:212,1,200
382,67,21870,6,0,L|383:279,1,200
409,291,24042,2,0,B|278:269|314:323|209:315,1,200
97,287,26214,6,0,P|75:193|147:135,1,200
271,210,28386,2,0,P|302:145|220:46,1,200
439,244,30558,6,0,P|370:253|274:338,1,200
151,247,32730,2,0,L|151:36,1,200
304,77,34902,5,0,0:0:0:0:
304,77,35174,2,0,P|310:158|121:300,1,325
111,141,37074,6,0,B|272:157|257:236|470:254,1,375
441,349,39246,2,0,L|53:349,1,375
66,255,41418,2,0,P|163:248|319:109,1,300
428,146,43183,2,0,L|427:194,1,25
459,242,43454,6,0,P|295:234|139:301,1,325
273,331,45762,2,0,L|273:170,1,150
83,74,46848,2,0,P|190:90|301:254,1,300
384,302,50106,6,0,P|293:324|124:194,1,300
460,127,52278,6,0,L|460:219,1,75
354,197,52821,2,0,L|354:289,1,75
255,227,53364,2,0,L|255:152,1,75
153,203,53907,2,0,L|153:295,1,75
76,75,54450,6,0,L|151:75,1,75
339,174,54993,2,0,L|264:174,1,75
107,235,55536,2,0,L|182:235,1,75
336,293,56079,2,0,L|261:293,1,75
89,337,56622,6,0,L|89:253,1,75
254,190,57165,2,0,L|254:106,1,75
354,196,57707,2,0,L|354:271,1,75
451,192,58250,2,0,L|451:108,1,75
464,283,58793,6,0,P|426:306|381:296,1,75
257,222,59336,2,0,P|295:199|340:209,1,75
256,309,59879,2,0,P|218:332|173:322,1,75
49,248,60422,2,0,P|87:225|132:235,1,75
159,48,60965,6,0,L|159:129,1,75
256,152,61508,2,0,L|344:152,1,75
453,234,62051,2,0,L|371:234,1,75
256,320,62594,2,0,L|344:320,1,75
144,336,63137,6,0,P|140:290|165:251,1,75
361,182,63680,2,0,P|314:189|280:176,1,75
207,71,64223,2,0,P|239:63|286:72,1,75
457,137,64766,2,0,P|468:172|457:218,1,75
460,322,65309,6,0,L|378:322,1,75
228,229,65852,2,0,L|229:309,1,75
93,234,66395,2,0,L|93:149,1,75
228,51,66938,2,0,L|228:126,1,75
341,173,67481,6,0,L|434:173,1,75
329,308,68024,2,0,L|254:308,1,75
150,308,68567,1,0,0:0:0:0:
144,110,69653,6,0,L|144:138,3,25
232,244,70196,2,0,L|232:219,3,25
314,107,70739,2,0,L|314:135,3,25
402,241,71282,2,0,L|402:216,3,25
461,97,71825,6,0,P|478:119|461:190,1,100
402,241,72640,1,0,0:0:0:0:
446,291,72911,2,0,P|434:316|356:329,1,100
302,324,73726,1,0,0:0:0:0:
302,324,73997,6,0,L|272:324,3,25
143,246,74540,2,0,L|168:246,3,25
295,143,75083,2,0,L|265:143,3,25
136,65,75626,2,0,L|161:65,3,25
380,68,76169,6,0,L|380:140,1,50
429,205,76712,2,0,L|357:205,1,50
292,254,77255,2,0,L|292:182,1,50
243,117,77798,2,0,L|315:117,1,50
457,237,78341,6,0,L|426:237,3,25
325,320,78884,2,0,L|350:320,3,25
231,221,79427,2,0,L|206:221,3,25
75,313,79970,2,0,L|100:313,3,25
114,124,80513,6,0,P|150:72|193:67,1,100
179,252,81327,2,0,L|179:284,1,25
268,139,81599,2,0,P|330:149|353:186,1,100
179,252,82413,2,0,L|179:284,1,25
369,280,82685,6,0,L|369:311,7,25
259,219,83771,2,0,L|259:194,7,25
198,304,84857,6,0,L|167:304,7,25
259,194,85943,2,0,L|284:194,7,25
491,27,87029,6,0,B|196:133|386:306|20:346,1,581.250022172929
75,201,91373,2,0,P|194:117|150:215,1,387.5
138,312,95717,2,0,P|235:300|365:63,1,387.5
434,290,100060,2,0,L|241:196,1,212.5
256,192,102504,12,0,103861,0:0:0:0:
