osu file format v14

[General]
AudioFilename: audio.mp3
AudioLeadIn: 0
PreviewTime: 69201
Countdown: 0
SampleSet: None
StackLeniency: 0.3
Mode: 1
LetterboxInBreaks: 0
WidescreenStoryboard: 1

[Editor]
Bookmarks: 170848
DistanceSpacing: 1.4
BeatDivisor: 3
GridSize: 32
TimelineZoom: 2.5

[Metadata]
Title:Before We Fade
TitleUnicode:Before We Fade
Artist:Tristam
ArtistUnicode:Tristam
Creator:Upgradefort
Version:Oni
Source:
Tags:
BeatmapID:1854095
BeatmapSetID:886893

[Difficulty]
HPDrainRate:6
CircleSize:5
OverallDifficulty:6
ApproachRate:7
SliderMultiplier:1.4
SliderTickRate:1

[Events]
//Background and Video events
0,0,"pixiv paradise shadows.jpg",0,0
//Break Periods
//Storyboard Layer 0 (Background)
//Storyboard Layer 1 (Fail)
//Storyboard Layer 2 (Pass)
//Storyboard Layer 3 (Foreground)
//Storyboard Sound Samples

[TimingPoints]
25,352.941176470588,4,1,0,100,1,0
13083,-90.9090909090909,4,1,0,100,0,0
35319,-117.647058823529,4,1,0,100,0,0
46613,-111.111111111111,4,1,0,100,0,0
69201,-83.3333333333333,4,1,0,100,0,1
90201,-90.9090909090909,4,1,0,100,0,0
90377,-100,4,1,0,100,0,0
114377,-117.647058823529,4,1,0,100,0,0
125672,-111.111111111111,4,1,0,100,0,0
136966,-105.263157894737,4,1,0,100,0,0
173672,-83.3333333333333,4,1,0,100,0,1
191848,-90.9090909090909,4,1,0,100,0,0
192024,-100,4,1,0,100,0,0
216024,-83.3333333333333,4,1,0,100,0,1
225730,-90.9090909090909,4,1,0,100,0,0
225907,-100,4,1,0,100,0,0
227319,-90.9090909090909,4,1,0,100,0,0

[HitObjects]
256,192,11319,5,0,0:0:0:0:
256,192,11672,1,8,0:0:0:0:
256,192,11848,1,8,0:0:0:0:
256,192,12024,1,0,0:0:0:0:
256,192,12377,1,0,0:0:0:0:
256,192,12495,1,0,0:0:0:0:
256,192,12613,1,0,0:0:0:0:
256,192,12730,1,12,0:0:0:0:
256,192,13083,1,0,0:0:0:0:
256,192,13260,1,0,0:0:0:0:
256,192,13436,1,8,0:0:0:0:
256,192,13789,1,8,0:0:0:0:
256,192,13966,1,0,0:0:0:0:
256,192,14142,1,12,0:0:0:0:
256,192,14495,1,8,0:0:0:0:
256,192,14613,1,8,0:0:0:0:
256,192,14730,1,0,0:0:0:0:
256,192,14848,1,8,0:0:0:0:
256,192,15201,1,0,0:0:0:0:
256,192,15289,1,0,0:0:0:0:
256,192,15377,1,8,0:0:0:0:
256,192,15466,1,8,0:0:0:0:
256,192,15554,1,4,0:0:0:0:
256,192,15907,1,0,0:0:0:0:
256,192,16083,1,8,0:0:0:0:
256,192,16260,1,0,0:0:0:0:
256,192,16436,1,0,0:0:0:0:
256,192,16613,1,8,0:0:0:0:
256,192,16789,1,0,0:0:0:0:
256,192,16966,1,12,0:0:0:0:
256,192,17319,1,0,0:0:0:0:
256,192,17495,1,0,0:0:0:0:
256,192,17672,1,8,0:0:0:0:
256,192,17789,1,8,0:0:0:0:
256,192,17907,1,8,0:0:0:0:
256,192,18024,1,0,0:0:0:0:
256,192,18201,1,0,0:0:0:0:
256,192,18377,1,12,0:0:0:0:
256,192,18730,1,0,0:0:0:0:
256,192,18907,1,0,0:0:0:0:
256,192,19083,1,8,0:0:0:0:
256,192,19436,1,8,0:0:0:0:
256,192,19613,1,0,0:0:0:0:
256,192,19789,1,12,0:0:0:0:
256,192,20142,1,0,0:0:0:0:
256,192,20495,1,8,0:0:0:0:
256,192,20848,1,0,0:0:0:0:
256,192,21024,1,0,0:0:0:0:
256,192,21201,1,12,0:0:0:0:
256,192,21554,1,0,0:0:0:0:
256,192,21730,1,0,0:0:0:0:
256,192,21907,1,8,0:0:0:0:
256,192,22260,1,8,0:0:0:0:
256,192,22377,1,0,0:0:0:0:
256,192,22495,1,0,0:0:0:0:
256,192,22613,1,12,0:0:0:0:
256,192,22730,1,0,0:0:0:0:
256,192,22848,1,0,0:0:0:0:
256,192,22966,1,8,0:0:0:0:
256,192,23319,1,8,0:0:0:0:
256,192,23436,1,8,0:0:0:0:
256,192,23554,1,8,0:0:0:0:
256,192,23672,1,0,0:0:0:0:
256,192,24024,1,12,0:0:0:0:
256,192,24554,1,0,0:0:0:0:
256,192,24730,1,0,0:0:0:0:
256,192,24907,1,8,0:0:0:0:
256,192,25083,1,0,0:0:0:0:
256,192,25260,1,0,0:0:0:0:
256,192,25436,1,12,0:0:0:0:
256,192,25966,1,0,0:0:0:0:
256,192,26142,1,0,0:0:0:0:
256,192,26319,1,8,0:0:0:0:
256,192,26495,1,0,0:0:0:0:
256,192,26672,1,0,0:0:0:0:
256,192,26848,1,12,0:0:0:0:
256,192,27201,1,8,0:0:0:0:
256,192,27377,1,0,0:0:0:0:
256,192,27730,1,8,0:0:0:0:
256,192,27907,1,0,0:0:0:0:
256,192,28024,1,0,0:0:0:0:
256,192,28142,1,0,0:0:0:0:
256,192,28260,1,12,0:0:0:0:
256,192,28495,1,8,0:0:0:0:
256,192,28613,1,0,0:0:0:0:
256,192,28848,1,0,0:0:0:0:
256,192,28966,1,8,0:0:0:0:
256,192,29142,1,8,0:0:0:0:
256,192,29319,1,0,0:0:0:0:
256,192,29436,1,0,0:0:0:0:
256,192,29554,1,0,0:0:0:0:
256,192,29672,1,8,0:0:0:0:
256,192,30024,1,8,0:0:0:0:
256,192,30201,1,8,0:0:0:0:
256,192,30377,1,0,0:0:0:0:
256,192,30554,1,0,0:0:0:0:
256,192,30730,1,8,0:0:0:0:
256,192,30819,1,8,0:0:0:0:
256,192,30907,1,0,0:0:0:0:
256,192,30995,1,0,0:0:0:0:
256,192,31083,1,8,0:0:0:0:
256,192,31436,1,0,0:0:0:0:
256,192,31613,1,0,0:0:0:0:
256,192,31789,1,8,0:0:0:0:
256,192,32142,1,8,0:0:0:0:
256,192,32319,1,0,0:0:0:0:
256,192,32495,1,12,0:0:0:0:
256,192,32672,1,0,0:0:0:0:
256,192,32848,1,0,0:0:0:0:
256,192,33024,1,8,0:0:0:0:
256,192,33201,1,8,0:0:0:0:
256,192,33377,1,0,0:0:0:0:
256,192,33554,1,8,0:0:0:0:
256,192,33730,1,0,0:0:0:0:
256,192,33907,1,12,0:0:0:0:
256,192,35319,1,0,0:0:0:0:
256,192,36377,1,8,0:0:0:0:
256,192,36554,1,8,0:0:0:0:
256,192,36730,1,0,0:0:0:0:
256,192,37260,1,8,0:0:0:0:
256,192,37613,1,0,0:0:0:0:
256,192,37966,1,0,0:0:0:0:
256,192,38142,1,8,0:0:0:0:
256,192,38848,1,0,0:0:0:0:
256,192,39201,1,0,0:0:0:0:
256,192,39554,1,8,0:0:0:0:
256,192,40083,1,0,0:0:0:0:
256,192,40437,1,0,0:0:0:0:
256,192,40613,1,8,0:0:0:0:
256,192,40789,1,8,0:0:0:0:
256,192,40966,1,0,0:0:0:0:
256,192,41672,1,0,0:0:0:0:
256,192,41848,1,8,0:0:0:0:
256,192,42024,1,0,0:0:0:0:
256,192,42201,1,0,0:0:0:0:
256,192,42377,1,8,0:0:0:0:
256,192,42907,1,0,0:0:0:0:
256,192,43083,1,0,0:0:0:0:
256,192,43260,1,8,0:0:0:0:
256,192,43436,1,8,0:0:0:0:
256,192,43613,1,0,0:0:0:0:
256,192,43789,1,8,0:0:0:0:
256,192,44495,1,8,0:0:0:0:
256,192,44672,1,0,0:0:0:0:
256,192,45024,1,0,0:0:0:0:
256,192,45201,1,8,0:0:0:0:
256,192,45377,1,0,0:0:0:0:
256,192,45554,1,0,0:0:0:0:
256,192,45907,1,8,0:0:0:0:
256,192,46083,1,8,0:0:0:0:
256,192,46260,1,0,0:0:0:0:
256,192,46436,1,0,0:0:0:0:
256,192,46613,1,8,0:0:0:0:
256,192,46877,1,8,0:0:0:0:
256,192,47142,1,8,0:0:0:0:
256,192,47672,1,0,0:0:0:0:
256,192,47848,1,0,0:0:0:0:
256,192,48024,1,8,0:0:0:0:
256,192,48289,1,8,0:0:0:0:
256,192,48554,1,8,0:0:0:0:
256,192,48907,1,0,0:0:0:0:
256,192,49083,1,8,0:0:0:0:
256,192,49260,1,8,0:0:0:0:
256,192,49436,1,0,0:0:0:0:
256,192,49701,1,0,0:0:0:0:
256,192,49966,1,0,0:0:0:0:
256,192,50319,1,8,0:0:0:0:
256,192,50495,1,8,0:0:0:0:
256,192,50672,1,0,0:0:0:0:
256,192,50848,1,8,0:0:0:0:
256,192,51377,1,8,0:0:0:0:
256,192,51554,1,0,0:0:0:0:
256,192,51730,1,0,0:0:0:0:
256,192,51907,1,0,0:0:0:0:
256,192,52083,1,8,0:0:0:0:
256,192,52260,1,0,0:0:0:0:
256,192,52524,1,0,0:0:0:0:
256,192,52789,1,0,0:0:0:0:
256,192,52966,1,8,0:0:0:0:
256,192,53319,1,8,0:0:0:0:
256,192,53495,1,8,0:0:0:0:
256,192,53672,1,0,0:0:0:0:
256,192,53936,1,0,0:0:0:0:
256,192,54201,1,0,0:0:0:0:
256,192,54554,1,8,0:0:0:0:
256,192,54907,1,0,0:0:0:0:
256,192,55083,1,8,0:0:0:0:
256,192,55348,1,8,0:0:0:0:
256,192,55613,1,8,0:0:0:0:
256,192,55966,1,0,0:0:0:0:
256,192,56142,1,8,0:0:0:0:
256,192,56495,1,0,0:0:0:0:
256,192,56848,1,0,0:0:0:0:
256,192,57024,1,8,0:0:0:0:
256,192,57377,1,8,0:0:0:0:
256,192,57554,1,0,0:0:0:0:
256,192,57907,1,4,0:0:0:0:
256,192,57995,12,0,67436,0:0:0:0:
256,192,67789,5,4,0:0:0:0:
256,192,69201,1,12,0:0:0:0:
256,192,69554,1,0,0:0:0:0:
256,192,69730,1,0,0:0:0:0:
256,192,69907,1,12,0:0:0:0:
256,192,70260,1,8,0:0:0:0:
256,192,70436,1,0,0:0:0:0:
256,192,70524,1,0,0:0:0:0:
256,192,70613,1,12,0:0:0:0:
256,192,70966,1,8,0:0:0:0:
256,192,71142,1,0,0:0:0:0:
256,192,71230,1,0,0:0:0:0:
256,192,71319,1,12,0:0:0:0:
256,192,71495,1,0,0:0:0:0:
256,192,71672,1,0,0:0:0:0:
256,192,71848,1,0,0:0:0:0:
256,192,72024,1,12,0:0:0:0:
256,192,72377,1,8,0:0:0:0:
256,192,72466,1,8,0:0:0:0:
256,192,72554,1,0,0:0:0:0:
256,192,72730,1,12,0:0:0:0:
256,192,72907,1,0,0:0:0:0:
256,192,73083,1,8,0:0:0:0:
256,192,73172,1,8,0:0:0:0:
256,192,73260,1,0,0:0:0:0:
256,192,73348,1,0,0:0:0:0:
256,192,73436,1,12,0:0:0:0:
256,192,73789,1,0,0:0:0:0:
256,192,73966,1,0,0:0:0:0:
256,192,74142,1,12,0:0:0:0:
256,192,74319,1,8,0:0:0:0:
256,192,74495,1,0,0:0:0:0:
256,192,74583,1,0,0:0:0:0:
256,192,74672,1,8,0:0:0:0:
256,192,74760,1,0,0:0:0:0:
256,192,74848,1,12,0:0:0:0:
256,192,75201,1,0,0:0:0:0:
256,192,75377,1,0,0:0:0:0:
256,192,75554,1,12,0:0:0:0:
256,192,75907,1,8,0:0:0:0:
256,192,76083,1,0,0:0:0:0:
256,192,76260,1,12,0:0:0:0:
256,192,76436,1,0,0:0:0:0:
256,192,76613,1,0,0:0:0:0:
256,192,76789,1,0,0:0:0:0:
256,192,76966,1,12,0:0:0:0:
256,192,77142,1,0,0:0:0:0:
256,192,77319,1,8,0:0:0:0:
256,192,77407,1,8,0:0:0:0:
256,192,77495,1,0,0:0:0:0:
256,192,77583,1,0,0:0:0:0:
256,192,77672,1,12,0:0:0:0:
256,192,78024,1,0,0:0:0:0:
256,192,78201,1,0,0:0:0:0:
256,192,78377,1,12,0:0:0:0:
256,192,78554,1,0,0:0:0:0:
256,192,78730,1,8,0:0:0:0:
256,192,78819,1,8,0:0:0:0:
256,192,78907,1,0,0:0:0:0:
256,192,78995,1,0,0:0:0:0:
256,192,79083,1,12,0:0:0:0:
256,192,79260,1,12,0:0:0:0:
256,192,79436,1,4,0:0:0:0:
256,192,79613,1,4,0:0:0:0:
256,192,79789,1,12,0:0:0:0:
256,192,79877,1,0,0:0:0:0:
256,192,79966,1,0,0:0:0:0:
256,192,80054,1,0,0:0:0:0:
256,192,80142,1,8,0:0:0:0:
256,192,80230,1,8,0:0:0:0:
256,192,80319,1,0,0:0:0:0:
256,192,80407,1,0,0:0:0:0:
256,192,80495,1,12,0:0:0:0:
256,192,80848,1,0,0:0:0:0:
256,192,81024,1,4,0:0:0:0:
256,192,81201,1,12,0:0:0:0:
256,192,81554,1,8,0:0:0:0:
256,192,81730,1,0,0:0:0:0:
256,192,81907,1,12,0:0:0:0:
256,192,82260,1,0,0:0:0:0:
256,192,82348,1,8,0:0:0:0:
256,192,82436,1,0,0:0:0:0:
256,192,82524,1,0,0:0:0:0:
256,192,82613,1,8,0:0:0:0:
256,192,82966,1,8,0:0:0:0:
256,192,83054,1,8,0:0:0:0:
256,192,83142,1,0,0:0:0:0:
256,192,83230,1,0,0:0:0:0:
256,192,83319,1,12,0:0:0:0:
256,192,83495,1,8,0:0:0:0:
256,192,83672,1,0,0:0:0:0:
256,192,83848,1,0,0:0:0:0:
256,192,84024,1,12,0:0:0:0:
256,192,84201,1,0,0:0:0:0:
256,192,84554,1,0,0:0:0:0:
256,192,84730,1,12,0:0:0:0:
256,192,85083,1,8,0:0:0:0:
256,192,85260,1,8,0:0:0:0:
256,192,85436,1,0,0:0:0:0:
256,192,85524,1,0,0:0:0:0:
256,192,85613,1,0,0:0:0:0:
256,192,85789,1,8,0:0:0:0:
256,192,85877,1,8,0:0:0:0:
256,192,85966,1,0,0:0:0:0:
256,192,86054,1,0,0:0:0:0:
256,192,86142,1,12,0:0:0:0:
256,192,86495,1,0,0:0:0:0:
256,192,86672,1,0,0:0:0:0:
256,192,86848,1,8,0:0:0:0:
256,192,87201,1,8,0:0:0:0:
256,192,87377,1,0,0:0:0:0:
256,192,87554,1,12,0:0:0:0:
256,192,87907,1,0,0:0:0:0:
256,192,88083,1,0,0:0:0:0:
256,192,88260,1,8,0:0:0:0:
256,192,88613,1,8,0:0:0:0:
256,192,88789,1,0,0:0:0:0:
256,192,88966,1,12,0:0:0:0:
256,192,89495,1,8,0:0:0:0:
256,192,89672,1,0,0:0:0:0:
256,192,90024,1,0,0:0:0:0:
256,192,90201,1,0,0:0:0:0:
256,192,90377,1,12,0:0:0:0:
256,192,91789,1,4,0:0:0:0:
256,192,92142,1,8,0:0:0:0:
256,192,92260,1,8,0:0:0:0:
256,192,92377,1,8,0:0:0:0:
256,192,92495,1,0,0:0:0:0:
256,192,92848,1,8,0:0:0:0:
256,192,92936,1,8,0:0:0:0:
256,192,93024,1,0,0:0:0:0:
256,192,93113,1,0,0:0:0:0:
256,192,93201,1,8,0:0:0:0:
256,192,93554,1,0,0:0:0:0:
256,192,93730,1,0,0:0:0:0:
256,192,93907,1,8,0:0:0:0:
256,192,94260,1,0,0:0:0:0:
256,192,94377,1,8,0:0:0:0:
256,192,94495,1,8,0:0:0:0:
256,192,94613,1,4,0:0:0:0:
256,192,94966,1,0,0:0:0:0:
256,192,95142,1,8,0:0:0:0:
256,192,95319,1,8,0:0:0:0:
256,192,95672,1,8,0:0:0:0:
256,192,95848,1,0,0:0:0:0:
256,192,96024,1,12,0:0:0:0:
256,192,96377,1,0,0:0:0:0:
256,192,96554,1,0,0:0:0:0:
256,192,96730,1,8,0:0:0:0:
256,192,96907,1,0,0:0:0:0:
256,192,97083,1,8,0:0:0:0:
256,192,97172,1,8,0:0:0:0:
256,192,97260,1,0,0:0:0:0:
256,192,97348,1,0,0:0:0:0:
256,192,97436,1,12,0:0:0:0:
256,192,97789,1,0,0:0:0:0:
256,192,97966,1,8,0:0:0:0:
256,192,98142,1,8,0:0:0:0:
256,192,98495,1,0,0:0:0:0:
256,192,98848,1,12,0:0:0:0:
256,192,99201,1,0,0:0:0:0:
256,192,99377,1,0,0:0:0:0:
256,192,99554,1,8,0:0:0:0:
256,192,99907,1,0,0:0:0:0:
256,192,100260,1,12,0:0:0:0:
256,192,100613,1,0,0:0:0:0:
256,192,100789,1,8,0:0:0:0:
256,192,100966,1,0,0:0:0:0:
256,192,101319,1,0,0:0:0:0:
256,192,101672,1,8,0:0:0:0:
256,192,101848,1,8,0:0:0:0:
256,192,102024,1,0,0:0:0:0:
256,192,102201,1,8,0:0:0:0:
256,192,102377,1,8,0:0:0:0:
256,192,102466,1,8,0:0:0:0:
256,192,102554,1,0,0:0:0:0:
256,192,102730,1,8,0:0:0:0:
256,192,102848,1,0,0:0:0:0:
256,192,102966,1,0,0:0:0:0:
256,192,103083,1,12,0:0:0:0:
256,192,103613,1,0,0:0:0:0:
256,192,103789,1,8,0:0:0:0:
256,192,104142,1,8,0:0:0:0:
256,192,104319,1,8,0:0:0:0:
256,192,104495,1,4,0:0:0:0:
256,192,105024,1,0,0:0:0:0:
256,192,105201,1,8,0:0:0:0:
256,192,105554,1,8,0:0:0:0:
256,192,105672,1,8,0:0:0:0:
256,192,105789,1,8,0:0:0:0:
256,192,105907,1,4,0:0:0:0:
256,192,106260,1,0,0:0:0:0:
256,192,106348,1,0,0:0:0:0:
256,192,106436,1,8,0:0:0:0:
256,192,106789,1,8,0:0:0:0:
256,192,106877,1,8,0:0:0:0:
256,192,106966,1,0,0:0:0:0:
256,192,107142,1,0,0:0:0:0:
256,192,107319,1,12,0:0:0:0:
256,192,107495,1,0,0:0:0:0:
256,192,107672,1,0,0:0:0:0:
256,192,107848,1,8,0:0:0:0:
256,192,108024,1,0,0:0:0:0:
256,192,108201,1,8,0:0:0:0:
256,192,108377,1,0,0:0:0:0:
256,192,108554,1,0,0:0:0:0:
256,192,108730,1,12,0:0:0:0:
256,192,109083,1,0,0:0:0:0:
256,192,109260,1,8,0:0:0:0:
256,192,109436,1,8,0:0:0:0:
256,192,109789,1,0,0:0:0:0:
256,192,110142,1,12,0:0:0:0:
256,192,110495,1,0,0:0:0:0:
256,192,110672,1,8,0:0:0:0:
256,192,110848,1,0,0:0:0:0:
256,192,111201,1,0,0:0:0:0:
256,192,111319,1,0,0:0:0:0:
256,192,111436,1,0,0:0:0:0:
256,192,111554,1,12,0:0:0:0:
256,192,112083,1,0,0:0:0:0:
256,192,112436,1,0,0:0:0:0:
256,192,112789,1,0,0:0:0:0:
256,192,112966,1,12,0:0:0:0:
256,192,114377,1,0,0:0:0:0:
256,192,115435,1,8,0:0:0:0:
256,192,115612,1,8,0:0:0:0:
256,192,115788,1,0,0:0:0:0:
256,192,116318,1,8,0:0:0:0:
256,192,116671,1,0,0:0:0:0:
256,192,117024,1,0,0:0:0:0:
256,192,117200,1,8,0:0:0:0:
256,192,117906,1,0,0:0:0:0:
256,192,118259,1,0,0:0:0:0:
256,192,118612,1,8,0:0:0:0:
256,192,119141,1,0,0:0:0:0:
256,192,119495,1,0,0:0:0:0:
256,192,119671,1,8,0:0:0:0:
256,192,120024,1,0,0:0:0:0:
256,192,120377,1,0,0:0:0:0:
256,192,120730,1,0,0:0:0:0:
256,192,120906,1,8,0:0:0:0:
256,192,121082,1,8,0:0:0:0:
256,192,121259,1,8,0:0:0:0:
256,192,121435,1,0,0:0:0:0:
256,192,121966,1,8,0:0:0:0:
256,192,122318,1,8,0:0:0:0:
256,192,122494,1,8,0:0:0:0:
256,192,122671,1,0,0:0:0:0:
256,192,122847,1,8,0:0:0:0:
256,192,123201,1,8,0:0:0:0:
256,192,123377,1,0,0:0:0:0:
256,192,123730,1,0,0:0:0:0:
256,192,124083,1,8,0:0:0:0:
256,192,124436,1,0,0:0:0:0:
256,192,124789,1,0,0:0:0:0:
256,192,125142,1,8,0:0:0:0:
256,192,125319,1,0,0:0:0:0:
256,192,125672,1,12,0:0:0:0:
256,192,125936,1,8,0:0:0:0:
256,192,126201,1,8,0:0:0:0:
256,192,126730,1,0,0:0:0:0:
256,192,126907,1,0,0:0:0:0:
256,192,127083,1,12,0:0:0:0:
256,192,127348,1,8,0:0:0:0:
256,192,127613,1,8,0:0:0:0:
256,192,127966,1,0,0:0:0:0:
256,192,128142,1,0,0:0:0:0:
256,192,128319,1,8,0:0:0:0:
256,192,128495,1,4,0:0:0:0:
256,192,128760,1,0,0:0:0:0:
256,192,129024,1,0,0:0:0:0:
256,192,129377,1,8,0:0:0:0:
256,192,129730,1,8,0:0:0:0:
256,192,130083,1,0,0:0:0:0:
256,192,130436,1,8,0:0:0:0:
256,192,130789,1,0,0:0:0:0:
256,192,130966,1,8,0:0:0:0:
256,192,131319,1,4,0:0:0:0:
256,192,131583,1,0,0:0:0:0:
256,192,131848,1,0,0:0:0:0:
256,192,132201,1,8,0:0:0:0:
256,192,132377,1,8,0:0:0:0:
256,192,132554,1,0,0:0:0:0:
256,192,132730,1,12,0:0:0:0:
256,192,132995,1,8,0:0:0:0:
256,192,133260,1,8,0:0:0:0:
256,192,133613,1,0,0:0:0:0:
256,192,133789,1,0,0:0:0:0:
256,192,133966,1,8,0:0:0:0:
256,192,134142,1,4,0:0:0:0:
256,192,134407,1,0,0:0:0:0:
256,192,134672,1,0,0:0:0:0:
256,192,134848,1,8,0:0:0:0:
256,192,135024,1,0,0:0:0:0:
256,192,135201,1,0,0:0:0:0:
256,192,135377,1,0,0:0:0:0:
256,192,135554,1,8,0:0:0:0:
256,192,135819,1,0,0:0:0:0:
256,192,136084,1,0,0:0:0:0:
256,192,136260,1,8,0:0:0:0:
256,192,136436,1,0,0:0:0:0:
256,192,136613,1,8,0:0:0:0:
256,192,136789,1,8,0:0:0:0:
256,192,136966,1,4,0:0:0:0:
256,192,137319,1,0,0:0:0:0:
256,192,137672,1,0,0:0:0:0:
256,192,138024,1,0,0:0:0:0:
256,192,138201,1,0,0:0:0:0:
256,192,138377,1,8,0:0:0:0:
256,192,138730,1,0,0:0:0:0:
256,192,138907,1,8,0:0:0:0:
256,192,139083,1,0,0:0:0:0:
256,192,139260,1,0,0:0:0:0:
256,192,139436,1,8,0:0:0:0:
256,192,139613,1,0,0:0:0:0:
256,192,139789,1,12,0:0:0:0:
256,192,140142,1,8,0:0:0:0:
256,192,140319,1,0,0:0:0:0:
256,192,140672,1,8,0:0:0:0:
256,192,140848,1,0,0:0:0:0:
256,192,141024,1,0,0:0:0:0:
256,192,141201,1,8,0:0:0:0:
256,192,141554,1,8,0:0:0:0:
256,192,141730,1,0,0:0:0:0:
256,192,142083,1,0,0:0:0:0:
256,192,142260,1,8,0:0:0:0:
256,192,142613,1,4,0:0:0:0:
256,192,142966,1,0,0:0:0:0:
256,192,143142,1,8,0:0:0:0:
256,192,143319,1,0,0:0:0:0:
256,192,143495,1,8,0:0:0:0:
256,192,143672,1,0,0:0:0:0:
256,192,143848,1,0,0:0:0:0:
256,192,144024,1,8,0:0:0:0:
256,192,144201,1,8,0:0:0:0:
256,192,144554,1,0,0:0:0:0:
256,192,144907,1,0,0:0:0:0:
256,192,145260,1,8,0:0:0:0:
256,192,145436,1,4,0:0:0:0:
256,192,145789,1,0,0:0:0:0:
256,192,146142,1,0,0:0:0:0:
256,192,146495,1,8,0:0:0:0:
256,192,146848,1,8,0:0:0:0:
256,192,147024,1,0,0:0:0:0:
256,192,147377,1,0,0:0:0:0:
256,192,147730,1,8,0:0:0:0:
256,192,147907,1,0,0:0:0:0:
256,192,148083,1,0,0:0:0:0:
256,192,148260,1,12,0:0:0:0:
256,192,148613,1,0,0:0:0:0:
256,192,148789,1,8,0:0:0:0:
256,192,149142,1,8,0:0:0:0:
256,192,149319,1,8,0:0:0:0:
256,192,149672,1,0,0:0:0:0:
256,192,150024,1,0,0:0:0:0:
256,192,150201,1,0,0:0:0:0:
256,192,150554,1,8,0:0:0:0:
256,192,150907,1,0,0:0:0:0:
256,192,151083,1,12,0:0:0:0:
256,192,151613,1,0,0:0:0:0:
256,192,151789,1,0,0:0:0:0:
256,192,151966,1,8,0:0:0:0:
256,192,152142,1,0,0:0:0:0:
256,192,152319,1,0,0:0:0:0:
256,192,152495,1,12,0:0:0:0:
256,192,152848,1,0,0:0:0:0:
256,192,153024,1,8,0:0:0:0:
256,192,153201,1,8,0:0:0:0:
256,192,153377,1,0,0:0:0:0:
256,192,153554,1,0,0:0:0:0:
256,192,153907,1,8,0:0:0:0:
256,192,154260,1,0,0:0:0:0:
256,192,154436,1,0,0:0:0:0:
256,192,154789,1,0,0:0:0:0:
256,192,154966,1,0,0:0:0:0:
256,192,155142,1,8,0:0:0:0:
256,192,155319,1,0,0:0:0:0:
256,192,155672,1,8,0:0:0:0:
256,192,155848,1,0,0:0:0:0:
256,192,156201,1,8,0:0:0:0:
256,192,156554,1,8,0:0:0:0:
256,192,156730,1,0,0:0:0:0:
256,192,157083,1,0,0:0:0:0:
256,192,157260,1,8,0:0:0:0:
256,192,157613,1,8,0:0:0:0:
256,192,157789,1,0,0:0:0:0:
256,192,157966,1,0,0:0:0:0:
256,192,158142,1,8,0:0:0:0:
256,192,158495,1,0,0:0:0:0:
256,192,158672,1,0,0:0:0:0:
256,192,159024,1,8,0:0:0:0:
256,192,159201,1,0,0:0:0:0:
256,192,159377,1,0,0:0:0:0:
256,192,159554,1,8,0:0:0:0:
256,192,162377,12,0,169083,0:0:0:0:
256,192,169436,5,4,0:0:0:0:
256,192,170142,1,8,0:0:0:0:
256,192,170495,1,0,0:0:0:0:
256,192,170848,5,12,0:0:0:0:
256,192,171377,1,0,0:0:0:0:
256,192,171554,1,0,0:0:0:0:
256,192,171907,1,8,0:0:0:0:
256,192,172083,1,0,0:0:0:0:
256,192,172260,1,12,0:0:0:0:
256,192,172613,1,8,0:0:0:0:
256,192,172730,1,8,0:0:0:0:
256,192,172848,1,8,0:0:0:0:
256,192,172966,1,0,0:0:0:0:
256,192,173142,1,0,0:0:0:0:
256,192,173319,1,8,0:0:0:0:
256,192,173407,1,8,0:0:0:0:
256,192,173495,1,0,0:0:0:0:
256,192,173583,1,0,0:0:0:0:
256,192,173672,1,12,0:0:0:0:
256,192,174025,1,8,0:0:0:0:
256,192,174114,1,8,0:0:0:0:
256,192,174202,1,0,0:0:0:0:
256,192,174378,1,12,0:0:0:0:
256,192,174555,1,0,0:0:0:0:
256,192,174731,1,8,0:0:0:0:
256,192,174820,1,8,0:0:0:0:
256,192,174908,1,0,0:0:0:0:
256,192,174996,1,0,0:0:0:0:
256,192,175084,1,12,0:0:0:0:
256,192,175437,1,0,0:0:0:0:
256,192,175614,1,0,0:0:0:0:
256,192,175790,1,12,0:0:0:0:
256,192,175967,1,8,0:0:0:0:
256,192,176143,1,0,0:0:0:0:
256,192,176230,1,0,0:0:0:0:
256,192,176320,1,8,0:0:0:0:
256,192,176407,1,0,0:0:0:0:
256,192,176496,1,12,0:0:0:0:
256,192,176849,1,0,0:0:0:0:
256,192,177025,1,0,0:0:0:0:
256,192,177202,1,12,0:0:0:0:
256,192,177555,1,8,0:0:0:0:
256,192,177731,1,0,0:0:0:0:
256,192,177908,1,12,0:0:0:0:
256,192,178084,1,0,0:0:0:0:
256,192,178261,1,0,0:0:0:0:
256,192,178437,1,0,0:0:0:0:
256,192,178614,1,12,0:0:0:0:
256,192,178790,1,0,0:0:0:0:
256,192,178967,1,8,0:0:0:0:
256,192,179055,1,8,0:0:0:0:
256,192,179143,1,0,0:0:0:0:
256,192,179231,1,0,0:0:0:0:
256,192,179320,1,12,0:0:0:0:
256,192,179672,1,0,0:0:0:0:
256,192,179849,1,0,0:0:0:0:
256,192,180025,1,12,0:0:0:0:
256,192,180202,1,0,0:0:0:0:
256,192,180378,1,8,0:0:0:0:
256,192,180467,1,8,0:0:0:0:
256,192,180555,1,0,0:0:0:0:
256,192,180643,1,0,0:0:0:0:
256,192,180731,1,12,0:0:0:0:
256,192,180908,1,12,0:0:0:0:
256,192,181084,1,4,0:0:0:0:
256,192,181261,1,4,0:0:0:0:
256,192,181437,1,12,0:0:0:0:
256,192,181525,1,0,0:0:0:0:
256,192,181614,1,0,0:0:0:0:
256,192,181702,1,0,0:0:0:0:
256,192,181790,1,8,0:0:0:0:
256,192,181878,1,8,0:0:0:0:
256,192,181967,1,0,0:0:0:0:
256,192,182055,1,0,0:0:0:0:
256,192,182143,1,12,0:0:0:0:
256,192,182496,1,0,0:0:0:0:
256,192,182672,1,4,0:0:0:0:
256,192,182849,1,12,0:0:0:0:
256,192,183202,1,8,0:0:0:0:
256,192,183378,1,0,0:0:0:0:
256,192,183555,1,12,0:0:0:0:
256,192,183908,1,0,0:0:0:0:
256,192,183996,1,8,0:0:0:0:
256,192,184084,1,0,0:0:0:0:
256,192,184172,1,0,0:0:0:0:
256,192,184261,1,8,0:0:0:0:
256,192,184614,1,8,0:0:0:0:
256,192,184702,1,8,0:0:0:0:
256,192,184790,1,0,0:0:0:0:
256,192,184878,1,0,0:0:0:0:
256,192,184967,1,12,0:0:0:0:
256,192,185143,1,8,0:0:0:0:
256,192,185320,1,0,0:0:0:0:
256,192,185496,1,0,0:0:0:0:
256,192,185672,1,12,0:0:0:0:
256,192,185848,1,0,0:0:0:0:
256,192,186202,1,0,0:0:0:0:
256,192,186378,1,12,0:0:0:0:
256,192,186731,1,8,0:0:0:0:
256,192,186908,1,8,0:0:0:0:
256,192,187084,1,0,0:0:0:0:
256,192,187172,1,0,0:0:0:0:
256,192,187261,1,0,0:0:0:0:
256,192,187437,1,8,0:0:0:0:
256,192,187525,1,8,0:0:0:0:
256,192,187614,1,0,0:0:0:0:
256,192,187702,1,0,0:0:0:0:
256,192,187790,1,12,0:0:0:0:
256,192,188143,1,0,0:0:0:0:
256,192,188320,1,0,0:0:0:0:
256,192,188496,1,8,0:0:0:0:
256,192,188849,1,8,0:0:0:0:
256,192,189025,1,0,0:0:0:0:
256,192,189202,1,12,0:0:0:0:
256,192,189555,1,0,0:0:0:0:
256,192,189731,1,0,0:0:0:0:
256,192,189908,1,8,0:0:0:0:
256,192,190261,1,8,0:0:0:0:
256,192,190437,1,0,0:0:0:0:
256,192,190614,1,12,0:0:0:0:
256,192,191143,1,8,0:0:0:0:
256,192,191320,1,0,0:0:0:0:
256,192,191672,1,0,0:0:0:0:
256,192,191849,1,0,0:0:0:0:
256,192,192025,1,12,0:0:0:0:
256,192,192377,1,0,0:0:0:0:
256,192,192730,1,8,0:0:0:0:
256,192,193083,1,0,0:0:0:0:
256,192,193436,1,12,0:0:0:0:
256,192,193966,1,0,0:0:0:0:
256,192,194142,1,8,0:0:0:0:
256,192,194495,1,8,0:0:0:0:
256,192,194672,1,0,0:0:0:0:
256,192,194760,1,0,0:0:0:0:
256,192,194848,1,8,0:0:0:0:
256,192,195201,1,0,0:0:0:0:
256,192,195319,1,0,0:0:0:0:
256,192,195436,1,0,0:0:0:0:
256,192,195554,1,8,0:0:0:0:
256,192,195907,1,8,0:0:0:0:
256,192,195995,1,8,0:0:0:0:
256,192,196083,1,0,0:0:0:0:
256,192,196172,1,0,0:0:0:0:
256,192,196260,1,12,0:0:0:0:
256,192,196613,1,0,0:0:0:0:
256,192,196789,1,8,0:0:0:0:
256,192,197142,1,8,0:0:0:0:
256,192,197319,1,0,0:0:0:0:
256,192,197495,1,0,0:0:0:0:
256,192,197672,1,12,0:0:0:0:
256,192,198024,1,0,0:0:0:0:
256,192,198377,1,8,0:0:0:0:
256,192,198554,1,8,0:0:0:0:
256,192,198730,1,0,0:0:0:0:
256,192,198848,1,0,0:0:0:0:
256,192,198966,1,0,0:0:0:0:
256,192,199083,1,8,0:0:0:0:
256,192,199613,1,0,0:0:0:0:
256,192,199789,1,8,0:0:0:0:
256,192,199966,1,0,0:0:0:0:
256,192,200142,1,0,0:0:0:0:
256,192,200319,1,8,0:0:0:0:
256,192,200495,1,4,0:0:0:0:
256,192,201024,1,0,0:0:0:0:
256,192,201201,1,8,0:0:0:0:
256,192,201554,1,8,0:0:0:0:
256,192,201730,1,8,0:0:0:0:
256,192,201907,1,4,0:0:0:0:
256,192,202260,1,0,0:0:0:0:
256,192,202436,1,0,0:0:0:0:
256,192,202613,1,8,0:0:0:0:
256,192,202789,1,0,0:0:0:0:
256,192,202966,1,8,0:0:0:0:
256,192,203142,1,0,0:0:0:0:
256,192,203230,1,0,0:0:0:0:
256,192,203319,1,12,0:0:0:0:
256,192,203672,1,0,0:0:0:0:
256,192,203848,1,8,0:0:0:0:
256,192,204024,1,8,0:0:0:0:
256,192,204201,1,0,0:0:0:0:
256,192,204377,1,8,0:0:0:0:
256,192,204466,1,8,0:0:0:0:
256,192,204554,1,0,0:0:0:0:
256,192,204642,1,0,0:0:0:0:
256,192,204730,1,12,0:0:0:0:
256,192,204907,1,0,0:0:0:0:
256,192,204995,1,0,0:0:0:0:
256,192,205083,1,0,0:0:0:0:
256,192,205172,1,8,0:0:0:0:
256,192,205260,1,8,0:0:0:0:
256,192,205613,1,8,0:0:0:0:
256,192,205789,1,0,0:0:0:0:
256,192,205966,1,4,0:0:0:0:
256,192,206142,1,8,0:0:0:0:
256,192,206495,1,0,0:0:0:0:
256,192,206672,1,8,0:0:0:0:
256,192,206848,1,8,0:0:0:0:
256,192,207024,1,0,0:0:0:0:
256,192,207201,1,8,0:0:0:0:
256,192,207289,1,8,0:0:0:0:
256,192,207377,1,0,0:0:0:0:
256,192,207466,1,0,0:0:0:0:
256,192,207554,1,8,0:0:0:0:
256,192,207907,1,0,0:0:0:0:
256,192,208083,1,0,0:0:0:0:
256,192,208260,1,8,0:0:0:0:
256,192,208613,1,8,0:0:0:0:
256,192,208789,1,0,0:0:0:0:
256,192,208966,1,8,0:0:0:0:
256,192,209319,1,0,0:0:0:0:
256,192,209495,1,8,0:0:0:0:
256,192,209672,1,0,0:0:0:0:
256,192,209848,1,0,0:0:0:0:
256,192,210024,1,8,0:0:0:0:
256,192,210113,1,8,0:0:0:0:
256,192,210201,1,0,0:0:0:0:
256,192,210289,1,0,0:0:0:0:
256,192,210377,1,12,0:0:0:0:
256,192,210907,1,0,0:0:0:0:
256,192,211083,1,8,0:0:0:0:
256,192,211436,1,8,0:0:0:0:
256,192,211613,1,0,0:0:0:0:
256,192,211789,1,12,0:0:0:0:
256,192,212142,1,0,0:0:0:0:
256,192,212319,1,0,0:0:0:0:
256,192,212495,1,8,0:0:0:0:
256,192,212848,1,8,0:0:0:0:
256,192,212966,1,8,0:0:0:0:
256,192,213083,1,8,0:0:0:0:
256,192,213201,1,4,0:0:0:0:
256,192,213730,1,0,0:0:0:0:
256,192,213907,1,8,0:0:0:0:
256,192,214260,1,8,0:0:0:0:
256,192,214613,1,4,0:0:0:0:
256,192,214966,1,0,0:0:0:0:
256,192,215319,1,12,0:0:0:0:
256,192,215672,1,8,0:0:0:0:
256,192,216024,1,4,0:0:0:0:
256,192,216554,1,0,0:0:0:0:
256,192,216730,1,8,0:0:0:0:
256,192,217083,1,0,0:0:0:0:
256,192,217201,1,0,0:0:0:0:
256,192,217319,1,0,0:0:0:0:
256,192,217436,1,12,0:0:0:0:
256,192,218142,1,0,0:0:0:0:
256,192,218495,1,8,0:0:0:0:
256,192,218613,1,8,0:0:0:0:
256,192,218730,1,8,0:0:0:0:
256,192,218848,1,4,0:0:0:0:
256,192,219377,1,0,0:0:0:0:
256,192,219554,1,8,0:0:0:0:
256,192,219907,1,8,0:0:0:0:
256,192,220024,1,0,0:0:0:0:
256,192,220142,1,0,0:0:0:0:
256,192,220260,1,12,0:0:0:0:
256,192,220613,1,0,0:0:0:0:
256,192,220966,1,8,0:0:0:0:
256,192,221319,1,8,0:0:0:0:
256,192,221672,1,4,0:0:0:0:
256,192,222201,1,0,0:0:0:0:
256,192,222377,1,8,0:0:0:0:
256,192,222730,1,8,0:0:0:0:
256,192,223083,1,4,0:0:0:0:
256,192,223789,1,8,0:0:0:0:
256,192,224142,1,8,0:0:0:0:
256,192,224495,1,4,0:0:0:0:
256,192,225024,1,0,0:0:0:0:
256,192,225201,1,8,0:0:0:0:
256,192,225554,1,8,0:0:0:0:
256,192,225730,1,0,0:0:0:0:
256,192,225907,1,8,0:0:0:0:
256,192,226260,1,0,0:0:0:0:
256,192,226613,1,0,0:0:0:0:
256,192,226966,1,0,0:0:0:0:
256,192,227319,1,12,0:0:0:0:
256,192,228024,1,0,0:0:0:0:
256,192,228377,1,8,0:0:0:0:
256,192,228730,1,0,0:0:0:0:
256,192,229436,1,8,0:0:0:0:
256,192,229789,1,8,0:0:0:0:
256,192,230142,1,0,0:0:0:0:
256,192,230848,1,8,0:0:0:0:
256,192,231554,1,4,0:0:0:0:
256,192,232260,1,8,0:0:0:0:
256,192,232377,1,8,0:0:0:0:
256,192,232495,1,0,0:0:0:0:
256,192,232613,1,8,0:0:0:0:
256,192,232730,1,8,0:0:0:0:
256,192,232848,1,0,0:0:0:0:
256,192,232966,1,12,0:0:0:0:
256,192,234377,1,0,0:0:0:0:
256,192,235789,1,8,0:0:0:0:
256,192,237201,1,4,0:0:0:0:
256,192,237907,1,0,0:0:0:0:
256,192,238260,1,0,0:0:0:0:
256,192,238613,1,12,0:0:0:0:
