osu file format v14

[General]
AudioFilename: audio.mp3
AudioLeadIn: 0
PreviewTime: 69201
Countdown: 0
SampleSet: None
StackLeniency: 0.3
Mode: 1
LetterboxInBreaks: 0
WidescreenStoryboard: 1

[Editor]
Bookmarks: 170848
DistanceSpacing: 1.4
BeatDivisor: 1
GridSize: 32
TimelineZoom: 0.6

[Metadata]
Title:Before We Fade
TitleUnicode:Before We Fade
Artist:Tristam
ArtistUnicode:Tristam
Creator:Upgradefort
Version:Kantan
Source:
Tags:
BeatmapID:1854093
BeatmapSetID:886893

[Difficulty]
HPDrainRate:5
CircleSize:5
OverallDifficulty:4
ApproachRate:7
SliderMultiplier:1.4
SliderTickRate:1

[Events]
//Background and Video events
0,0,"pixiv paradise shadows.jpg",0,0
//Break Periods
2,58107,66889
2,159754,168536
//Storyboard Layer 0 (Background)
//Storyboard Layer 1 (Fail)
//Storyboard Layer 2 (Pass)
//Storyboard Layer 3 (Foreground)
//Storyboard Sound Samples

[TimingPoints]
25,352.941176470588,4,1,0,100,1,0
13083,-100,4,1,0,100,0,0
35319,-111.111111111111,4,1,0,100,0,0
46613,-105.263157894737,4,1,0,100,0,0
69201,-90.9090909090909,4,1,0,100,0,1
90377,-100,4,1,0,100,0,0
114377,-111.111111111111,4,1,0,100,0,0
125672,-105.263157894737,4,1,0,100,0,0
136966,-100,4,1,0,100,0,0
173672,-90.9090909090909,4,1,0,100,0,1
192024,-100,4,1,0,100,0,0
216024,-90.9090909090909,4,1,0,100,0,1
225907,-100,4,1,0,100,0,0
227319,-90.9090909090909,4,1,0,100,0,0

[HitObjects]
256,192,11319,5,0,0:0:0:0:
256,192,12730,1,12,0:0:0:0:
256,192,13436,1,0,0:0:0:0:
256,192,13789,1,0,0:0:0:0:
256,192,14142,1,8,0:0:0:0:
256,192,14848,1,0,0:0:0:0:
256,192,15554,1,8,0:0:0:0:
224,192,16260,1,0,0:0:0:0:
224,192,16966,1,8,0:0:0:0:
224,192,17672,1,8,0:0:0:0:
224,192,18024,1,0,0:0:0:0:
224,192,18377,1,8,0:0:0:0:
224,192,19083,1,0,0:0:0:0:
224,192,19789,1,8,0:0:0:0:
224,192,20495,1,0,0:0:0:0:
224,192,20848,1,0,0:0:0:0:
224,192,21201,1,8,0:0:0:0:
224,192,21907,1,0,0:0:0:0:
224,192,22613,1,0,0:0:0:0:
224,192,22966,1,0,0:0:0:0:
224,192,23319,1,8,0:0:0:0:
224,192,23672,1,8,0:0:0:0:
224,192,24024,1,0,0:0:0:0:
224,192,24730,1,0,0:0:0:0:
224,192,25083,1,0,0:0:0:0:
224,192,25436,1,8,0:0:0:0:
224,192,26142,1,0,0:0:0:0:
224,192,26848,1,8,0:0:0:0:
224,192,27554,1,0,0:0:0:0:
224,192,28260,1,8,0:0:0:0:
224,192,28613,1,8,0:0:0:0:
224,192,28966,1,0,0:0:0:0:
224,192,29319,1,0,0:0:0:0:
224,192,29672,1,8,0:0:0:0:
224,192,30377,1,0,0:0:0:0:
224,192,31083,1,8,0:0:0:0:
224,192,31789,1,0,0:0:0:0:
224,192,32495,1,8,0:0:0:0:
224,192,33201,1,0,0:0:0:0:
224,192,33907,1,0,0:0:0:0:
224,192,35319,1,8,0:0:0:0:
224,192,36377,1,0,0:0:0:0:
224,192,36730,1,0,0:0:0:0:
224,192,37789,1,8,0:0:0:0:
224,192,38142,1,8,0:0:0:0:
224,192,39201,1,0,0:0:0:0:
224,192,39554,1,0,0:0:0:0:
224,192,40613,1,8,0:0:0:0:
224,192,40966,1,8,0:0:0:0:
224,192,42024,1,0,0:0:0:0:
224,192,42377,1,0,0:0:0:0:
224,192,43436,1,8,0:0:0:0:
224,192,43789,1,8,0:0:0:0:
224,192,44848,1,0,0:0:0:0:
224,192,45201,1,0,0:0:0:0:
224,192,46260,1,8,0:0:0:0:
224,192,46613,1,8,0:0:0:0:
224,192,48024,1,0,0:0:0:0:
224,192,48730,1,0,0:0:0:0:
224,192,49436,1,8,0:0:0:0:
224,192,50848,1,0,0:0:0:0:
224,192,51554,1,0,0:0:0:0:
224,192,52260,1,8,0:0:0:0:
224,192,53672,1,0,0:0:0:0:
224,192,54377,1,8,0:0:0:0:
224,192,55083,1,0,0:0:0:0:
224,192,56495,1,0,0:0:0:0:
224,192,57201,1,0,0:0:0:0:
224,192,57907,1,8,0:0:0:0:
224,192,67789,5,4,0:0:0:0:
224,192,69201,1,12,0:0:0:0:
224,192,69907,1,0,0:0:0:0:
224,192,70260,1,0,0:0:0:0:
224,192,70613,1,8,0:0:0:0:
224,192,71319,1,0,0:0:0:0:
224,192,72024,1,8,0:0:0:0:
224,192,72730,1,8,0:0:0:0:
224,192,73083,1,0,0:0:0:0:
224,192,73436,1,0,0:0:0:0:
224,192,74142,1,0,0:0:0:0:
224,192,74495,1,8,0:0:0:0:
224,192,74848,1,0,0:0:0:0:
224,192,75554,1,0,0:0:0:0:
224,192,76260,1,8,0:0:0:0:
224,192,76613,1,0,0:0:0:0:
224,192,76966,1,0,0:0:0:0:
224,192,77319,1,0,0:0:0:0:
224,192,77672,1,8,0:0:0:0:
224,192,78377,1,0,0:0:0:0:
224,192,79083,1,8,0:0:0:0:
224,192,79436,1,0,0:0:0:0:
224,192,79789,1,0,0:0:0:0:
224,192,80495,1,8,0:0:0:0:
224,192,81201,1,0,0:0:0:0:
224,192,81554,1,0,0:0:0:0:
224,192,81907,1,8,0:0:0:0:
224,192,82613,1,8,0:0:0:0:
224,192,82966,1,0,0:0:0:0:
224,192,83319,1,8,0:0:0:0:
224,192,84024,1,0,0:0:0:0:
224,192,84730,1,8,0:0:0:0:
224,192,85083,1,0,0:0:0:0:
224,192,85436,1,0,0:0:0:0:
224,192,85789,1,0,0:0:0:0:
224,192,86142,1,8,0:0:0:0:
224,192,86848,1,0,0:0:0:0:
224,192,87201,1,0,0:0:0:0:
224,192,87554,1,8,0:0:0:0:
224,192,88260,1,0,0:0:0:0:
224,192,88613,1,0,0:0:0:0:
224,192,88966,1,8,0:0:0:0:
224,192,89672,1,0,0:0:0:0:
224,192,90377,1,8,0:0:0:0:
224,192,90730,1,0,0:0:0:0:
224,192,91083,1,8,0:0:0:0:
224,192,91436,1,8,0:0:0:0:
224,192,91789,1,4,0:0:0:0:
224,192,92495,1,0,0:0:0:0:
224,192,92848,1,0,0:0:0:0:
224,192,93201,1,8,0:0:0:0:
224,192,93907,1,8,0:0:0:0:
224,192,94260,1,0,0:0:0:0:
224,192,94613,1,8,0:0:0:0:
224,192,95319,1,0,0:0:0:0:
224,192,96024,1,8,0:0:0:0:
224,192,96377,1,0,0:0:0:0:
224,192,96730,1,0,0:0:0:0:
224,192,97083,1,0,0:0:0:0:
224,192,97436,1,8,0:0:0:0:
224,192,98142,1,0,0:0:0:0:
224,192,98848,1,8,0:0:0:0:
224,192,99554,1,0,0:0:0:0:
224,192,100260,1,8,0:0:0:0:
224,192,100966,1,0,0:0:0:0:
224,192,101319,1,0,0:0:0:0:
224,192,101672,1,8,0:0:0:0:
224,192,102377,1,8,0:0:0:0:
224,192,102730,1,0,0:0:0:0:
224,192,103083,1,8,0:0:0:0:
224,192,103789,1,0,0:0:0:0:
224,192,104142,1,0,0:0:0:0:
224,192,104495,1,8,0:0:0:0:
224,192,105201,1,8,0:0:0:0:
224,192,105554,1,0,0:0:0:0:
224,192,105907,1,8,0:0:0:0:
224,192,106613,1,8,0:0:0:0:
224,192,107319,1,0,0:0:0:0:
224,192,108024,1,8,0:0:0:0:
224,192,108377,1,8,0:0:0:0:
224,192,108730,1,0,0:0:0:0:
224,192,109436,1,0,0:0:0:0:
224,192,110142,1,0,0:0:0:0:
224,192,110848,1,8,0:0:0:0:
224,192,111201,1,0,0:0:0:0:
224,192,111554,1,8,0:0:0:0:
224,192,112260,1,0,0:0:0:0:
224,192,112966,1,8,0:0:0:0:
224,192,114377,1,0,0:0:0:0:
224,192,115436,1,0,0:0:0:0:
224,192,115789,1,0,0:0:0:0:
224,192,116848,1,8,0:0:0:0:
224,192,117201,1,8,0:0:0:0:
224,192,118260,1,0,0:0:0:0:
224,192,118613,1,0,0:0:0:0:
224,192,119672,1,8,0:0:0:0:
224,192,120024,1,8,0:0:0:0:
224,192,121083,1,0,0:0:0:0:
224,192,121436,1,0,0:0:0:0:
224,192,122495,1,8,0:0:0:0:
224,192,122848,1,8,0:0:0:0:
224,192,123907,1,0,0:0:0:0:
224,192,124260,1,0,0:0:0:0:
224,192,125319,1,8,0:0:0:0:
224,192,125672,1,8,0:0:0:0:
224,192,126377,1,0,0:0:0:0:
224,192,127083,1,8,0:0:0:0:
224,192,128495,1,0,0:0:0:0:
224,192,129201,1,0,0:0:0:0:
224,192,129907,1,8,0:0:0:0:
224,192,131319,1,0,0:0:0:0:
224,192,132024,1,8,0:0:0:0:
224,192,132730,1,0,0:0:0:0:
224,192,134142,1,8,0:0:0:0:
224,192,134848,1,0,0:0:0:0:
224,192,135554,1,0,0:0:0:0:
224,192,136966,1,8,0:0:0:0:
224,192,138024,1,0,0:0:0:0:
224,192,138377,1,8,0:0:0:0:
224,192,139436,1,8,0:0:0:0:
224,192,139789,1,0,0:0:0:0:
224,192,140495,1,0,0:0:0:0:
224,192,141201,1,8,0:0:0:0:
224,192,142260,1,0,0:0:0:0:
224,192,142613,1,8,0:0:0:0:
224,192,143672,1,8,0:0:0:0:
224,192,144024,1,0,0:0:0:0:
224,192,144730,1,0,0:0:0:0:
224,192,145436,1,8,0:0:0:0:
224,192,146495,1,8,0:0:0:0:
224,192,146848,1,0,0:0:0:0:
224,192,147554,1,0,0:0:0:0:
224,192,148260,1,8,0:0:0:0:
224,192,149319,1,0,0:0:0:0:
224,192,149672,1,8,0:0:0:0:
224,192,150377,1,0,0:0:0:0:
224,192,151083,1,8,0:0:0:0:
224,192,152142,1,8,0:0:0:0:
224,192,152495,1,0,0:0:0:0:
224,192,153201,1,8,0:0:0:0:
224,192,153907,1,0,0:0:0:0:
224,192,154966,1,8,0:0:0:0:
224,192,155319,1,8,0:0:0:0:
224,192,156024,1,0,0:0:0:0:
224,192,156730,1,8,0:0:0:0:
224,192,157789,1,0,0:0:0:0:
224,192,158142,1,0,0:0:0:0:
224,192,158848,1,8,0:0:0:0:
224,192,159554,1,8,0:0:0:0:
224,192,169436,5,4,0:0:0:0:
224,192,170142,1,8,0:0:0:0:
224,192,170848,1,8,0:0:0:0:
224,192,171554,1,8,0:0:0:0:
224,192,172260,1,4,0:0:0:0:
224,192,172966,1,8,0:0:0:0:
224,192,173319,1,8,0:0:0:0:
224,192,173672,1,4,0:0:0:0:
224,192,174024,1,8,0:0:0:0:
224,192,174377,1,8,0:0:0:0:
224,192,174730,1,8,0:0:0:0:
224,192,175083,1,0,0:0:0:0:
224,192,175789,1,0,0:0:0:0:
224,192,176142,1,0,0:0:0:0:
224,192,176495,1,8,0:0:0:0:
224,192,177201,1,8,0:0:0:0:
224,192,177554,1,0,0:0:0:0:
224,192,177907,1,8,0:0:0:0:
224,192,178613,1,0,0:0:0:0:
224,192,178966,1,0,0:0:0:0:
224,192,179319,1,8,0:0:0:0:
224,192,180024,1,0,0:0:0:0:
224,192,180730,1,8,0:0:0:0:
224,192,181083,1,8,0:0:0:0:
224,192,181436,1,0,0:0:0:0:
224,192,181789,1,0,0:0:0:0:
224,192,182142,1,8,0:0:0:0:
224,192,182848,1,0,0:0:0:0:
224,192,183201,1,0,0:0:0:0:
224,192,183554,1,8,0:0:0:0:
224,192,184260,1,8,0:0:0:0:
224,192,184613,1,0,0:0:0:0:
224,192,184966,1,8,0:0:0:0:
224,192,185672,1,0,0:0:0:0:
224,192,186377,1,8,0:0:0:0:
224,192,187083,1,8,0:0:0:0:
224,192,187436,1,0,0:0:0:0:
224,192,187789,1,0,0:0:0:0:
224,192,188495,1,8,0:0:0:0:
224,192,188848,1,0,0:0:0:0:
224,192,189201,1,8,0:0:0:0:
224,192,189907,1,0,0:0:0:0:
224,192,190260,1,0,0:0:0:0:
224,192,190613,1,8,0:0:0:0:
224,192,191319,1,0,0:0:0:0:
224,192,192024,1,8,0:0:0:0:
224,192,192377,1,8,0:0:0:0:
224,192,192730,1,0,0:0:0:0:
224,192,193083,1,0,0:0:0:0:
224,192,193436,1,8,0:0:0:0:
224,192,194142,1,0,0:0:0:0:
224,192,194495,1,0,0:0:0:0:
224,192,194848,1,8,0:0:0:0:
224,192,195554,1,8,0:0:0:0:
224,192,195907,1,0,0:0:0:0:
224,192,196260,1,8,0:0:0:0:
224,192,196966,1,0,0:0:0:0:
224,192,197672,1,8,0:0:0:0:
224,192,198377,1,0,0:0:0:0:
224,192,198730,1,0,0:0:0:0:
224,192,199083,1,8,0:0:0:0:
224,192,199789,1,0,0:0:0:0:
224,192,200495,1,8,0:0:0:0:
224,192,201201,1,0,0:0:0:0:
224,192,201907,1,8,0:0:0:0:
224,192,202613,1,8,0:0:0:0:
224,192,202966,1,0,0:0:0:0:
224,192,203319,1,0,0:0:0:0:
224,192,204024,1,0,0:0:0:0:
224,192,204730,1,8,0:0:0:0:
224,192,205083,1,0,0:0:0:0:
224,192,205436,1,0,0:0:0:0:
224,192,206142,1,8,0:0:0:0:
224,192,206495,1,0,0:0:0:0:
224,192,206848,1,0,0:0:0:0:
224,192,207554,1,8,0:0:0:0:
224,192,208260,1,0,0:0:0:0:
224,192,208966,1,8,0:0:0:0:
224,192,209319,1,8,0:0:0:0:
224,192,209672,1,0,0:0:0:0:
224,192,210024,1,0,0:0:0:0:
224,192,210377,1,8,0:0:0:0:
224,192,211083,1,0,0:0:0:0:
224,192,211436,1,0,0:0:0:0:
224,192,211789,1,8,0:0:0:0:
224,192,212495,1,8,0:0:0:0:
224,192,212848,1,0,0:0:0:0:
224,192,213201,1,8,0:0:0:0:
224,192,213907,1,0,0:0:0:0:
224,192,214613,1,0,0:0:0:0:
224,192,215319,1,0,0:0:0:0:
224,192,215672,1,0,0:0:0:0:
224,192,216024,1,8,0:0:0:0:
224,192,216377,1,8,0:0:0:0:
224,192,216730,1,8,0:0:0:0:
224,192,217083,1,8,0:0:0:0:
224,192,217436,1,0,0:0:0:0:
224,192,218142,1,8,0:0:0:0:
224,192,218495,1,0,0:0:0:0:
224,192,218848,1,8,0:0:0:0:
224,192,219201,1,8,0:0:0:0:
224,192,219554,1,0,0:0:0:0:
224,192,219907,1,0,0:0:0:0:
224,192,220260,1,8,0:0:0:0:
224,192,220966,1,0,0:0:0:0:
224,192,221319,1,0,0:0:0:0:
224,192,221672,1,8,0:0:0:0:
224,192,222024,1,8,0:0:0:0:
224,192,222377,1,8,0:0:0:0:
224,192,222730,1,8,0:0:0:0:
224,192,223083,1,0,0:0:0:0:
224,192,223789,1,0,0:0:0:0:
224,192,224142,1,0,0:0:0:0:
224,192,224495,1,8,0:0:0:0:
224,192,225201,1,0,0:0:0:0:
224,192,225907,1,8,0:0:0:0:
224,192,227319,1,12,0:0:0:0:
224,192,228024,1,0,0:0:0:0:
224,192,228377,1,0,0:0:0:0:
224,192,228730,1,8,0:0:0:0:
224,192,229436,1,0,0:0:0:0:
224,192,229789,1,8,0:0:0:0:
224,192,230142,1,0,0:0:0:0:
224,192,230848,1,0,0:0:0:0:
224,192,231554,1,8,0:0:0:0:
224,192,232260,1,8,0:0:0:0:
224,192,232966,1,0,0:0:0:0:
224,192,233672,1,8,0:0:0:0:
224,192,234024,1,0,0:0:0:0:
224,192,234377,1,0,0:0:0:0:
224,192,235083,1,8,0:0:0:0:
224,192,235789,1,0,0:0:0:0:
224,192,236495,1,0,0:0:0:0:
224,192,237201,1,8,0:0:0:0:
224,192,237907,1,0,0:0:0:0:
224,192,238260,1,0,0:0:0:0:
224,192,238613,1,12,0:0:0:0:
