osu file format v14

[General]
AudioFilename: audio.mp3
AudioLeadIn: 0
PreviewTime: 58195
Countdown: 0
SampleSet: Soft
StackLeniency: 0.7
Mode: 0
LetterboxInBreaks: 0
EpilepsyWarning: 1
WidescreenStoryboard: 1

[Editor]
Bookmarks: 39850
DistanceSpacing: 1.4
BeatDivisor: 4
GridSize: 4
TimelineZoom: 1

[Metadata]
Title:Razor Sharp
TitleUnicode:Razor Sharp
Artist:Tristam & Pegboard Nerds
ArtistUnicode:Tristam & Pegboard Nerds
Creator:vanucik5656
Version:Insane
Source:
Tags:glitch hop
BeatmapID:954440
BeatmapSetID:444251

[Difficulty]
HPDrainRate:6
CircleSize:4
OverallDifficulty:8
ApproachRate:9
SliderMultiplier:2.2
SliderTickRate:1

[Events]
//Background and Video events
0,0,"zPO9J7NRn1Y.jpg",0,0
//Break Periods
//Storyboard Layer 0 (Background)
//Storyboard Layer 1 (Fail)
//Storyboard Layer 2 (Pass)
//Storyboard Layer 3 (Foreground)
//Storyboard Sound Samples

[TimingPoints]
6850,545.454545454546,4,2,0,50,1,0
6850,-100,4,2,0,50,0,0
22122,-111.111111111111,4,2,0,50,0,0
24304,-100,4,2,0,50,0,0
41759,-100,4,2,1,50,0,0
57031,-100,4,2,0,50,0,0
58668,-83.3333333333333,4,2,0,50,0,0
59077,-100,4,2,0,5,0,0
59213,-100,4,2,2,80,0,1
76122,-76.9230769230769,4,2,2,70,0,0
76668,-83.3333333333333,4,2,1,60,0,0
92486,-166.666666666667,4,2,0,60,0,0
92895,-166.666666666667,4,2,0,5,0,0
93031,-133.333333333333,4,2,0,60,0,0
93440,-133.333333333333,4,2,0,5,0,0
93577,-83.3333333333333,4,2,0,60,0,0
93986,-83.3333333333333,4,2,0,5,0,0
94122,-83.3333333333333,4,2,0,60,0,0
94531,-83.3333333333333,4,2,0,5,0,0
94668,-90.9090909090909,4,2,0,60,0,0
95077,-90.9090909090909,4,2,0,5,0,0
95213,-83.3333333333333,4,2,0,60,0,0
96304,-76.9230769230769,4,2,0,60,0,0
96850,-90.9090909090909,4,2,0,60,0,1
98486,-71.4285714285714,4,2,0,60,0,0
99031,-83.3333333333333,4,2,0,60,0,0
100668,-76.9230769230769,4,2,0,60,0,0
101213,-83.3333333333333,4,2,0,60,0,1
102850,-71.4285714285714,4,2,0,60,0,0
103395,-83.3333333333333,4,2,0,60,0,0
105031,-71.4285714285714,4,2,0,60,0,0
105577,-83.3333333333333,4,2,0,60,0,1
107213,-71.4285714285714,4,2,0,60,0,0
107759,-83.3333333333333,4,2,0,60,0,0
109395,-71.4285714285714,4,2,0,60,0,0
109668,-100,4,2,0,45,0,0
109940,-83.3333333333333,4,2,0,60,0,0
111577,-71.4285714285714,4,2,0,60,0,0
112122,-83.3333333333333,4,2,0,60,0,0
113759,-71.4285714285714,4,2,0,60,0,0
114304,-83.3333333333333,4,2,0,60,0,1
115940,-71.4285714285714,4,2,0,60,0,0
116486,-83.3333333333333,4,2,0,60,0,0
118122,-71.4285714285714,4,2,0,60,0,0
118668,-83.3333333333333,4,2,0,60,0,1
120304,-76.9230769230769,4,2,0,60,0,0
120850,-83.3333333333333,4,2,0,60,0,0
122486,-71.4285714285714,4,2,0,60,0,0
123031,-83.3333333333333,4,2,0,60,0,1
124531,-100,4,2,0,5,0,1
124668,-76.9230769230769,4,2,0,60,0,0
125213,-83.3333333333333,4,2,0,60,0,0

[Colours]
Combo1 : 179,179,255
Combo2 : 255,255,255
Combo3 : 158,95,126
Combo4 : 116,116,116

[HitObjects]
256,192,4668,12,0,6577,0:0:0:0:
361,296,6850,6,0,B|347:258|347:258|364:221|364:221|346:176|369:133,1,165,0|0,0:0|0:0,0:0:0:0:
385,104,7395,2,0,B|314:89|314:89|273:97,1,110,0|0,0:0|0:0,0:0:0:0:
122,153,7804,2,0,B|170:170|170:170|228:160,1,110,0|0,0:0|0:0,0:0:0:0:
160,79,8213,1,0,0:0:0:0:
190,288,8486,2,0,L|245:292,1,55,0|0,0:0|0:0,0:0:0:0:
414,245,8759,2,0,L|450:244,3,27.5,0|0|0|0,0:0|0:0|0:0|0:0,0:0:0:0:
400,228,9031,6,0,L|400:166,1,55,0|0,0:0|0:0,0:0:0:0:
324,111,9304,1,0,0:0:0:0:
240,163,9440,2,0,B|174:175|174:175|125:156,1,110,0|0,0:0|0:0,0:0:0:0:
190,90,9850,1,0,0:0:0:0:
222,245,9986,2,0,B|250:257|250:257|277:252|277:252|300:267|328:260,1,110,0|0,0:0|0:0,0:0:0:0:
370,176,10395,2,0,L|307:192,1,55,0|0,0:0|0:0,0:0:0:0:
215,342,10668,2,0,L|278:326,1,55,0|0,0:0|0:0,0:0:0:0:
51,106,11213,6,0,L|63:223,1,110,0|0,0:0|0:0,0:0:0:0:
164,274,11622,1,0,0:0:0:0:
249,193,11759,2,0,B|304:177|304:177|355:192,1,110,0|0,0:0|0:0,0:0:0:0:
269,272,12168,2,0,B|214:288|214:288|163:273,1,110,0|0,0:0|0:0,0:0:0:0:
135,140,12577,2,0,L|156:202,1,55,0|0,0:0|0:0,0:0:0:0:
249,78,12850,2,0,L|228:16,1,55,0|0,0:0|0:0,0:0:0:0:
362,103,13122,2,0,L|389:106,3,27.5,0|0|0|0,0:0|0:0|0:0|0:0,0:0:0:0:
398,132,13395,6,0,L|402:206,1,55,0|0,0:0|0:0,0:0:0:0:
287,288,13668,1,0,0:0:0:0:
244,161,13804,2,0,L|303:166,1,55,0|0,0:0|0:0,0:0:0:0:
152,191,14077,2,0,L|93:186,1,55,0|0,0:0|0:0,0:0:0:0:
182,293,14350,2,0,B|238:307|238:307|294:285,1,110,0|0,0:0|0:0,0:0:0:0:
348,351,14759,2,0,B|376:354|376:354|403:347,1,55,0|0,0:0|0:0,0:0:0:0:
476,286,15031,2,0,L|485:346,1,55,0|0,0:0|0:0,0:0:0:0:
370,259,15304,2,0,L|361:199,1,55,0|0,0:0|0:0,0:0:0:0:
197,211,15577,6,0,B|142:217|142:217|89:180,1,110,0|0,0:0|0:0,0:0:0:0:
201,137,15986,2,0,P|255:163|241:271,1,165,0|0,0:0|0:0,0:0:0:0:
359,314,16531,2,0,L|361:198,1,110,0|0,0:0|0:0,0:0:0:0:
426,102,16940,2,0,L|424:160,1,55,0|0,0:0|0:0,0:0:0:0:
299,153,17213,2,0,L|301:95,1,55,0|0,0:0|0:0,0:0:0:0:
179,95,17486,2,0,L|177:153,1,55,0|0,0:0|0:0,0:0:0:0:
43,148,17759,6,0,L|46:91,2,55,0|0|0,0:0|0:0|0:0,0:0:0:0:
148,222,18168,2,0,P|204:226|244:189,1,110,0|0,0:0|0:0,0:0:0:0:
345,166,18577,1,0,0:0:0:0:
337,275,18713,2,0,L|345:153,1,110,0|0,0:0|0:0,0:0:0:0:
269,101,19122,1,0,0:0:0:0:
269,101,19259,2,0,P|211:92|180:52,1,110,0|0,0:0|0:0,0:0:0:0:
252,27,19668,2,0,L|311:29,1,55,0|0,0:0|0:0,0:0:0:0:
149,144,19940,6,0,L|90:142,2,55,0|0|0,0:0|0:0|0:0,0:0:0:0:
242,192,20350,2,0,P|267:244|235:285,1,110,0|0,0:0|0:0,0:0:0:0:
323,108,20895,2,0,L|446:97,1,110,0|0,0:0|0:0,0:0:0:0:
262,31,21304,2,0,L|251:92,1,55,0|0,0:0|0:0,0:0:0:0:
355,232,21577,2,0,L|366:171,1,55,0|0,0:0|0:0,0:0:0:0:
167,222,21850,1,0,0:0:0:0:
216,295,21986,1,0,0:0:0:0:
249,218,22122,6,0,L|281:167,2,49.4999984893799,0|0|0,0:0|0:0|0:0,0:0:0:0:
134,298,22531,2,0,P|93:263|84:220,1,98.9999969787599,0|0,0:0|0:0,0:0:0:0:
154,129,22940,2,0,L|208:126,1,49.4999984893799,0|0,0:0|0:0,0:0:0:0:
358,117,23213,1,0,0:0:0:0:
299,55,23350,2,0,L|245:58,1,49.4999984893799,0|0,0:0|0:0,0:0:0:0:
318,187,23622,2,0,P|376:197|417:172,1,98.9999969787599,0|0,0:0|0:0,0:0:0:0:
499,125,24031,2,0,L|494:182,1,49.4999984893799,0|0,0:0|0:0,0:0:0:0:
387,340,24304,6,0,P|345:369|271:346,1,110,4|0,0:0|0:0,0:0:0:0:
318,187,24713,2,0,L|328:301,1,110,0|0,0:0|0:0,0:0:0:0:
47,171,25259,2,0,L|37:57,1,110,0|0,0:0|0:0,0:0:0:0:
120,192,25668,2,0,P|110:222|92:237,1,55,0|0,0:0|0:0,0:0:0:0:
113,112,25940,2,0,P|123:82|141:67,1,55,0|0,0:0|0:0,0:0:0:0:
240,132,26213,2,0,L|175:129,1,55,0|0,0:0|0:0,0:0:0:0:
320,54,26486,6,0,L|322:108,2,55,4|0|0,0:0|0:0|0:0,0:0:0:0:
406,241,26895,2,0,P|388:197|406:128,1,110,0|0,0:0|0:0,0:0:0:0:
480,184,27304,1,0,0:0:0:0:
296,212,27440,2,0,P|263:227|238:299,1,110,0|0,0:0|0:0,0:0:0:0:
316,340,27850,2,0,L|313:284,1,55,0|0,0:0|0:0,0:0:0:0:
185,129,28122,2,0,L|188:185,1,55,0|0,0:0|0:0,0:0:0:0:
296,212,28395,1,0,0:0:0:0:
396,173,28531,1,0,0:0:0:0:
503,211,28668,6,0,P|513:247|480:313,1,110,4|0,0:0|0:0,0:0:0:0:
396,173,29077,2,0,P|386:137|419:71,1,110,0|0,0:0|0:0,0:0:0:0:
317,314,29622,2,0,B|260:325|260:325|211:303,1,110,0|0,0:0|0:0,0:0:0:0:
266,186,30031,2,0,L|269:246,1,55,0|0,0:0|0:0,0:0:0:0:
147,213,30304,2,0,L|144:153,1,55,0|0,0:0|0:0,0:0:0:0:
340,119,30577,2,0,L|343:179,1,55,0|0,0:0|0:0,0:0:0:0:
347,200,30781,1,0,0:0:0:0:
363,226,30850,6,0,P|395:243|420:246,2,55,4|0|0,0:0|0:0|0:0,0:0:0:0:
283,68,31259,2,0,P|330:42|384:60,1,110,0|0,0:0|0:0,0:0:0:0:
271,171,31668,1,0,0:0:0:0:
179,58,31804,2,0,B|231:80|231:80|284:67,1,110,0|0,0:0|0:0,0:0:0:0:
138,127,32213,2,0,L|136:187,1,55,0|0,0:0|0:0,0:0:0:0:
269,225,32486,2,0,L|271:165,1,55,0|0,0:0|0:0,0:0:0:0:
185,266,32759,1,0,0:0:0:0:
185,266,32895,1,0,0:0:0:0:
338,278,33031,6,0,L|395:274,2,55,4|0|0,0:0|0:0|0:0,0:0:0:0:
222,333,33440,2,0,P|161:338|115:300,1,110,0|0,0:0|0:0,0:0:0:0:
99,226,33850,1,0,0:0:0:0:
200,157,33986,2,0,L|184:267,1,110,0|0,0:0|0:0,0:0:0:0:
126,136,34395,2,0,L|136:74,1,55,0|0,0:0|0:0,0:0:0:0:
276,172,34668,2,0,L|266:234,1,55,0|0,0:0|0:0,0:0:0:0:
352,306,34940,1,0,0:0:0:0:
352,306,35077,1,0,0:0:0:0:
467,276,35213,6,0,L|483:215,2,55,4|0|0,0:0|0:0|0:0,0:0:0:0:
352,306,35622,2,0,P|351:250|377:200,1,110,0|0,0:0|0:0,0:0:0:0:
462,146,36031,1,0,0:0:0:0:
334,128,36168,2,0,B|279:138|279:138|224:116,1,110,0|0,0:0|0:0,0:0:0:0:
288,58,36577,1,0,0:0:0:0:
235,204,36713,2,0,B|184:183|184:183|129:193,1,110,0|0,0:0|0:0,0:0:0:0:
168,331,37122,2,0,L|174:268,1,55,0|0,0:0|0:0,0:0:0:0:
326,218,37395,6,0,L|320:281,2,55,4|0|0,0:0|0:0|0:0,0:0:0:0:
334,359,37804,2,0,P|380:336|404:283,1,110,0|0,0:0|0:0,0:0:0:0:
249,315,38213,1,0,0:0:0:0:
251,190,38350,2,0,P|289:143|347:142,1,110,0|0,0:0|0:0,0:0:0:0:
426,182,38759,2,0,L|425:120,1,55,0|0,0:0|0:0,0:0:0:0:
334,83,39031,2,0,L|335:145,1,55,0|0,0:0|0:0,0:0:0:0:
251,190,39304,1,0,0:0:0:0:
251,190,39440,1,0,0:0:0:0:
157,141,39577,6,0,B|128:147|128:147|102:137,2,55,4|0|0,0:0|0:0|0:0,0:0:0:0:
51,197,39986,2,0,P|26:141|41:93,1,110,0|0,0:0|0:0,0:0:0:0:
127,58,40395,1,0,0:0:0:0:
146,224,40531,2,0,B|152:262|152:262|142:291|142:291|148:335,1,110,0|0,0:0|0:0,0:0:0:0:
290,295,40940,1,0,0:0:0:0:
290,295,41077,2,0,B|253:253|253:253|222:302,1,110,0|0,0:0|0:0,0:0:0:0:
68,298,41486,2,0,L|10:289,1,55,0|0,0:0|0:0,0:0:0:0:
149,272,41759,6,0,L|163:159,1,110,4|0,0:0|0:0,0:0:0:0:
328,120,42304,2,0,P|313:161|246:155,1,110,0|0,0:0|0:0,0:0:0:0:
342,43,42850,2,0,P|393:72|402:127,1,110,0|0,0:0|0:0,0:0:0:0:
154,327,43395,2,2,B|166:284|166:284|156:242|156:242|171:206|159:159,1,165,0|0,0:0|0:0,0:0:0:0:
139,139,43940,6,0,B|84:155|84:155|35:133,1,110,0|0,0:0|0:0,0:0:0:0:
384,86,44486,1,8,0:0:0:0:
360,172,44622,1,8,0:0:0:0:
300,109,44759,1,8,0:0:0:0:
444,149,44895,1,8,0:0:0:0:
334,253,45031,2,8,P|286:244|231:289,1,110,8|0,0:0|0:0,0:0:0:0:
171,209,45440,2,0,B|169:159|169:159|196:103,1,110,8|0,0:0|0:0,0:0:0:0:
303,34,45850,2,0,L|232:37,1,55,8|0,0:0|0:0,0:0:0:0:
360,172,46122,6,0,P|381:119|361:55,1,110,4|0,0:0|0:0,0:0:0:0:
171,209,46668,2,0,P|150:262|170:326,1,110,0|0,0:0|0:0,0:0:0:0:
338,274,47213,2,0,B|284:285|284:285|226:264,1,110,0|0,0:0|0:0,0:0:0:0:
201,50,47759,1,8,0:0:0:0:
235,160,47895,1,8,0:0:0:0:
154,126,48032,1,8,0:0:0:0:
281,85,48168,1,8,0:0:0:0:
344,172,48304,6,8,L|224:158,1,110,4|0,0:0|0:0,0:0:0:0:
232,266,48713,2,0,L|352:280,2,110,0|0|0,0:0|0:0|0:0,0:0:0:0:
193,275,49395,2,0,P|171:326|187:380,1,110,0|0,0:0|0:0,0:0:0:0:
341,278,49804,2,0,P|363:227|347:173,1,110,0|0,0:0|0:0,0:0:0:0:
254,178,50213,2,0,L|293:226,1,55,0|0,0:0|0:0,0:0:0:0:
271,344,50486,5,4,0:0:0:0:
256,192,50622,12,0,56759,0:0:0:0:
204,237,57031,6,0,L|281:252,2,73.3333333333333,0|0|0,0:0|0:0|0:0,0:0:0:0:
405,304,57577,2,0,L|328:319,2,73.3333333333333,0|0|0,0:0|0:0|0:0,0:0:0:0:
342,172,58122,6,0,P|353:96|431:92,1,165,0|0,0:0|0:0,0:0:0:0:
333,197,58668,2,0,B|310:226|310:226|318:263|318:263|292:288|292:288|294:350|225:364,1,197.99999395752,0|0,0:0|0:0,0:0:0:0:
155,374,59213,6,0,B|129:341|149:282|149:282|130:254|130:254|138:218,1,165,4|0,0:0|0:0,0:0:0:0:
161,103,59759,5,8,0:0:0:0:
341,99,59940,1,0,0:0:0:0:
256,202,60122,1,0,0:0:0:0:
209,28,60304,1,8,0:0:0:0:
211,281,60486,1,0,0:0:0:0:
142,186,60668,1,0,0:0:0:0:
356,197,60850,2,0,B|392:208|392:208|432:201,1,73.3333333333333,8|0,0:0|0:0,0:0:0:0:
309,91,61213,1,0,0:0:0:0:
307,289,61395,6,0,P|279:344|167:349,1,146.666666666667,8|0,0:0|0:0,0:0:0:0:
103,181,61940,2,0,L|114:273,1,73.3333333333333,8|0,0:0|0:0,0:0:0:0:
177,114,62304,1,0,0:0:0:0:
365,177,62486,1,8,0:0:0:0:
307,289,62668,1,0,0:0:0:0:
259,133,62850,1,0,0:0:0:0:
401,306,63031,1,8,0:0:0:0:
238,221,63213,1,0,0:0:0:0:
437,228,63440,1,0,0:0:0:0:
209,302,63577,6,0,P|159:259|210:139,1,183.333333333333,12|0,0:0|0:0,0:0:0:0:
164,126,64122,2,0,L|85:120,1,73.3333333333333,8|0,0:0|0:0,0:0:0:0:
252,45,64486,1,0,0:0:0:0:
391,181,64668,1,8,0:0:0:0:
238,212,64850,1,0,0:0:0:0:
389,89,65031,1,0,0:0:0:0:
337,325,65213,2,0,L|317:237,2,73.3333333333333,8|0|0,0:0|0:0|0:0,0:0:0:0:
100,179,65759,6,0,B|81:215|81:215|96:253|96:253|65:304|98:353,1,183.333333333333,8|0,0:0|0:0,0:0:0:0:
167,302,66304,2,0,L|215:240,1,73.3333333333333,8|0,0:0|0:0,0:0:0:0:
189,124,66668,1,0,0:0:0:0:
371,206,66850,1,8,0:0:0:0:
325,98,67031,1,0,0:0:0:0:
288,271,67213,1,0,0:0:0:0:
470,190,67395,1,8,0:0:0:0:
259,182,67577,1,0,0:0:0:0:
411,301,67759,1,0,0:0:0:0:
437,103,67940,6,0,P|431:61|311:51,1,183.333333333333,12|0,0:0|0:0,0:0:0:0:
302,72,68486,2,0,L|215:73,2,73.3333333333333,8|0|0,0:0|0:0|0:0,0:0:0:0:
217,271,69031,1,8,0:0:0:0:
175,135,69213,1,0,0:0:0:0:
331,228,69395,1,0,0:0:0:0:
98,252,69577,1,8,0:0:0:0:
269,144,69759,1,0,0:0:0:0:
241,368,69940,1,0,0:0:0:0:
107,173,70122,6,0,P|25:219|39:303,1,183.333333333333,8|0,0:0|0:0,0:0:0:0:
122,321,70668,2,0,L|97:246,1,73.3333333333333,8|0,0:0|0:0,0:0:0:0:
220,269,71031,1,0,0:0:0:0:
264,98,71213,1,8,0:0:0:0:
300,216,71395,1,0,0:0:0:0:
162,131,71577,1,0,0:0:0:0:
366,73,71759,1,8,0:0:0:0:
217,195,71940,1,0,0:0:0:0:
238,14,72122,1,0,0:0:0:0:
384,199,72304,6,0,P|393:242|317:308,1,146.666666666667,12|0,0:0|0:0,0:0:0:0:
162,131,72850,1,8,0:0:0:0:
309,115,73031,1,0,0:0:0:0:
132,232,73213,1,0,0:0:0:0:
238,14,73395,2,0,L|232:103,1,73.3333333333333,8|0,0:0|0:0,0:0:0:0:
247,273,73759,1,0,0:0:0:0:
379,167,73940,1,8,0:0:0:0:
161,131,74122,1,0,0:0:0:0:
343,255,74304,1,0,0:0:0:0:
328,87,74486,6,0,B|326:52|326:52|345:15,2,73.3333333333333,8|0|0,0:0|0:0|0:0,0:0:0:0:
470,243,75031,2,0,B|472:278|472:278|453:315,2,73.3333333333333,8|0|0,0:0|0:0|0:0,0:0:0:0:
406,88,75577,2,0,B|428:60|428:60|464:52,2,73.3333333333333,8|0|0,0:0|0:0|0:0,0:0:0:0:
350,249,76122,2,0,P|302:275|338:189,1,238.3333224233,8|0,0:0|0:0,0:0:0:0:
308,228,76668,6,0,B|263:228|263:228|227:254|227:254|182:234|144:261,1,175.999994628906,12|0,0:0|0:0,0:0:0:0:
82,93,77213,2,0,L|79:187,1,87.9999973144532,8|0,0:0|0:0,0:0:0:0:
202,95,77577,1,0,0:0:0:0:
309,228,77759,1,8,0:0:0:0:
323,52,77940,1,0,0:0:0:0:
188,189,78122,1,0,0:0:0:0:
400,163,78304,1,8,0:0:0:0:
202,95,78486,1,0,0:0:0:0:
265,305,78668,1,0,0:0:0:0:
320,142,78850,6,0,P|347:99|467:119,1,175.999994628906,12|0,0:0|0:0,0:0:0:0:
388,250,79395,2,0,L|401:154,2,87.9999973144532,8|0|0,0:0|0:0|0:0,0:0:0:0:
186,194,79940,1,8,0:0:0:0:
242,325,80122,1,0,0:0:0:0:
283,168,80304,1,0,0:0:0:0:
145,285,80486,1,8,0:0:0:0:
309,267,80668,1,0,0:0:0:0:
186,194,80850,1,0,0:0:0:0:
321,347,81031,6,0,P|382:303|358:206,1,175.999994628906,12|0,0:0|0:0,0:0:0:0:
242,96,81577,2,0,B|285:108|285:108|330:90,1,87.9999973144532,8|0,0:0|0:0,0:0:0:0:
282,19,81940,1,0,0:0:0:0:
155,172,82122,2,0,P|144:221|158:262,1,87.9999973144532,8|0,0:0|0:0,0:0:0:0:
231,215,82486,1,0,0:0:0:0:
97,91,82668,1,8,0:0:0:0:
59,215,82850,1,0,0:0:0:0:
214,70,83031,1,0,0:0:0:0:
154,256,83213,6,0,P|217:303|310:250,1,175.999994628906,12|0,0:0|0:0,0:0:0:0:
398,260,83759,2,0,B|443:291|496:263,1,87.9999973144532,8|0,0:0|0:0,0:0:0:0:
386,162,84122,1,0,0:0:0:0:
308,362,84304,2,0,B|269:387|221:367,1,87.9999973144532,8|0,0:0|0:0,0:0:0:0:
115,278,84668,1,0,0:0:0:0:
247,146,84850,1,8,0:0:0:0:
231,294,85031,1,0,0:0:0:0:
82,183,85213,1,0,0:0:0:0:
224,66,85395,6,0,P|288:72|323:175,1,175.999994628906,12|0,0:0|0:0,0:0:0:0:
210,379,85940,2,0,L|232:289,1,87.9999973144532,8|0,0:0|0:0,0:0:0:0:
356,288,86304,1,0,0:0:0:0:
210,174,86486,1,8,0:0:0:0:
82,225,86668,1,0,0:0:0:0:
167,89,86850,1,0,0:0:0:0:
180,262,87031,1,8,0:0:0:0:
46,108,87213,1,0,0:0:0:0:
257,40,87395,1,0,0:0:0:0:
83,223,87577,6,0,P|74:279|151:362,1,175.999994628906,12|0,0:0|0:0,0:0:0:0:
309,261,88122,2,0,P|322:219|310:176,1,87.9999973144532,8|0,0:0|0:0,0:0:0:0:
211,131,88486,1,0,0:0:0:0:
392,288,88668,1,8,0:0:0:0:
307,90,88850,1,0,0:0:0:0:
235,217,89031,1,0,0:0:0:0:
409,205,89213,2,0,B|424:163|424:163|419:116,2,87.9999973144532,8|0|0,0:0|0:0|0:0,0:0:0:0:
200,349,89759,6,0,P|156:357|69:261,1,175.999994628906,12|0,0:0|0:0,0:0:0:0:
176,178,90304,2,0,L|163:265,1,87.9999973144532,8|0,0:0|0:0,0:0:0:0:
86,113,90668,1,0,0:0:0:0:
308,138,90850,1,8,0:0:0:0:
189,45,91031,1,0,0:0:0:0:
247,245,91213,1,0,0:0:0:0:
373,63,91395,1,8,0:0:0:0:
176,178,91577,1,0,0:0:0:0:
374,275,91759,2,8,L|385:214,1,43.9999986572266,0|0,0:0|0:0,0:0:0:0:
373,63,91940,5,8,0:0:0:0:
103,302,92486,2,0,L|222:309,1,109.999996643067,0|0,0:0|0:0,0:0:0:0:
231,237,93031,2,0,L|74:228,1,137.500005245209,0|0,0:0|0:0,0:0:0:0:
90,148,93577,2,0,P|128:70|46:100,1,219.999993286133,8|0,0:0|0:0,0:0:0:0:
157,200,94122,6,0,P|209:122|152:0,1,197.99999395752,4|0,0:0|0:0,0:0:0:0:
210,24,94668,2,0,B|245:44|245:44|283:29|283:29|329:63|387:31,1,181.500005538941,0|0,0:0|0:0,0:0:0:0:
385,167,95213,2,0,L|377:27,1,131.99999597168,0|0,0:0|0:0,0:0:0:0:
322,218,95622,2,0,P|375:249|446:224,1,131.99999597168,0|0,0:0|0:0,0:0:0:0:
277,147,96031,2,0,L|211:160,1,65.9999979858399,0|0,0:0|0:0,0:0:0:0:
78,286,96304,6,0,B|111:310|111:310|145:293|145:293|200:355|280:308,1,214.49999018097,4|0,0:0|0:0,0:0:0:0:
217,243,96850,2,0,L|149:218,2,60.5000018463135,0|0|0,0:0|0:0|0:0,0:0:0:0:
326,238,97259,1,0,0:0:0:0:
211,122,97395,2,0,L|217:252,1,121.000003692627,0|0,0:0|0:0,0:0:0:0:
287,81,97804,2,0,P|245:40|174:44,1,121.000003692627,0|0,0:0|0:0,0:0:0:0:
296,163,98213,2,0,L|360:151,1,60.5000018463135,0|0,0:0|0:0,0:0:0:0:
418,261,98486,6,0,B|394:345|308:333|308:333|273:358|273:358|230:350,1,230.99999295044,4|0,0:0|0:0,0:0:0:0:
109,250,99031,2,0,B|117:291|117:291|106:337|106:337|116:379,1,131.99999597168,0|0,0:0|0:0,0:0:0:0:
314,165,99577,2,0,P|260:172|206:123,1,131.99999597168,0|0,0:0|0:0,0:0:0:0:
383,52,99986,2,0,B|392:87|392:87|381:125|381:125|398:152|386:191,1,131.99999597168,0|0,0:0|0:0,0:0:0:0:
278,99,100395,2,0,L|279:31,1,65.9999979858399,0|0,0:0|0:0,0:0:0:0:
463,127,100668,6,0,P|479:205|373:271,1,214.49999018097,4|0,0:0|0:0,0:0:0:0:
205,122,101213,2,0,L|207:200,1,65.9999979858399,0|0,0:0|0:0,0:0:0:0:
273,338,101486,2,0,L|271:260,1,65.9999979858399,0|0,0:0|0:0,0:0:0:0:
109,122,101759,2,0,L|111:259,1,131.99999597168,0|0,0:0|0:0,0:0:0:0:
297,115,102168,1,0,0:0:0:0:
110,253,102304,2,0,L|39:260,1,65.9999979858399,0|0,0:0|0:0,0:0:0:0:
207,344,102577,2,0,L|278:337,1,65.9999979858399,0|0,0:0|0:0,0:0:0:0:
377,127,102850,6,0,P|372:80|280:36,1,153.999995300293,4|0,0:0|0:0,0:0:0:0:
210,142,103259,1,0,0:0:0:0:
295,180,103395,2,0,L|297:104,1,65.9999979858399,0|0,0:0|0:0,0:0:0:0:
125,96,103668,2,0,L|123:172,1,65.9999979858399,0|0,0:0|0:0,0:0:0:0:
270,258,103940,2,0,P|344:250|373:201,1,131.99999597168,0|0,0:0|0:0,0:0:0:0:
196,196,104350,2,0,L|184:332,1,131.99999597168,0|0,0:0|0:0,0:0:0:0:
295,180,104759,2,0,L|297:104,1,65.9999979858399,0|0,0:0|0:0,0:0:0:0:
120,30,105031,6,0,B|74:18|51:57|51:57|61:93|61:93|44:126|44:126|60:165|48:216,1,230.99999295044,4|0,0:0|0:0,0:0:0:0:
194,137,105577,2,0,L|123:132,1,65.9999979858399,0|0,0:0|0:0,0:0:0:0:
295,180,105850,2,0,L|366:185,1,65.9999979858399,0|0,0:0|0:0,0:0:0:0:
239,30,106122,2,0,P|192:70|203:150,1,131.99999597168,0|0,0:0|0:0,0:0:0:0:
213,240,106531,1,0,0:0:0:0:
330,105,106668,2,0,L|250:104,1,65.9999979858399,0|0,0:0|0:0,0:0:0:0:
409,54,106940,2,0,L|489:55,1,65.9999979858399,0|0,0:0|0:0,0:0:0:0:
468,243,107213,6,0,B|449:293|449:293|405:297|405:297|367:366|291:340,1,230.99999295044,4|0,0:0|0:0,0:0:0:0:
325,200,107759,2,0,L|330:273,1,65.9999979858399,0|0,0:0|0:0,0:0:0:0:
409,54,108031,2,0,L|414:127,1,65.9999979858399,0|0,0:0|0:0,0:0:0:0:
256,105,108304,2,0,B|219:98|219:98|196:148|145:145,1,131.99999597168,0|0,0:0|0:0,0:0:0:0:
147,68,108713,1,0,0:0:0:0:
241,199,108850,2,0,L|238:273,1,65.9999979858399,0|0,0:0|0:0,0:0:0:0:
160,323,109122,1,0,0:0:0:0:
160,323,109259,1,0,0:0:0:0:
329,328,109395,6,0,B|364:313|364:313|403:318|403:318|452:307|480:240|439:192,1,230.99999295044,4|0,0:0|0:0,0:0:0:0:
323,217,109940,2,0,L|397:248,1,65.9999979858399,0|0,0:0|0:0,0:0:0:0:
319,125,110213,1,0,0:0:0:0:
319,125,110350,1,0,0:0:0:0:
218,203,110486,2,0,B|201:248|201:248|218:274|218:274|195:333,1,131.99999597168,0|0,0:0|0:0,0:0:0:0:
95,323,110895,2,0,B|114:273|114:273|97:247|97:247|114:202,1,131.99999597168,0|0,0:0|0:0,0:0:0:0:
207,137,111304,2,0,L|217:202,1,65.9999979858399,0|0,0:0|0:0,0:0:0:0:
408,232,111577,6,0,B|441:206|441:206|411:175|411:175|440:153|457:113|445:73|420:45,1,230.99999295044,4|0,0:0|0:0,0:0:0:0:
300,86,112122,2,0,L|369:108,2,65.9999979858399,0|0|0,0:0|0:0|0:0,0:0:0:0:
174,61,112531,1,0,0:0:0:0:
57,106,112668,2,0,B|43:144|43:144|63:171|63:171|65:238,1,131.99999597168,0|0,0:0|0:0,0:0:0:0:
151,315,113077,2,0,B|165:277|165:277|145:250|145:250|143:183,1,131.99999597168,0|0,0:0|0:0,0:0:0:0:
285,194,113486,2,0,L|218:208,1,65.9999979858399,0|0,0:0|0:0,0:0:0:0:
357,66,113759,6,0,B|377:100|377:100|359:145|359:145|379:186|379:186|354:233|382:282,1,230.99999295044,4|0,0:0|0:0,0:0:0:0:
457,163,114304,2,0,L|450:232,1,65.9999979858399,0|0,0:0|0:0,0:0:0:0:
281,343,114577,2,0,L|288:274,1,65.9999979858399,0|0,0:0|0:0,0:0:0:0:
207,135,114850,2,0,P|206:171|289:190,1,131.99999597168,0|0,0:0|0:0,0:0:0:0:
213,51,115259,1,0,0:0:0:0:
95,142,115395,2,0,L|109:216,1,65.9999979858399,0|0,0:0|0:0,0:0:0:0:
49,346,115668,2,0,L|35:272,1,65.9999979858399,0|0,0:0|0:0,0:0:0:0:
281,342,115940,6,0,B|354:317|354:317|342:282|342:282|363:251|363:251|343:203|377:158,1,230.99999295044,4|0,0:0|0:0,0:0:0:0:
501,210,116486,2,0,L|429:217,1,65.9999979858399,0|0,0:0|0:0,0:0:0:0:
214,174,116759,2,0,L|286:167,1,65.9999979858399,0|0,0:0|0:0,0:0:0:0:
425,17,117031,2,0,B|443:42|443:42|435:74|435:74|457:101|449:141,1,131.99999597168,0|0,0:0|0:0,0:0:0:0:
331,240,117440,1,0,0:0:0:0:
316,98,117577,2,0,L|376:123,1,65.9999979858399,0|0,0:0|0:0,0:0:0:0:
475,232,117850,2,0,L|435:216,2,43.9999986572266,0|0|0,0:0|0:0|0:0,0:0:0:0:
482,264,118122,6,0,B|455:338|455:338|433:324|405:328|405:328|367:370|314:352,1,230.99999295044,4|0,0:0|0:0,0:0:0:0:
331,240,118668,2,0,L|328:158,1,65.9999979858399,0|0,0:0|0:0,0:0:0:0:
243,56,118940,2,0,L|246:138,1,65.9999979858399,0|0,0:0|0:0,0:0:0:0:
231,266,119213,2,0,B|200:279|200:279|169:264|169:264|131:263|108:303,1,131.99999597168,0|0,0:0|0:0,0:0:0:0:
238,348,119622,1,0,0:0:0:0:
192,190,119759,2,0,L|106:188,1,65.9999979858399,0|0,0:0|0:0,0:0:0:0:
331,240,120031,2,0,L|417:242,1,65.9999979858399,0|0,0:0|0:0,0:0:0:0:
376,89,120304,6,0,B|332:70|332:70|295:87|295:87|269:75|233:75,1,142.99999345398,4|0,0:0|0:0,0:0:0:0:
192,190,120713,1,0,0:0:0:0:
331,240,120850,2,0,L|334:168,1,65.9999979858399,0|0,0:0|0:0,0:0:0:0:
161,291,121122,2,0,L|158:363,1,65.9999979858399,0|0,0:0|0:0,0:0:0:0:
331,329,121395,2,0,P|396:305|419:243,1,131.99999597168,0|0,0:0|0:0,0:0:0:0:
492,119,121804,2,0,L|500:260,1,131.99999597168,0|0,0:0|0:0,0:0:0:0:
413,120,122213,2,0,P|415:90|438:56,1,65.9999979858399,0|0,0:0|0:0,0:0:0:0:
333,177,122486,6,0,B|305:200|305:200|267:190|267:190|218:208|218:208|161:191|159:125,1,230.99999295044,4|0,0:0|0:0,0:0:0:0:
295,90,123031,2,0,L|233:122,1,65.9999979858399,0|0,0:0|0:0,0:0:0:0:
27,171,123304,2,0,L|89:139,1,65.9999979858399,0|0,0:0|0:0,0:0:0:0:
160,301,123577,2,0,P|101:312|52:259,1,131.99999597168,0|0,0:0|0:0,0:0:0:0:
223,216,123986,1,0,0:0:0:0:
236,346,124122,2,0,B|271:361|271:361|303:346|303:346|325:335|351:346|351:346|343:303|361:271,1,197.99999395752,0|0,0:0|0:0,0:0:0:0:
405,190,124668,6,0,P|445:234|438:318,1,142.99999345398,4|0,0:0|0:0,0:0:0:0:
309,175,125077,1,0,0:0:0:0:
309,175,125213,2,0,B|298:131|298:131|310:101|310:101|296:44,1,131.99999597168,0|0,0:0|0:0,0:0:0:0:
50,303,125759,2,0,B|110:330|110:330|184:311,1,131.99999597168,0|0,0:0|0:0,0:0:0:0:
144,125,126168,2,0,B|121:147|121:147|134:175|134:175|109:202|113:246,1,131.99999597168,0|0,0:0|0:0,0:0:0:0:
263,233,126577,2,0,L|187:232,1,65.9999979858399,0|0,0:0|0:0,0:0:0:0:
271,357,126850,5,4,0:0:0:0:
256,192,126986,12,0,129031,0:0:0:0:
