osu file format v14

[General]
AudioFilename: audio.mp3
AudioLeadIn: 0
PreviewTime: 58195
Countdown: 0
SampleSet: Soft
StackLeniency: 0.7
Mode: 0
LetterboxInBreaks: 0
EpilepsyWarning: 1
WidescreenStoryboard: 1

[Editor]
Bookmarks: 39850,115668
DistanceSpacing: 1.1
BeatDivisor: 2
GridSize: 4
TimelineZoom: 1

[Metadata]
Title:Razor Sharp
TitleUnicode:Razor Sharp
Artist:Tristam & Pegboard Nerds
ArtistUnicode:Tristam & Pegboard Nerds
Creator:vanucik5656
Version:Easy
Source:
Tags:glitch hop
BeatmapID:958554
BeatmapSetID:444251

[Difficulty]
HPDrainRate:3
CircleSize:3
OverallDifficulty:3
ApproachRate:4
SliderMultiplier:1.3
SliderTickRate:1

[Events]
//Background and Video events
0,0,"zPO9J7NRn1Y.jpg",0,0
//Break Periods
//Storyboard Layer 0 (Background)
//Storyboard Layer 1 (Fail)
//Storyboard Layer 2 (Pass)
//Storyboard Layer 3 (Foreground)
//Storyboard Sound Samples

[TimingPoints]
6850,545.454545454546,4,2,0,50,1,0
6850,-100,4,2,0,50,0,0
41759,-100,4,2,1,50,0,0
59213,-100,4,2,2,80,0,1
76122,-100,4,2,1,60,0,0
76668,-100,4,2,1,70,0,0
96850,-100,4,2,0,60,0,1
98486,-100,4,2,0,60,0,0
101213,-100,4,2,0,60,0,1
102850,-100,4,2,0,60,0,0
105577,-100,4,2,0,60,0,1
107213,-100,4,2,0,60,0,0
114304,-100,4,2,0,60,0,1
115940,-100,4,2,0,60,0,0
118668,-100,4,2,0,60,0,1
120304,-100,4,2,0,60,0,0
123031,-100,4,2,0,60,0,1
124668,-100,4,2,0,60,0,0

[Colours]
Combo1 : 179,179,255
Combo2 : 255,255,255
Combo3 : 158,95,126
Combo4 : 116,116,116

[HitObjects]
428,287,6850,6,0,B|364:308|364:308|299:273,1,130,0|0,0:0|0:0,0:0:0:0:
253,146,7940,2,0,B|197:116|197:116|133:137,1,130,0|0,0:0|0:0,0:0:0:0:
16,218,9031,2,0,P|17:291|172:355,1,260,0|0,0:0|0:0,0:0:0:0:
312,350,10668,1,0,0:0:0:0:
434,276,11213,6,0,P|447:223|422:147,1,130,0|0,0:0|0:0,0:0:0:0:
326,49,12304,2,0,B|288:59|288:59|258:42|258:42|225:48|192:36,1,130,0|0,0:0|0:0,0:0:0:0:
62,68,13395,2,0,B|26:125|26:125|40:186|40:186|14:253|52:312,1,260,0|0,0:0|0:0,0:0:0:0:
177,376,15031,1,0,0:0:0:0:
317,346,15577,6,0,L|364:214,1,130,0|0,0:0|0:0,0:0:0:0:
217,228,16668,2,0,P|153:219|106:174,1,130,0|0,0:0|0:0,0:0:0:0:
168,46,17759,2,0,B|229:19|229:19|294:39,1,130,0|0,0:0|0:0,0:0:0:0:
424,84,18850,2,0,B|436:128|436:128|421:162|421:162|433:207,1,130,0|0,0:0|0:0,0:0:0:0:
301,262,19940,6,0,B|231:266|231:266|167:359|67:328,1,260,0|0,0:0|0:0,0:0:0:0:
110,191,21577,1,0,0:0:0:0:
256,192,22122,12,4,24304,0:0:0:0:
96,328,25395,6,0,P|159:354|224:332,1,130,0|0,0:0|0:0,0:0:0:0:
271,205,26486,2,0,P|295:151|475:109,1,260,4|0,0:0|0:0,0:0:0:0:
413,238,28122,1,0,0:0:0:0:
290,312,28668,6,0,B|229:336|229:336|165:323,1,130,4|0,0:0|0:0,0:0:0:0:
55,232,29759,2,0,P|27:183|43:108,1,130,0|0,0:0|0:0,0:0:0:0:
174,67,30850,2,0,B|256:92|256:92|301:80,1,130,4|0,0:0|0:0,0:0:0:0:
439,55,31940,2,0,L|437:189,1,130,0|0,0:0|0:0,0:0:0:0:
369,311,33031,5,4,0:0:0:0:
236,256,33577,1,0,0:0:0:0:
153,372,34122,2,0,P|91:378|35:333,1,130,0|0,0:0|0:0,0:0:0:0:
48,196,35213,2,0,B|53:151|53:151|40:124|40:124|47:68,1,130,4|0,0:0|0:0,0:0:0:0:
188,49,36304,2,0,B|218:61|218:61|245:50|245:50|282:64|315:54,1,130,0|0,0:0|0:0,0:0:0:0:
432,133,37395,6,0,P|439:194|406:260,1,130,4|0,0:0|0:0,0:0:0:0:
299,345,38486,2,0,P|229:356|171:330,1,130,0|0,0:0|0:0,0:0:0:0:
256,192,39577,12,4,41759,0:0:0:0:
469,36,42850,6,2,B|457:76|457:76|467:120|467:120|456:165,1,130,0|0,0:0|0:0,0:0:0:0:
396,291,43940,1,0,0:0:0:0:
256,259,44486,1,8,0:0:0:0:
154,359,45031,2,8,P|115:295|122:221,1,130,8|0,0:0|0:0,0:0:0:0:
175,111,46122,6,0,B|241:131|241:131|303:107,1,130,4|0,0:0|0:0,0:0:0:0:
436,75,47213,2,0,L|429:215,1,130,0|8,0:0|0:0,0:0:0:0:
348,322,48304,2,8,B|283:292|222:328|222:328,1,130,4|0,0:0|0:0,0:0:0:0:
89,275,49395,1,0,0:0:0:0:
92,132,49940,1,0,0:0:0:0:
256,192,50486,12,0,57031,0:0:0:0:
62,217,59213,6,0,B|127:201|127:201|188:231,1,130,4|8,0:0|0:0,0:0:0:0:
300,311,60304,1,8,0:0:0:0:
438,275,60850,1,8,0:0:0:0:
362,153,61395,2,0,B|298:143|298:143|248:101,1,130,8|8,0:0|0:0,0:0:0:0:
112,54,62486,1,8,0:0:0:0:
26,168,63031,1,8,0:0:0:0:
74,302,63577,6,0,P|128:337|207:325,1,130,12|8,0:0|0:0,0:0:0:0:
307,249,64668,1,8,0:0:0:0:
434,312,65213,1,8,0:0:0:0:
510,190,65759,2,0,P|485:146|498:67,1,130,8|8,0:0|0:0,0:0:0:0:
357,33,66850,2,0,B|304:28|268:61|268:61|215:45,1,130,8|8,0:0|0:0,0:0:0:0:
92,45,67940,6,0,P|70:95|94:172,1,130,12|8,0:0|0:0,0:0:0:0:
222,216,69031,1,8,0:0:0:0:
343,141,69577,1,8,0:0:0:0:
460,222,70122,2,0,P|451:280|398:330,1,130,8|8,0:0|0:0,0:0:0:0:
258,320,71213,2,0,B|197:297|197:297|133:315,1,130,8|8,0:0|0:0,0:0:0:0:
7,249,72304,6,0,L|16:115,1,130,12|8,0:0|0:0,0:0:0:0:
156,95,73395,2,0,L|147:229,1,130,8|8,0:0|0:0,0:0:0:0:
244,329,74486,2,0,B|307:342|307:342|376:314,1,130,8|8,0:0|0:0,0:0:0:0:
314,184,75577,2,0,B|373:152|373:152|405:98,1,130,8|8,0:0|0:0,0:0:0:0:
276,35,76668,5,12,0:0:0:0:
139,78,77213,1,8,0:0:0:0:
79,208,77759,2,0,B|75:274|75:274|113:334,1,130,8|8,0:0|0:0,0:0:0:0:
231,254,78850,2,0,P|296:236|358:265,1,130,12|8,0:0|0:0,0:0:0:0:
474,186,79940,2,0,B|477:152|477:152|464:122|464:122|471:89|453:60,1,130,8|8,0:0|0:0,0:0:0:0:
322,118,81031,5,12,0:0:0:0:
196,52,81577,1,8,0:0:0:0:
62,103,82122,2,0,L|54:237,1,130,8|8,0:0|0:0,0:0:0:0:
144,343,83213,2,0,B|206:368|206:368|267:351,1,130,12|8,0:0|0:0,0:0:0:0:
409,360,84304,2,0,L|416:227,1,130,8|8,0:0|0:0,0:0:0:0:
382,91,85395,6,0,B|354:70|322:80|322:80|288:65|259:84,1,130,12|8,0:0|0:0,0:0:0:0:
117,105,86486,1,8,0:0:0:0:
77,242,87031,1,8,0:0:0:0:
162,357,87577,2,0,B|227:372|227:372|293:341,1,130,12|8,0:0|0:0,0:0:0:0:
352,218,88668,1,8,0:0:0:0:
247,120,89213,1,8,0:0:0:0:
327,1,89759,6,0,P|379:24|420:101,1,130,12|8,0:0|0:0,0:0:0:0:
415,227,90850,2,0,B|357:256|357:256|284:237,1,130,8|8,0:0|0:0,0:0:0:0:
166,174,91940,1,8,0:0:0:0:
51,52,93577,1,8,0:0:0:0:
193,60,94122,6,0,B|186:129|186:129|211:186,1,130,4|0,0:0|0:0,0:0:0:0:
349,152,95213,2,0,B|373:207|373:207|366:276,1,130,0|0,0:0|0:0,0:0:0:0:
235,334,96304,1,4,0:0:0:0:
105,273,96850,6,0,P|83:237|94:151,1,130,0|0,0:0|0:0,0:0:0:0:
213,76,97940,1,0,0:0:0:0:
341,140,98486,6,0,B|349:186|349:186|339:226|339:226|347:274,1,130,4|0,0:0|0:0,0:0:0:0:
205,295,99577,2,0,B|197:249|197:249|207:209|207:209|199:161,1,130,0|0,0:0|0:0,0:0:0:0:
78,91,100668,5,4,0:0:0:0:
24,223,101213,2,0,P|52:278|114:304,1,130,0|0,0:0|0:0,0:0:0:0:
255,290,102304,1,0,0:0:0:0:
398,303,102850,6,0,P|457:279|487:223,1,130,4|0,0:0|0:0,0:0:0:0:
391,116,103940,2,0,P|332:140|302:196,1,130,0|0,0:0|0:0,0:0:0:0:
192,288,105031,5,4,0:0:0:0:
67,216,105577,1,0,0:0:0:0:
118,82,106122,2,0,P|177:57|240:70,1,130,0|0,0:0|0:0,0:0:0:0:
319,188,107213,6,0,B|381:206|381:206|446:186,1,130,4|0,0:0|0:0,0:0:0:0:
444,43,108304,2,0,B|382:25|382:25|317:45,1,130,0|0,0:0|0:0,0:0:0:0:
199,122,109395,5,4,0:0:0:0:
73,54,109940,1,0,0:0:0:0:
75,197,110486,2,0,L|87:334,1,130,0|0,0:0|0:0,0:0:0:0:
228,346,111577,5,4,0:0:0:0:
244,202,112122,1,0,0:0:0:0:
102,182,112668,2,0,P|67:140|74:62,1,130,0|0,0:0|0:0,0:0:0:0:
205,19,113759,5,4,0:0:0:0:
337,72,114304,2,0,B|352:119|352:119|344:152|344:152|362:205,1,130,0|0,0:0|0:0,0:0:0:0:
340,338,115395,1,0,0:0:0:0:
198,356,115940,6,0,P|170:317|174:237,1,130,4|0,0:0|0:0,0:0:0:0:
301,174,117031,2,0,P|309:110|276:55,1,130,0|0,0:0|0:0,0:0:0:0:
137,20,118122,5,4,0:0:0:0:
13,92,118668,1,0,0:0:0:0:
29,233,119213,2,0,P|55:292|116:321,1,130,0|0,0:0|0:0,0:0:0:0:
239,257,120304,6,0,B|302:237|302:237|368:266,1,130,4|0,0:0|0:0,0:0:0:0:
503,257,121395,2,0,B|508:124|508:125,1,130,0|0,0:0|0:0,0:0:0:0:
380,62,122486,5,4,0:0:0:0:
248,117,123031,1,0,0:0:0:0:
118,55,123577,2,0,P|103:104|123:180,1,130,0|0,0:0|0:0,0:0:0:0:
255,230,124668,6,0,B|272:293|272:293|245:357,1,130,4|0,0:0|0:0,0:0:0:0:
104,363,125759,1,0,0:0:0:0:
47,231,126304,1,0,0:0:0:0:
163,147,126850,5,4,0:0:0:0:
