osu file format v14

[General]
AudioFilename: audio.mp3
AudioLeadIn: 0
PreviewTime: 67626
Countdown: 0
SampleSet: Normal
StackLeniency: 0.5
Mode: 0
LetterboxInBreaks: 0
WidescreenStoryboard: 0

[Editor]
Bookmarks: 56654,62140
DistanceSpacing: 1.2
BeatDivisor: 4
GridSize: 4
TimelineZoom: 2.700003

[Metadata]
Title:Frame of Mind
TitleUnicode:Frame of Mind
Artist:Tristam & Braken
ArtistUnicode:Tristam & Braken
Creator:Fanteer
Version:FCL's Another
Source:
Tags:monstercat liquid release 017 drum bass dnb Fcl
BeatmapID:1128261
BeatmapSetID:514788

[Difficulty]
HPDrainRate:7
CircleSize:4.3
OverallDifficulty:8
ApproachRate:9
SliderMultiplier:1.8
SliderTickRate:2

[Events]
//Background and Video events
0,0,"fantasy.jpg",0,0
//Break Periods
//Storyboard Layer 0 (Background)
//Storyboard Layer 1 (Fail)
//Storyboard Layer 2 (Pass)
//Storyboard Layer 3 (Foreground)
//Storyboard Sound Samples

[TimingPoints]
426,342.857142857143,4,1,1,10,1,0
10368,-125,4,2,1,10,0,0
12426,-500,4,2,1,10,0,0
12768,-125,4,2,1,35,0,0
15168,-500,4,2,1,35,0,0
15511,-125,4,2,1,35,0,0
17911,-500,4,2,1,35,0,0
18254,-125,4,2,1,35,0,0
23740,-166.666666666667,4,2,1,50,0,0
45683,-125,4,1,1,50,0,0
56654,-111.111111111111,4,1,1,60,0,0
62140,-100,4,1,1,65,0,0
64883,-100,4,1,1,75,0,0
67626,-90.9090909090909,4,1,1,85,0,1
75854,-90.9090909090909,4,1,1,70,0,0
78597,-90.9090909090909,4,1,1,85,0,1
86826,-90.9090909090909,4,1,1,70,0,0
89568,-100,4,1,1,80,0,0
99168,-100,4,1,1,70,0,0
107397,-125,4,1,1,70,0,0
108083,-166.666666666667,4,1,1,70,0,0
111511,-76.9230769230769,4,1,1,50,0,0

[Colours]
Combo1 : 170,96,215
Combo2 : 7,180,184
Combo3 : 244,169,11
Combo4 : 21,172,48

[HitObjects]
61,201,12426,6,0,L|59:172,1,27
59,166,12768,5,2,0:0:0:0:
136,127,13111,1,0,0:0:0:0:
215,160,13454,1,0,0:0:0:0:
292,121,13797,1,0,0:0:0:0:
368,161,14140,1,0,0:0:0:0:
410,236,14483,1,0,0:0:0:0:
413,322,14826,1,0,0:0:0:0:
345,382,15168,2,0,L|313:376,1,27,0|0,0:0|0:0,0:0:0:0:
311,375,15511,5,2,0:0:0:0:
276,295,15854,1,0,0:0:0:0:
326,225,16197,1,0,0:0:0:0:
288,146,16540,1,0,0:0:0:0:
337,75,16883,1,0,0:0:0:0:
250,76,17226,1,0,0:0:0:0:
163,79,17568,1,0,0:0:0:0:
78,80,17911,2,0,L|73:108,1,27
73,113,18254,5,2,0:0:0:0:
129,178,18597,1,0,0:0:0:0:
104,260,18940,1,0,0:0:0:0:
161,324,19283,1,0,0:0:0:0:
222,262,19626,1,0,0:0:0:0:
286,318,19968,1,0,0:0:0:0:
350,261,20311,1,0,0:0:0:0:
288,200,20654,1,0,0:0:0:0:
222,262,20997,5,2,0:0:0:0:
156,232,21340,1,0,0:0:0:0:
114,172,21683,1,0,0:0:0:0:
115,99,22026,1,0,0:0:0:0:
177,133,22368,1,0,0:0:0:0:
114,172,22711,1,0,0:0:0:0:
70,229,23054,1,0,0:0:0:0:
54,299,23397,1,0,0:0:0:0:
78,364,23740,5,2,0:0:0:0:
157,290,24083,1,0,0:0:0:0:
243,354,24426,2,0,P|298:369|363:341,1,107.999996704102,0|0,0:0|0:0,0:0:0:0:
445,226,25111,5,0,0:0:0:0:
301,287,25454,1,0,0:0:0:0:
445,226,25797,1,0,0:0:0:0:
223,191,26140,1,0,0:0:0:0:
352,61,26483,5,2,0:0:0:0:
381,164,26826,1,0,0:0:0:0:
349,267,27168,2,0,P|301:284|234:254,1,107.999996704102,0|0,0:0|0:0,0:0:0:0:
148,155,27854,5,0,0:0:0:0:
195,358,28197,1,0,0:0:0:0:
148,155,28540,1,0,0:0:0:0:
106,301,28883,1,0,0:0:0:0:
20,160,29226,5,2,0:0:0:0:
67,63,29568,1,0,0:0:0:0:
170,92,29911,2,0,L|302:82,1,107.999996704102,0|0,0:0|0:0,0:0:0:0:
419,164,30597,6,0,P|374:175|317:158,1,107.999996704102
210,279,31283,2,0,L|210:225,1,53.9999983520508
212,122,31625,1,0,0:0:0:0:
311,79,31968,5,2,0:0:0:0:
212,122,32311,1,0,0:0:0:0:
111,82,32654,2,0,P|87:105|75:140,1,53.9999983520508
134,218,32997,1,0,0:0:0:0:
131,226,33168,2,0,P|135:254|126:292,1,53.9999983520508
245,333,33683,5,0,0:0:0:0:
130,279,34026,1,0,0:0:0:0:
249,339,34368,1,0,0:0:0:0:
386,236,34711,5,2,0:0:0:0:
260,266,35054,1,0,0:0:0:0:
152,193,35397,2,0,P|147:160|172:77,1,107.999996704102
350,37,36083,5,0,0:0:0:0:
292,196,36426,1,0,0:0:0:0:
359,31,36768,1,0,0:0:0:0:
396,260,37111,1,0,0:0:0:0:
254,343,37454,5,2,0:0:0:0:
154,260,37797,1,0,0:0:0:0:
215,145,38140,2,0,P|250:130|326:139,1,107.999996704102,0|0,0:0|0:0,0:0:0:0:
466,220,38826,5,0,0:0:0:0:
270,268,39168,1,0,0:0:0:0:
466,220,39511,1,0,0:0:0:0:
270,268,39854,1,0,0:0:0:0:
415,333,40197,5,2,0:0:0:0:
387,206,40540,1,0,0:0:0:0:
356,80,40883,2,0,P|301:76|239:98,1,107.999996704102,0|0,0:0|0:0,0:0:0:0:
156,229,41568,5,0,0:0:0:0:
213,342,41911,2,0,P|248:348|316:316,1,107.999996704102
282,205,42597,1,0,0:0:0:0:
316,98,42940,5,2,0:0:0:0:
189,128,43283,1,0,0:0:0:0:
226,252,43626,2,0,P|230:284|208:343,1,80.9999975280763
208,345,43968,2,0,L|202:270,1,53.9999983520508
81,149,45683,5,6,0:0:0:0:
81,149,45854,1,0,0:0:0:0:
119,261,46026,1,0,0:0:0:0:
119,261,46197,1,0,0:0:0:0:
160,113,46368,2,0,L|243:104,1,72,2|0,0:0|0:0,0:0:0:0:
304,279,46711,2,0,L|221:270,1,72
408,190,47054,5,2,0:0:0:0:
454,262,47226,1,0,0:0:0:0:
281,202,47397,1,0,0:0:0:0:
327,130,47569,1,0,0:0:0:0:
445,333,47740,2,0,P|404:340|365:330,1,72,2|0,0:0|0:0,0:0:0:0:
210,203,48083,2,0,P|251:196|290:206,1,72
169,322,48426,5,2,0:0:0:0:
119,251,48597,1,0,0:0:0:0:
143,168,48768,1,0,0:0:0:0:
173,351,48940,1,0,0:0:0:0:
137,137,49111,2,0,L|145:39,1,72,2|0,0:0|0:0,0:0:0:0:
361,17,49454,1,0,0:0:0:0:
255,82,49626,1,0,0:0:0:0:
430,197,49797,5,2,0:0:0:0:
445,112,49968,1,0,0:0:0:0:
457,26,50140,1,0,0:0:0:0:
427,220,50311,1,0,0:0:0:0:
337,38,50483,2,0,L|246:34,1,72,2|0,0:0|0:0,0:0:0:0:
184,202,50826,1,0,0:0:0:0:
231,103,50997,1,0,0:0:0:0:
84,151,51168,5,2,0:0:0:0:
84,151,51340,1,0,0:0:0:0:
207,222,51511,1,0,0:0:0:0:
207,222,51683,1,0,0:0:0:0:
70,299,51854,2,0,P|59:252|67:204,1,72,2|0,0:0|0:0,0:0:0:0:
221,142,52197,2,0,P|230:107|230:71,1,72
67,133,52540,5,2,0:0:0:0:
136,183,52711,1,0,0:0:0:0:
67,360,52883,1,0,0:0:0:0:
35,279,53054,1,0,0:0:0:0:
199,351,53226,2,0,L|276:343,1,72,2|0,0:0|0:0,0:0:0:0:
384,239,53568,1,0,0:0:0:0:
349,159,53740,1,0,0:0:0:0:
373,76,53911,6,0,L|473:68,1,72,2|0,0:0|0:0,0:0:0:0:
276,204,54254,2,0,L|176:196,1,72,0|0,0:0|0:0,0:0:0:0:
138,51,54597,1,2,0:0:0:0:
241,115,54768,1,0,0:0:0:0:
92,170,54940,1,0,0:0:0:0:
254,38,55111,1,0,0:0:0:0:
276,204,55283,5,2,0:0:0:0:
276,204,55454,1,0,0:0:0:0:
134,282,55626,1,0,0:0:0:0:
307,305,55797,1,0,0:0:0:0:
92,170,55968,2,0,P|84:125|93:73,1,72,2|0,0:0|0:0,0:0:0:0:
288,22,56311,1,0,0:0:0:0:
302,129,56483,1,0,0:0:0:0:
328,286,56654,6,0,L|312:184,1,80.9999975280763,2|0,0:0|0:0,0:0:0:0:
105,258,56997,2,0,L|92:338,1,80.9999975280763,0|0,0:0|0:0,0:0:0:0:
214,220,57340,1,2,0:0:0:0:
214,220,57511,1,0,0:0:0:0:
50,138,57683,1,0,0:0:0:0:
50,138,57854,1,0,0:0:0:0:
239,66,58026,6,0,P|291:58|350:64,1,80.9999975280763,2|0,0:0|0:0,0:0:0:0:
226,317,58368,2,0,P|204:268|195:210,1,80.9999975280763,0|0,0:0|0:0,0:0:0:0:
320,135,58711,1,2,0:0:0:0:
214,220,58883,1,0,0:0:0:0:
400,323,59054,1,0,0:0:0:0:
406,213,59226,1,0,0:0:0:0:
269,328,59397,6,0,L|178:319,1,80.9999975280763,2|0,0:0|0:0,0:0:0:0:
188,320,59654,1,0,0:0:0:0:
188,320,59740,1,0,0:0:0:0:
146,226,59911,1,0,0:0:0:0:
256,80,60083,1,2,0:0:0:0:
283,198,60254,1,0,0:0:0:0:
110,65,60426,2,0,L|117:154,1,80.9999975280763,0|0,0:0|0:0,0:0:0:0:
261,318,60768,5,2,0:0:0:0:
379,341,60940,1,0,0:0:0:0:
402,222,61111,1,0,0:0:0:0:
283,198,61283,1,0,0:0:0:0:
437,295,61454,2,0,P|475:253|478:204,1,80.9999975280763,2|0,0:0|0:0,0:0:0:0:
375,82,61797,2,0,L|284:78,1,80.9999975280763,0|0,0:0|0:0,0:0:0:0:
105,152,62140,5,2,0:0:0:0:
82,344,62311,1,0,0:0:0:0:
116,177,62483,1,0,0:0:0:0:
160,304,62654,1,0,0:0:0:0:
229,193,62826,1,2,0:0:0:0:
71,243,62997,1,0,0:0:0:0:
245,357,63168,1,0,0:0:0:0:
245,357,63340,1,0,0:0:0:0:
437,216,63511,5,2,0:0:0:0:
184,250,63683,1,0,0:0:0:0:
421,206,63854,1,0,0:0:0:0:
296,95,64026,1,0,0:0:0:0:
267,246,64197,1,2,0:0:0:0:
392,107,64368,1,0,0:0:0:0:
186,238,64540,1,0,0:0:0:0:
186,238,64711,1,0,0:0:0:0:
277,72,64883,6,0,L|187:79,1,90,2|0,0:0|0:0,0:0:0:0:
150,116,65140,1,0,0:0:0:0:
127,112,65226,1,2,0:0:0:0:
236,0,65397,1,0,0:0:0:0:
235,171,65568,5,2,0:0:0:0:
384,107,65740,1,0,0:0:0:0:
206,163,65911,5,2,0:0:0:0:
413,110,66083,1,0,0:0:0:0:
311,324,66254,5,2,0:0:0:0:
296,180,66426,1,0,0:0:0:0:
385,371,66597,5,2,0:0:0:0:
395,226,66769,1,0,0:0:0:0:
100,295,66940,5,2,0:0:0:0:
311,324,67111,1,0,0:0:0:0:
77,278,67283,5,2,0:0:0:0:
340,224,67454,1,0,0:0:0:0:
164,146,67626,6,0,L|44:142,1,99.0000030212403,6|0,0:0|0:0,0:0:0:0:
231,197,67968,1,8,0:0:0:0:
123,37,68140,1,0,0:0:0:0:
123,37,68226,1,0,0:0:0:0:
123,37,68311,1,0,0:0:0:0:
101,223,68483,1,2,0:0:0:0:
28,73,68654,1,8,0:0:0:0:
221,37,68826,1,0,0:0:0:0:
282,219,68997,6,0,B|240:232|204:211|204:211|182:230|182:230|157:214|157:214|126:232|65:216,1,198.000006042481,2|8,0:0|0:0,0:0:0:0:
33,342,69511,1,0,0:0:0:0:
33,342,69597,1,0,0:0:0:0:
33,342,69683,2,0,P|5:291|16:221,1,99.0000030212403,0|2,0:0|0:0,0:0:0:0:
75,93,70026,1,8,0:0:0:0:
100,222,70197,1,0,0:0:0:0:
209,109,70368,6,0,L|341:105,1,99.0000030212403,2|0,0:0|0:0,0:0:0:0:
404,9,70711,1,8,0:0:0:0:
319,131,70883,1,0,0:0:0:0:
319,131,70968,1,0,0:0:0:0:
319,131,71054,1,0,0:0:0:0:
393,295,71226,1,2,0:0:0:0:
327,150,71397,1,8,0:0:0:0:
443,221,71568,1,0,0:0:0:0:
271,294,71740,6,0,L|375:290,2,99.0000030212403,2|0|8,0:0|0:0|0:0,0:0:0:0:
129,216,72254,1,0,0:0:0:0:
132,186,72340,1,0,0:0:0:0:
135,156,72426,1,0,0:0:0:0:
140,127,72511,1,0,0:0:0:0:
145,97,72597,1,2,0:0:0:0:
323,1,72768,2,0,P|332:49|316:122,1,99.0000030212403,8|0,0:0|0:0,0:0:0:0:
181,348,73111,6,0,P|167:293|210:139,1,198.000006042481,2|8,0:0|0:0,0:0:0:0:
106,37,73626,1,0,0:0:0:0:
106,37,73711,1,0,0:0:0:0:
106,37,73797,1,0,0:0:0:0:
23,174,73968,1,2,0:0:0:0:
197,157,74140,1,8,0:0:0:0:
29,68,74311,1,0,0:0:0:0:
117,242,74483,6,0,L|221:240,1,99.0000030212403,2|0,0:0|0:0,0:0:0:0:
347,317,74826,1,8,0:0:0:0:
305,168,74997,1,0,0:0:0:0:
121,357,75168,2,0,P|102:311|104:262,1,99.0000030212403,0|2,0:0|0:0,0:0:0:0:
25,76,75511,1,8,0:0:0:0:
227,138,75683,1,0,0:0:0:0:
31,211,75854,5,2,0:0:0:0:
257,282,76026,1,2,0:0:0:0:
1,203,76197,1,8,0:0:0:0:
227,138,76368,1,0,0:0:0:0:
227,138,76454,1,0,0:0:0:0:
227,138,76540,1,0,0:0:0:0:
61,29,76711,2,0,L|67:95,1,49.5000015106202,8|0,0:0|0:0,0:0:0:0:
81,209,76883,2,0,P|126:220|205:202,1,99.0000030212403,0|0,0:0|0:0,0:0:0:0:
211,224,77140,1,0,0:0:0:0:
211,224,77226,5,2,0:0:0:0:
383,317,77397,1,0,0:0:0:0:
487,144,77568,2,0,L|383:139,1,99.0000030212403,8|0,0:0|0:0,0:0:0:0:
388,139,77826,1,0,0:0:0:0:
388,139,77911,1,0,0:0:0:0:
219,323,78083,5,8,0:0:0:0:
215,273,78168,1,8,0:0:0:0:
211,224,78254,1,8,0:0:0:0:
207,174,78340,1,8,0:0:0:0:
203,125,78426,2,8,L|215:57,1,49.5000015106202
390,47,78597,6,0,L|395:162,1,99.0000030212403,6|0,0:0|0:0,0:0:0:0:
285,253,78940,1,8,0:0:0:0:
462,292,79111,1,0,0:0:0:0:
462,292,79197,1,0,0:0:0:0:
462,292,79283,1,0,0:0:0:0:
311,172,79454,1,2,0:0:0:0:
369,343,79626,2,0,P|376:293|368:231,1,99.0000030212403,8|0,0:0|0:0,0:0:0:0:
237,43,79968,6,0,B|219:86|239:125|239:125|232:142|232:142|241:162|241:162|219:197|242:258,1,198.000006042481,2|8,0:0|0:0,0:0:0:0:
119,346,80483,1,0,0:0:0:0:
119,346,80568,1,0,0:0:0:0:
119,346,80654,2,0,P|185:324|234:329,1,99.0000030212403,0|2,0:0|0:0,0:0:0:0:
394,372,80997,1,8,0:0:0:0:
248,334,81168,1,0,0:0:0:0:
435,267,81340,6,0,L|440:162,1,99.0000030212403,2|0,0:0|0:0,0:0:0:0:
324,46,81683,1,8,0:0:0:0:
263,194,81854,1,0,0:0:0:0:
263,194,81940,1,0,0:0:0:0:
263,194,82026,1,0,0:0:0:0:
416,158,82197,1,2,0:0:0:0:
286,189,82368,1,8,0:0:0:0:
435,267,82540,1,0,0:0:0:0:
272,364,82711,6,0,P|259:310|272:249,2,99.0000030212403,2|0|8,0:0|0:0|0:0,0:0:0:0:
110,240,83226,1,0,0:0:0:0:
99,212,83311,1,0,0:0:0:0:
97,182,83397,1,0,0:0:0:0:
104,154,83483,1,0,0:0:0:0:
120,129,83568,1,2,0:0:0:0:
267,192,83740,2,0,P|195:201|160:183,1,99.0000030212403,8|0,0:0|0:0,0:0:0:0:
32,58,84083,6,0,B|146:13|110:91|252:42,1,198.000006042481,2|8,0:0|0:0,0:0:0:0:
428,122,84597,1,0,0:0:0:0:
428,122,84683,1,0,0:0:0:0:
428,122,84768,2,0,L|426:220,1,99.0000030212403,0|2,0:0|0:0,0:0:0:0:
166,330,85111,2,0,L|164:231,1,99.0000030212403,8|0,0:0|0:0,0:0:0:0:
292,71,85454,5,2,0:0:0:0:
401,207,85626,1,0,0:0:0:0:
260,348,85797,2,0,P|250:296|259:228,1,99.0000030212403,8|0,0:0|0:0,0:0:0:0:
172,75,86140,1,0,0:0:0:0:
172,75,86226,1,0,0:0:0:0:
172,75,86311,2,0,L|97:69,1,49.5000015106202,2|0,0:0|0:0,0:0:0:0:
7,182,86483,1,8,0:0:0:0:
104,87,86654,1,0,0:0:0:0:
232,208,86826,6,0,P|269:255|172:367,1,198.000006042481,2|8,0:0|0:0,0:0:0:0:
161,166,87340,1,0,0:0:0:0:
178,148,87425,1,0,0:0:0:0:
200,136,87511,1,0,0:0:0:0:
224,131,87597,1,0,0:0:0:0:
248,132,87682,1,2,0:0:0:0:
194,285,87854,1,8,0:0:0:0:
73,160,88026,2,0,P|69:131|79:85,1,49.5000015106202
219,32,88197,6,0,L|224:145,1,99.0000030212403,2|0,0:0|0:0,0:0:0:0:
113,248,88540,1,8,0:0:0:0:
267,338,88711,1,0,0:0:0:0:
291,335,88796,1,0,0:0:0:0:
315,333,88882,1,0,0:0:0:0:
339,330,88968,1,0,0:0:0:0:
363,328,89054,2,0,L|371:259,1,49.5000015106202,2|0,0:0|0:0,0:0:0:0:
401,82,89226,1,8,0:0:0:0:
299,188,89397,1,0,0:0:0:0:
299,188,89483,1,0,0:0:0:0:
299,188,89568,6,0,P|365:229|484:213,1,180,2|8,0:0|0:0,0:0:0:0:
346,357,90083,1,0,0:0:0:0:
346,357,90168,1,0,0:0:0:0:
346,357,90254,2,0,L|343:306,1,45,0|0,0:0|0:0,0:0:0:0:
330,172,90426,1,2,0:0:0:0:
184,286,90597,2,0,P|230:301|291:290,1,90,8|0,0:0|0:0,0:0:0:0:
484,137,90940,6,0,L|291:144,1,180,2|8,0:0|0:0,0:0:0:0:
217,204,91454,1,0,0:0:0:0:
305,35,91626,1,0,0:0:0:0:
305,35,91711,1,0,0:0:0:0:
305,35,91797,1,2,0:0:0:0:
424,221,91968,2,0,L|313:214,1,90,8|0,0:0|0:0,0:0:0:0:
161,300,92311,6,0,P|112:315|27:204,1,180,2|8,0:0|0:0,0:0:0:0:
126,86,92826,1,0,0:0:0:0:
126,86,92911,1,0,0:0:0:0:
126,86,92997,2,0,L|201:82,1,45,0|0,0:0|0:0,0:0:0:0:
314,161,93168,1,2,0:0:0:0:
243,17,93340,2,0,L|248:119,1,90,8|0,0:0|0:0,0:0:0:0:
291,304,93683,6,0,P|341:318|403:291,2,90,2|0|8,0:0|0:0|0:0,0:0:0:0:
146,200,94197,1,0,0:0:0:0:
111,189,94282,1,0,0:0:0:0:
76,193,94368,1,0,0:0:0:0:
45,211,94454,1,0,0:0:0:0:
25,240,94539,1,2,0:0:0:0:
102,362,94711,2,0,L|105:259,1,90,8|0,0:0|0:0,0:0:0:0:
111,255,94968,1,0,0:0:0:0:
116,237,95054,6,0,B|112:168|112:168|130:122|130:122|125:31,1,180,2|8,0:0|0:0,0:0:0:0:
240,168,95568,1,0,0:0:0:0:
240,168,95654,1,0,0:0:0:0:
240,168,95740,2,0,L|312:171,1,45,0|0,0:0|0:0,0:0:0:0:
441,175,95911,1,2,0:0:0:0:
322,330,96083,2,0,P|302:256|318:209,1,90,8|0,0:0|0:0,0:0:0:0:
403,60,96426,6,0,P|332:86|223:44,1,180,2|8,0:0|0:0,0:0:0:0:
127,45,96940,1,0,0:0:0:0:
239,197,97111,1,0,0:0:0:0:
239,197,97197,1,0,0:0:0:0:
239,197,97283,1,2,0:0:0:0:
94,322,97454,2,0,P|145:332|208:307,1,90,8|0,0:0|0:0,0:0:0:0:
313,155,97797,5,2,0:0:0:0:
290,349,97968,1,2,0:0:0:0:
317,126,98140,1,8,0:0:0:0:
444,297,98311,1,0,0:0:0:0:
444,297,98397,1,0,0:0:0:0:
444,297,98483,1,0,0:0:0:0:
226,238,98654,2,0,L|218:178,1,45,8|0,0:0|0:0,0:0:0:0:
300,368,98826,1,0,0:0:0:0:
108,277,98997,1,0,0:0:0:0:
108,277,99083,1,0,0:0:0:0:
108,277,99168,6,0,L|111:177,1,90,2|0,0:0|0:0,0:0:0:0:
299,95,99511,1,8,0:0:0:0:
130,158,99683,1,0,0:0:0:0:
130,158,99768,1,0,0:0:0:0:
130,158,99854,1,0,0:0:0:0:
357,286,100026,5,8,0:0:0:0:
400,263,100111,1,8,0:0:0:0:
428,223,100197,1,8,0:0:0:0:
432,174,100283,1,8,0:0:0:0:
412,129,100368,2,0,L|351:127,1,45,8|0,0:0|0:0,0:0:0:0:
221,40,100540,6,0,L|216:239,1,180,2|8,0:0|0:0,0:0:0:0:
34,182,101054,1,0,0:0:0:0:
34,182,101140,1,0,0:0:0:0:
34,182,101226,2,0,L|104:175,1,45,0|0,0:0|0:0,0:0:0:0:
269,164,101397,1,2,0:0:0:0:
122,365,101568,2,0,L|125:254,1,90,8|0,0:0|0:0,0:0:0:0:
243,19,101911,6,0,B|219:68|219:68|239:206,1,180,2|8,0:0|0:0,0:0:0:0:
352,284,102426,1,0,0:0:0:0:
344,108,102597,1,0,0:0:0:0:
344,108,102683,1,0,0:0:0:0:
344,108,102768,1,2,0:0:0:0:
162,225,102940,2,0,P|152:273|157:336,1,90,8|0,0:0|0:0,0:0:0:0:
390,362,103283,6,0,P|432:320|380:202,1,180,2|8,0:0|0:0,0:0:0:0:
244,171,103797,1,0,0:0:0:0:
244,171,103883,1,0,0:0:0:0:
244,171,103968,2,0,L|248:241,1,45,0|0,0:0|0:0,0:0:0:0:
255,350,104140,1,2,0:0:0:0:
403,213,104311,2,0,P|349:210|299:227,1,90,8|0,0:0|0:0,0:0:0:0:
110,349,104654,5,2,0:0:0:0:
98,259,104826,1,0,0:0:0:0:
84,170,104997,1,8,0:0:0:0:
314,307,105168,1,0,0:0:0:0:
278,305,105253,1,0,0:0:0:0:
242,303,105339,1,0,0:0:0:0:
206,302,105425,1,0,0:0:0:0:
170,300,105510,1,2,0:0:0:0:
359,162,105683,2,0,P|377:213|361:275,1,90,8|0,0:0|0:0,0:0:0:0:
367,265,105940,1,0,0:0:0:0:
361,282,106026,6,0,B|473:249|435:315|546:269,1,180,2|8,0:0|0:0,0:0:0:0:
346,141,106540,1,0,0:0:0:0:
346,141,106626,1,0,0:0:0:0:
346,141,106711,2,0,L|273:148,1,45,0|0,0:0|0:0,0:0:0:0:
104,167,106883,1,2,0:0:0:0:
215,304,107054,2,0,L|217:204,1,90,8|0,0:0|0:0,0:0:0:0:
186,149,107311,1,0,0:0:0:0:
186,149,107397,6,0,L|182:61,1,72,2|0,0:0|0:0,0:0:0:0:
384,28,107740,2,0,L|380:99,1,72,8|0,0:0|0:0,0:0:0:0:
445,225,108083,6,0,P|405:236|371:233,1,53.9999983520508,0|2,0:0|0:0,0:0:0:0:
251,210,108426,2,0,P|224:212|198:221,1,53.9999983520508,0|0,0:0|0:0,0:0:0:0:
137,297,108768,5,0,0:0:0:0:
