osu file format v14

[General]
AudioFilename: audio.mp3
AudioLeadIn: 0
PreviewTime: 67626
Countdown: 0
SampleSet: Normal
StackLeniency: 0.7
Mode: 0
LetterboxInBreaks: 0
WidescreenStoryboard: 0

[Editor]
Bookmarks: 56654,62140
DistanceSpacing: 1.1
BeatDivisor: 4
GridSize: 4
TimelineZoom: 2.700003

[Metadata]
Title:Frame of Mind
TitleUnicode:Frame of Mind
Artist:Tristam & Braken
ArtistUnicode:Tristam & Braken
Creator:Fanteer
Version:Normal
Source:
Tags:monstercat liquid release 017 drum bass dnb Fcl
BeatmapID:1128262
BeatmapSetID:514788

[Difficulty]
HPDrainRate:4
CircleSize:3
OverallDifficulty:4.5
ApproachRate:5
SliderMultiplier:0.8
SliderTickRate:1

[Events]
//Background and Video events
0,0,"fantasy.jpg",0,0
//Break Periods
//Storyboard Layer 0 (Background)
//Storyboard Layer 1 (Fail)
//Storyboard Layer 2 (Pass)
//Storyboard Layer 3 (Foreground)
//Storyboard Sound Samples

[TimingPoints]
426,342.857142857143,4,2,1,10,1,0
10368,-100,4,2,1,10,0,0
12768,-100,4,2,1,35,0,0
23740,-100,4,2,1,50,0,0
34711,-100,4,2,1,60,0,0
45683,-100,4,1,1,55,0,0
56654,-100,4,1,1,60,0,0
62140,-100,4,1,1,65,0,0
64883,-100,4,1,1,75,0,0
67626,-100,4,1,1,85,0,1
75854,-100,4,1,1,70,0,0
78597,-100,4,1,1,85,0,1
86826,-100,4,1,1,70,0,0
89568,-100,4,1,1,80,0,0
99168,-100,4,1,1,70,0,0
111511,-100,4,1,1,50,0,0

[Colours]
Combo1 : 170,96,215
Combo2 : 7,180,184
Combo3 : 244,169,11
Combo4 : 21,172,48

[HitObjects]
256,192,10368,12,0,12083,0:0:0:0:
100,279,12768,6,0,P|140:282|192:279,1,80,2|0,0:0|0:0,0:0:0:0:
264,254,13454,2,0,P|303:252|343:255,1,80,0|0,0:0|0:0,0:0:0:0:
425,223,14140,2,0,L|428:130,1,80,0|0,0:0|0:0,0:0:0:0:
362,82,14826,2,0,L|359:2,1,80,0|0,0:0|0:0,0:0:0:0:
277,35,15511,6,0,P|232:38|191:36,1,80,2|0,0:0|0:0,0:0:0:0:
120,80,16197,2,0,P|80:77|40:78,1,80,0|0,0:0|0:0,0:0:0:0:
68,162,16883,2,0,P|65:201|66:241,1,80,0|0,0:0|0:0,0:0:0:0:
146,278,17568,2,0,P|148:317|147:357,1,80
232,334,18254,6,0,L|311:335,1,80,2|0,0:0|0:0,0:0:0:0:
390,295,18940,2,0,L|469:293,1,80,0|0,0:0|0:0,0:0:0:0:
508,212,19626,2,0,P|512:172|508:116,1,80,0|0,0:0|0:0,0:0:0:0:
432,92,20311,2,0,P|428:52|432:-4,1,80,0|0,0:0|0:0,0:0:0:0:
344,40,20997,6,0,P|297:44|247:40,1,80,2|0,0:0|0:0,0:0:0:0:
200,100,21683,2,0,P|160:98|120:102,1,80,0|0,0:0|0:0,0:0:0:0:
72,176,22368,2,0,P|77:220|73:263,1,80,0|0,0:0|0:0,0:0:0:0:
108,336,23054,2,0,P|152:341|195:337,1,80,0|0,0:0|0:0,0:0:0:0:
276,348,23740,5,2,0:0:0:0:
328,275,24083,2,0,P|332:239|329:195,1,80,0|0,0:0|0:0,0:0:0:0:
295,114,24768,1,0,0:0:0:0:
209,135,25111,2,0,P|163:137|122:133,1,80,0|0,0:0|0:0,0:0:0:0:
51,176,25797,2,0,L|40:260,1,80,0|0,0:0|0:0,0:0:0:0:
66,339,26483,5,2,0:0:0:0:
148,304,26826,1,0,0:0:0:0:
232,336,27169,2,0,P|271:332|311:336,1,80
391,297,27854,2,0,P|397:258|394:208,1,80,0|0,0:0|0:0,0:0:0:0:
354,139,28540,2,0,P|347:99|349:59,1,80,0|0,0:0|0:0,0:0:0:0:
268,23,29226,5,2,0:0:0:0:
180,28,29568,1,0,0:0:0:0:
104,72,29912,2,0,P|98:111|101:151,1,80
36,212,30597,2,0,P|39:256|33:295,1,80
92,360,31283,2,0,P|134:352|184:353,1,80
255,319,31968,5,2,0:0:0:0:
336,356,32311,1,0,0:0:0:0:
416,324,32654,2,0,P|452:316|500:316,1,80
484,228,33340,2,0,P|481:185|487:132,1,80
428,80,34026,2,0,P|388:71|332:77,1,80
264,100,34711,6,0,B|221:103|221:103|179:98,2,80,2|0|0,0:0|0:0|0:0,0:0:0:0:
349,72,35740,1,0,0:0:0:0:
396,148,36083,2,0,P|400:190|396:231,1,80
336,292,36768,2,0,L|246:286,1,80
180,332,37454,6,0,L|100:337,2,80,2|0|0,0:0|0:0|0:0,0:0:0:0:
256,286,38483,1,0,0:0:0:0:
336,252,38826,2,0,L|415:252,1,80
484,196,39511,2,0,P|489:158|488:108,1,80
413,62,40197,6,0,B|370:57|330:65,2,80,2|0|0,0:0|0:0|0:0,0:0:0:0:
488,116,41226,1,0,0:0:0:0:
446,193,41568,2,0,B|410:204|363:199,1,80
284,167,42254,2,0,L|190:162,1,80
122,197,42940,6,0,L|42:201,2,80,2|0|0,0:0|0:0|0:0,0:0:0:0:
204,162,43968,1,0,0:0:0:0:
69,120,45683,6,0,P|112:120|158:108,1,80,6|0,0:0|0:0,0:0:0:0:
225,70,46368,2,0,P|263:61|303:61,1,80,2|0,0:0|0:0,0:0:0:0:
384,97,47054,2,0,L|377:183,1,80,2|0,0:0|0:0,0:0:0:0:
339,256,47740,2,0,L|345:335,1,80,2|0,0:0|0:0,0:0:0:0:
431,317,48426,6,0,L|437:237,1,80,2|0,0:0|0:0,0:0:0:0:
377,176,49111,2,0,L|370:96,1,80,2|0,0:0|0:0,0:0:0:0:
292,55,49797,2,0,P|252:54|213:63,1,80,2|0,0:0|0:0,0:0:0:0:
140,113,50483,2,0,P|101:121|61:120,1,80,2|0,0:0|0:0,0:0:0:0:
28,203,51168,6,0,P|35:243|35:287,1,80,2|0,0:0|0:0,0:0:0:0:
100,342,51854,2,0,P|139:342|179:349,1,80,2|0,0:0|0:0,0:0:0:0:
267,341,52540,2,0,P|306:347|346:348,1,80,2|0,0:0|0:0,0:0:0:0:
408,288,53226,2,0,P|408:248|415:208,1,80,2|0,0:0|0:0,0:0:0:0:
456,128,53911,6,0,P|418:118|372:127,1,80,2|0,0:0|0:0,0:0:0:0:
320,192,54597,2,0,P|280:198|242:188,1,80,2|0,0:0|0:0,0:0:0:0:
173,141,55283,2,0,B|168:104|173:61,1,80,2|0,0:0|0:0,0:0:0:0:
256,30,55968,2,0,P|296:32|343:31,1,80,2|0,0:0|0:0,0:0:0:0:
411,77,56654,6,0,L|404:170,1,80,2|0,0:0|0:0,0:0:0:0:
341,217,57340,2,0,P|299:207|258:210,1,80,2|0,0:0|0:0,0:0:0:0:
222,227,57854,1,0,0:0:0:0:
181,244,58026,2,0,P|141:245|102:236,1,80,2|0,0:0|0:0,0:0:0:0:
45,168,58711,2,0,L|50:87,1,80,2|0,0:0|0:0,0:0:0:0:
77,53,59226,1,0,0:0:0:0:
118,39,59397,6,0,P|163:42|215:35,1,80,2|0,0:0|0:0,0:0:0:0:
282,12,60083,2,0,P|321:8|361:11,1,80,2|0,0:0|0:0,0:0:0:0:
397,37,60597,1,0,0:0:0:0:
420,73,60768,2,0,L|416:155,1,80,2|0,0:0|0:0,0:0:0:0:
374,230,61454,2,0,L|377:309,1,80,2|0,0:0|0:0,0:0:0:0:
341,335,61968,1,0,0:0:0:0:
298,322,62140,6,0,P|254:316|203:324,1,80,2|0,0:0|0:0,0:0:0:0:
142,364,62826,2,0,P|132:322|144:271,1,80,2|0,0:0|0:0,0:0:0:0:
152,244,63340,1,0,0:0:0:0:
175,206,63511,2,0,P|184:167|179:128,1,80,2|0,0:0|0:0,0:0:0:0:
132,53,64197,2,0,B|172:32|216:46,1,80,2|0,0:0|0:0,0:0:0:0:
248,64,64711,1,0,0:0:0:0:
256,192,64883,12,2,66940,0:0:0:0:
208,256,67626,6,0,P|164:256|128:262,2,80,6|8|0,0:0|0:0|0:0,0:0:0:0:
296,276,68654,1,8,0:0:0:0:
356,208,68997,2,0,L|348:124,1,80,2|8,0:0|0:0,0:0:0:0:
280,72,69683,2,0,P|240:68|200:68,1,80,0|8,0:0|0:0,0:0:0:0:
156,80,70197,1,0,0:0:0:0:
116,100,70368,6,0,P|76:100|36:96,1,80,2|8,0:0|0:0,0:0:0:0:
12,180,71054,1,0,0:0:0:0:
72,244,71397,1,8,0:0:0:0:
148,288,71740,2,0,P|188:288|236:280,1,80,2|8,0:0|0:0,0:0:0:0:
304,328,72426,1,0,0:0:0:0:
368,272,72768,2,0,P|392:264|424:260,1,40,8|0,0:0|0:0,0:0:0:0:
444,240,73111,6,0,P|448:200|436:160,2,80,2|8|0,0:0|0:0|0:0,0:0:0:0:
456,328,74140,1,8,0:0:0:0:
372,296,74483,2,0,P|328:292|284:300,1,80,2|8,0:0|0:0,0:0:0:0:
256,320,74997,1,0,0:0:0:0:
216,340,75168,2,0,P|176:344|136:338,1,80,0|8,0:0|0:0,0:0:0:0:
64,288,75854,6,0,L|24:282,2,40,2|2|8,0:0|0:0|0:0,0:0:0:0:
52,200,76540,1,0,0:0:0:0:
84,172,76711,2,0,P|128:168|172:176,1,80,8|8,0:0|0:0,0:0:0:0:
204,192,77226,2,0,P|243:196|283:190,1,80,2|8,0:0|0:0,0:0:0:0:
356,140,77911,1,0,0:0:0:0:
440,160,78254,2,0,P|437:183|432:212,1,40,8|8,0:0|0:0,0:0:0:0:
412,236,78597,6,0,P|408:275|412:315,2,80,6|8|0,0:0|0:0|0:0,0:0:0:0:
460,164,79626,1,8,0:0:0:0:
380,124,79968,2,0,P|340:117|300:121,1,80,2|8,0:0|0:0,0:0:0:0:
260,140,80483,1,0,0:0:0:0:
224,164,80654,2,0,P|184:170|144:166,1,80,0|8,0:0|0:0,0:0:0:0:
68,124,81340,6,0,P|56:160|64:204,1,80,2|8,0:0|0:0,0:0:0:0:
104,280,82026,1,0,0:0:0:0:
188,324,82368,1,8,0:0:0:0:
272,300,82711,2,0,P|316:292|368:296,1,80,2|8,0:0|0:0,0:0:0:0:
436,316,83397,1,0,0:0:0:0:
476,240,83740,2,0,P|477:220|472:192,1,40,8|0,0:0|0:0,0:0:0:0:
448,164,84083,6,0,L|360:156,2,80,2|8|0,0:0|0:0|0:0,0:0:0:0:
480,244,85111,1,8,0:0:0:0:
432,320,85454,2,0,P|392:324|340:320,1,80,2|8,0:0|0:0,0:0:0:0:
312,304,85968,1,0,0:0:0:0:
272,284,86140,2,0,P|232:281|192:285,1,80,0|8,0:0|0:0,0:0:0:0:
124,232,86826,6,0,P|120:188|128:140,1,80,2|8,0:0|0:0,0:0:0:0:
160,72,87511,1,0,0:0:0:0:
244,40,87854,1,8,0:0:0:0:
312,96,88197,2,0,P|324:132|328:184,1,80,2|8,0:0|0:0,0:0:0:0:
312,260,88883,1,0,0:0:0:0:
252,324,89226,2,0,P|229:325|198:320,1,40,8|0,0:0|0:0,0:0:0:0:
174,300,89568,6,0,P|130:300|78:308,2,80,2|8|0,0:0|0:0|0:0,0:0:0:0:
258,325,90597,1,8,0:0:0:0:
342,350,90940,2,0,P|386:350|422:342,1,80,2|8,0:0|0:0,0:0:0:0:
485,281,91626,1,0,0:0:0:0:
456,197,91968,1,8,0:0:0:0:
455,108,92311,6,0,P|457:62|468:15,2,80,2|8|0,0:0|0:0|0:0,0:0:0:0:
456,197,93340,1,8,0:0:0:0:
377,237,93683,2,0,P|333:241|289:233,1,80,2|8,0:0|0:0,0:0:0:0:
212,215,94368,1,0,0:0:0:0:
134,256,94711,1,8,0:0:0:0:
68,200,95054,6,0,P|64:160|64:108,2,80,2|8|0,0:0|0:0|0:0,0:0:0:0:
134,256,96083,1,8,0:0:0:0:
212,215,96426,2,0,P|252:207|296:211,1,80,2|8,0:0|0:0,0:0:0:0:
380,228,97111,1,0,0:0:0:0:
432,300,97454,1,8,0:0:0:0:
363,355,97797,6,0,L|310:362,2,40,2|2|8,0:0|0:0|0:0,0:0:0:0:
432,300,98483,1,0,0:0:0:0:
416,260,98654,2,0,P|380:248|336:248,1,80,8|0,0:0|0:0,0:0:0:0:
296,264,99168,2,0,P|256:263|218:251,1,80,2|8,0:0|0:0,0:0:0:0:
148,196,99854,1,0,0:0:0:0:
124,112,100197,2,0,P|128:90|136:66,1,40,8|8,0:0|0:0,0:0:0:0:
168,44,100540,6,0,P|212:48|260:40,2,80,2|8|0,0:0|0:0|0:0,0:0:0:0:
82,17,101568,1,8,0:0:0:0:
101,102,101911,2,0,P|105:146|97:198,1,80,2|8,0:0|0:0,0:0:0:0:
72,268,102597,1,0,0:0:0:0:
120,340,102940,1,8,0:0:0:0:
208,324,103283,6,0,P|248:320|304:324,2,80,2|8|0,0:0|0:0|0:0,0:0:0:0:
120,340,104311,1,8,0:0:0:0:
72,268,104654,2,0,P|76:228|76:188,1,80,2|8,0:0|0:0,0:0:0:0:
108,104,105340,1,0,0:0:0:0:
192,84,105683,1,8,0:0:0:0:
272,116,106026,6,0,P|284:156|284:212,2,80,2|8|0,0:0|0:0|0:0,0:0:0:0:
296,32,107054,1,8,0:0:0:0:
376,68,107397,2,0,P|420:68|468:60,1,80,2|8,0:0|0:0,0:0:0:0:
484,148,108083,1,0,0:0:0:0:
456,232,108426,1,0,0:0:0:0:
461,319,108768,5,0,0:0:0:0:
256,192,108854,12,0,111511,0:0:0:0:
