osu file format v14

[General]
AudioFilename: audio.mp3
AudioLeadIn: 0
PreviewTime: 22932
Countdown: 0
SampleSet: Soft
StackLeniency: 0.5
Mode: 0
LetterboxInBreaks: 0
WidescreenStoryboard: 0

[Editor]
Bookmarks: 77875
DistanceSpacing: 1.5
BeatDivisor: 4
GridSize: 4
TimelineZoom: 1

[Metadata]
Title:Flight
TitleUnicode:Flight
Artist:Tristam & Braken
ArtistUnicode:Tristam & Braken
Creator:Fanteer
Version:Advanced
Source:
Tags:edm mcat monstercat drumstep
BeatmapID:1215574
BeatmapSetID:573850

[Difficulty]
HPDrainRate:4
CircleSize:2.5
OverallDifficulty:4
ApproachRate:7
SliderMultiplier:1.4
SliderTickRate:1

[Events]
//Background and Video events
0,0,"background1.jpg",0,0
//Break Periods
2,45160,49546
//Storyboard Layer 0 (Background)
//Storyboard Layer 1 (Fail)
//Storyboard Layer 2 (Pass)
//Storyboard Layer 3 (Foreground)
//Storyboard Sound Samples

[TimingPoints]
1075,342.857142857143,4,2,1,15,1,0
1075,-142.857142857143,4,2,1,15,0,0
6389,-125,4,2,1,30,0,0
12046,-111.111111111111,4,2,1,50,0,0
17360,-111.111111111111,4,2,1,70,0,0
23017,-100,4,1,1,90,0,0
44960,-100,4,1,1,70,0,0
54903,-100,4,1,1,90,0,0
55932,-100,4,1,1,95,0,1
77875,-100,4,1,1,90,0,0
88846,-100,4,1,1,95,0,1
105303,-100,4,1,1,95,0,1
109417,-100,4,2,1,95,0,0

[Colours]
Combo1 : 116,102,153
Combo2 : 19,197,10
Combo3 : 189,13,17
Combo4 : 232,168,0
Combo5 : 3,89,175
Combo6 : 64,128,128

[HitObjects]
181,350,1075,6,0,L|170:195,1,146.999995513916,2|0,0:0|0:0,0:0:0:0:
126,144,1760,2,0,P|171:166|264:144,1,146.999995513916,2|0,0:0|0:0,0:0:0:0:
312,92,2446,2,0,L|320:32,2,48.9999985046387,2|0|0,0:0|0:0|0:0,0:0:0:0:
348,156,2960,2,0,P|376:216|364:300,1,146.999995513916,2|0,0:0|0:0,0:0:0:0:
309,341,3646,1,0,0:0:0:0:
240,368,3817,6,0,L|88:356,1,146.999995513916,2|0,0:0|0:0,0:0:0:0:
40,308,4503,2,0,P|23:247|60:176,1,146.999995513916,2|0,0:0|0:0,0:0:0:0:
128,148,5189,2,0,L|177:145,1,48.9999985046387,2|0,0:0|0:0,0:0:0:0:
304,220,5703,2,0,L|354:218,1,48.9999985046387,2|0,0:0|0:0,0:0:0:0:
400,164,6046,2,0,L|448:168,1,48.9999985046387,2|2,0:0|0:0,0:0:0:0:
468,88,6389,6,0,L|240:72,1,224,2|0,0:0|0:0,0:0:0:0:
168,36,7246,2,0,P|101:86|98:187,1,168,2|0,0:0|0:0,0:0:0:0:
160,212,7932,2,0,L|223:208,2,56,2|0|2,0:0|0:0|0:0,0:0:0:0:
84,248,8446,1,2,0:0:0:0:
84,248,9132,1,2,0:0:0:0:
144,308,9303,6,0,L|314:313,1,168,2|0,0:0|0:0,0:0:0:0:
392,340,9989,1,2,0:0:0:0:
460,288,10160,2,0,P|460:232|440:176,1,112,2|0,0:0|0:0,0:0:0:0:
376,124,10675,2,0,L|319:126,1,56,2|0,0:0|0:0,0:0:0:0:
156,160,11189,2,0,L|154:217,1,56,2|0,0:0|0:0,0:0:0:0:
180,296,11532,2,0,L|176:352,2,56,2|2|2,0:0|0:0|0:0,0:0:0:0:
244,224,12046,6,0,P|303:182|411:217,1,188.999994232178,2|0,0:0|0:0,0:0:0:0:
432,304,12732,2,0,L|448:112,1,188.999994232178,2|0,0:0|0:0,0:0:0:0:
404,32,13417,2,0,L|339:24,2,62.9999980773926,2|0|2,0:0|0:0|0:0,0:0:0:0:
432,124,13932,2,0,L|244:101,1,188.999994232178,2|0,0:0|0:0,0:0:0:0:
164,57,14617,1,2,0:0:0:0:
84,108,14789,6,0,L|71:312,1,188.999994232178,2|0,0:0|0:0,0:0:0:0:
16,373,15475,2,0,P|62:318|178:340,1,188.999994232178,2|0,0:0|0:0,0:0:0:0:
257,365,16160,1,2,0:0:0:0:
299,280,16332,1,0,0:0:0:0:
164,146,16675,1,2,0:0:0:0:
349,110,17017,1,2,0:0:0:0:
292,186,17189,1,2,0:0:0:0:
299,280,17360,6,0,B|259:282|226:259|226:259|139:280|139:280|94:267|45:276,1,251.999992309571,2|0,0:0|0:0,0:0:0:0:
23,184,18217,2,0,P|20:90|118:57,1,188.999994232178,2|0,0:0|0:0,0:0:0:0:
184,84,18903,1,2,0:0:0:0:
272,52,19075,2,0,P|307:46|344:44,2,62.9999980773926,0|2|2,0:0|0:0|0:0,0:0:0:0:
272,52,20103,1,0,0:0:0:0:
356,100,20275,6,0,L|365:176,1,62.9999980773926,2|0,0:0|0:0,0:0:0:0:
424,236,20617,1,2,0:0:0:0:
360,304,20789,2,0,P|320:301|284:295,1,62.9999980773926,2|2,0:0|0:0,0:0:0:0:
212,336,21132,2,0,P|180:337|149:342,1,62.9999980773926,2|0,0:0|0:0,0:0:0:0:
60,312,21475,1,2,0:0:0:0:
51,127,21817,2,0,P|56:96|66:61,1,62.9999980773926,2|0,0:0|0:0,0:0:0:0:
146,17,22160,2,0,P|177:18|209:25,1,62.9999980773926,2|2,0:0|0:0,0:0:0:0:
269,97,22503,2,0,L|275:160,1,62.9999980773926,2|2,0:0|0:0,0:0:0:0:
200,342,23017,6,0,L|182:128,1,210,6|0,0:0|0:0,0:0:0:0:
123,45,23703,2,0,P|182:106|292:69,1,210,8|0,0:0|0:0,0:0:0:0:
381,19,24389,2,0,P|391:52|396:99,1,70,2|0,0:0|0:0,0:0:0:0:
331,170,24732,2,0,P|320:203|316:238,1,70,0|0,0:0|0:0,0:0:0:0:
344,339,25075,1,8,0:0:0:0:
344,339,25589,1,0,0:0:0:0:
243,367,25760,6,0,B|178:342|178:342|110:361|110:361|84:352|33:357,1,210,2|0,0:0|0:0,0:0:0:0:
7,256,26446,2,0,L|31:40,1,210,8|0,0:0|0:0,0:0:0:0:
134,32,27132,2,0,P|173:31|207:24,1,70,2|0,0:0|0:0,0:0:0:0:
319,199,27646,2,0,P|358:200|392:207,1,70,0|8,0:0|0:0,0:0:0:0:
451,289,27989,2,0,L|458:372,2,70,0|0|0,0:0|0:0|0:0,0:0:0:0:
388,205,28503,6,0,L|402:62,1,140,6|0,0:0|0:0,0:0:0:0:
208,152,29189,2,0,L|221:291,1,140,8|0,0:0|0:0,0:0:0:0:
48,172,29875,2,0,L|56:100,1,70,2|0,0:0|0:0,0:0:0:0:
140,40,30217,2,0,L|209:32,1,70,0|0,0:0|0:0,0:0:0:0:
308,68,30560,1,8,0:0:0:0:
308,68,31075,1,0,0:0:0:0:
376,148,31246,6,0,B|364:280|364:280|392:308|400:364,1,210,2|0,0:0|0:0,0:0:0:0:
292,348,31932,1,8,0:0:0:0:
216,276,32103,2,0,L|224:132,1,140,0|0,0:0|0:0,0:0:0:0:
204,32,32617,1,2,0:0:0:0:
304,64,32789,2,0,P|336:64|373:60,1,70,0|0,0:0|0:0,0:0:0:0:
472,100,33132,2,0,P|475:134|476:169,1,70,0|8,0:0|0:0,0:0:0:0:
424,260,33475,2,0,P|420:294|419:329,2,70,0|0|0,0:0|0:0|0:0,0:0:0:0:
476,169,33989,6,0,P|404:156|332:208,1,140,6|0,0:0|0:0,0:0:0:0:
208,344,34675,2,0,L|220:128,1,210,8|0,0:0|0:0,0:0:0:0:
168,44,35360,2,0,P|204:32|236:32,1,70,2|0,0:0|0:0,0:0:0:0:
324,88,35703,2,0,P|356:99|391:100,1,70,0|0,0:0|0:0,0:0:0:0:
484,48,36046,1,8,0:0:0:0:
484,48,36560,1,0,0:0:0:0:
391,100,36732,6,0,L|380:256,1,140,2|0,0:0|0:0,0:0:0:0:
208,356,37417,2,0,L|192:136,1,210,8|0,0:0|0:0,0:0:0:0:
104,92,38103,2,0,P|96:124|92:176,1,70,2|0,0:0|0:0,0:0:0:0:
294,206,38617,2,0,P|330:202|366:202,1,70,0|8,0:0|0:0,0:0:0:0:
452,264,38960,2,0,P|456:296|456:336,2,70,0|0|0,0:0|0:0|0:0,0:0:0:0:
488,164,39475,6,0,P|412:164|352:228,1,140,6|0,0:0|0:0,0:0:0:0:
220,356,40160,2,0,B|212:296|212:296|240:232|240:232|236:144,1,210,8|0,0:0|0:0,0:0:0:0:
316,84,40846,2,0,L|396:76,1,70,2|0,0:0|0:0,0:0:0:0:
440,168,41189,2,0,L|509:174,1,70,0|0,0:0|0:0,0:0:0:0:
484,276,41532,1,8,0:0:0:0:
484,276,42046,1,0,0:0:0:0:
396,332,42217,6,8,L|232:324,1,140,2|0,0:0|0:0,0:0:0:0:
60,252,42903,1,8,0:0:0:0:
16,156,43075,2,0,L|24:80,2,70,0|0|0,0:0|0:0|0:0,0:0:0:0:
60,252,43589,2,0,L|140:244,1,70,2|0,0:0|0:0,0:0:0:0:
220,296,43932,2,0,L|289:302,1,70,0|0,0:0|0:0,0:0:0:0:
380,356,44275,1,8,0:0:0:0:
464,296,44446,2,0,P|472:264|468:220,1,70,0|0,0:0|0:0,0:0:0:0:
344,56,44960,5,4,0:0:0:0:
256,192,50446,12,2,54560,0:0:0:0:
364,92,54903,5,0,0:0:0:0:
224,252,55246,1,8,0:0:0:0:
316,304,55417,2,0,L|388:300,2,70,0|0|0,0:0|0:0|0:0,0:0:0:0:
224,252,55932,6,0,P|152:284|80:188,1,210,6|0,0:0|0:0,0:0:0:0:
112,96,56617,2,0,P|111:58|108:24,2,70,8|0|0,0:0|0:0|0:0,0:0:0:0:
196,164,57132,1,0,0:0:0:0:
280,104,57303,2,0,B|316:104|352:120|352:120|400:100|400:100|440:116|488:116,1,210,6|0,0:0|0:0,0:0:0:0:
408,192,57989,1,8,0:0:0:0:
472,276,58160,1,0,0:0:0:0:
404,356,58332,2,0,L|320:348,1,70,0|0,0:0|0:0,0:0:0:0:
244,296,58675,6,0,B|184:292|184:292|116:320|116:320|36:304,1,210,6|0,0:0|0:0,0:0:0:0:
12,204,59360,2,0,L|16:124,1,70,8|0,0:0|0:0,0:0:0:0:
80,48,59703,2,0,L|149:44,1,70
242,94,60046,2,0,P|280:94|314:88,1,70,2|0,0:0|0:0,0:0:0:0:
387,284,60560,2,0,P|352:278|317:278,1,70,0|8,0:0|0:0,0:0:0:0:
230,338,60903,2,0,P|190:343|160:343,2,70
228,232,61417,6,0,P|224:136|116:84,1,210,6|0,0:0|0:0,0:0:0:0:
208,9,62103,2,0,L|292:5,1,70,8|0,0:0|0:0,0:0:0:0:
375,45,62446,2,0,L|444:48,1,70
505,134,62789,6,0,L|294:125,1,210,6|0,0:0|0:0,0:0:0:0:
190,135,63475,2,0,P|194:101|206:68,2,70,8|0|0,0:0|0:0|0:0,0:0:0:0:
246,223,63989,1,0,0:0:0:0:
199,317,64160,2,0,L|35:313,1,140,6|0,0:0|0:0,0:0:0:0:
246,223,64846,1,8,0:0:0:0:
332,282,65017,2,0,P|348:314|356:354,2,70
246,223,65532,6,0,P|253:188|269:157,1,70,2|0,0:0|0:0,0:0:0:0:
169,342,66046,2,0,P|134:334|100:330,1,70,0|8,0:0|0:0,0:0:0:0:
24,256,66389,2,0,P|27:221|35:187,2,70
127,235,66903,6,0,L|339:200,1,210,6|0,0:0|0:0,0:0:0:0:
427,151,67589,2,0,P|435:184|435:223,1,70,8|0,0:0|0:0,0:0:0:0:
386,313,67932,2,0,L|306:325,1,70
220,281,68275,2,0,P|172:197|224:89,1,210,6|0,0:0|0:0,0:0:0:0:
302,46,68960,2,0,P|338:46|378:50,1,70,8|0,0:0|0:0,0:0:0:0:
462,102,69303,1,0,0:0:0:0:
432,204,69475,1,0,0:0:0:0:
480,296,69646,6,0,P|408:304|328:200,1,210,6|0,0:0|0:0,0:0:0:0:
356,104,70332,2,0,P|320:104|280:112,1,70,8|0,0:0|0:0,0:0:0:0:
208,180,70675,2,0,P|173:180|138:173,1,70,0|0,0:0|0:0,0:0:0:0:
48,120,71017,2,0,P|43:84|44:40,1,70,2|0,0:0|0:0,0:0:0:0:
208,180,71532,2,0,P|207:214|203:249,1,70,0|8,0:0|0:0,0:0:0:0:
124,320,71875,2,0,P|89:324|54:324,2,70,0|0|0,0:0|0:0|0:0,0:0:0:0:
203,249,72389,6,0,P|276:224|380:300,1,210,6|0,0:0|0:0,0:0:0:0:
452,220,73075,2,0,P|456:187|456:148,2,70,8|0|0,0:0|0:0|0:0,0:0:0:0:
377,294,73589,1,0,0:0:0:0:
276,332,73760,2,0,L|44:312,1,210,6|0,0:0|0:0,0:0:0:0:
24,216,74446,2,0,P|24:184|28:140,1,70,8|0,0:0|0:0,0:0:0:0:
112,84,74789,2,0,P|146:87|181:87,1,70,0|0,0:0|0:0,0:0:0:0:
280,48,75132,6,0,P|352:48|424:60,1,140,6|0,0:0|0:0,0:0:0:0:
424,268,75817,1,8,0:0:0:0:
344,200,75989,1,0,0:0:0:0:
240,180,76160,2,0,P|200:180|156:188,1,70,0|0,0:0|0:0,0:0:0:0:
124,280,76503,1,2,0:0:0:0:
204,352,76675,2,0,P|240:353|284:348,1,70,0|0,0:0|0:0,0:0:0:0:
340,269,77017,2,0,L|344:193,1,70,0|8,0:0|0:0,0:0:0:0:
400,108,77360,2,0,L|396:38,2,70,0|0|0,0:0|0:0|0:0,0:0:0:0:
343,199,77875,6,0,P|291:151|208:152,1,140,6|0,0:0|0:0,0:0:0:0:
65,284,78560,2,0,P|189:296|261:228,1,210,8|0,0:0|0:0,0:0:0:0:
224,146,79246,2,0,P|221:111|226:65,1,70,2|0,0:0|0:0,0:0:0:0:
318,30,79589,2,0,P|353:27|399:32,1,70,0|0,0:0|0:0,0:0:0:0:
475,88,79932,1,8,0:0:0:0:
475,88,80446,1,0,0:0:0:0:
414,170,80617,6,0,L|418:335,1,140,2|0,0:0|0:0,0:0:0:0:
252,179,81303,2,0,B|205:180|173:157|173:157|120:170|120:170|90:157|41:156,1,210,8|0,0:0|0:0,0:0:0:0:
10,254,81989,2,0,P|6:289|13:345,1,70,2|0,0:0|0:0,0:0:0:0:
214,364,82503,2,0,L|288:357,1,70,0|8,0:0|0:0,0:0:0:0:
350,275,82846,2,0,L|419:281,2,70,0|0|0,0:0|0:0|0:0,0:0:0:0:
282,194,83360,6,0,P|193:223|98:156,1,210,6|0,0:0|0:0,0:0:0:0:
150,69,84046,2,0,L|368:48,1,210,8|0,0:0|0:0,0:0:0:0:
456,89,84732,1,2,0:0:0:0:
405,180,84903,1,0,0:0:0:0:
463,267,85075,2,0,P|477:299|484:341,1,70,0|0,0:0|0:0,0:0:0:0:
384,372,85417,1,8,0:0:0:0:
384,372,85932,1,0,0:0:0:0:
348,276,86103,6,0,P|285:196|185:205,1,210,2|0,0:0|0:0,0:0:0:0:
243,293,86789,1,8,0:0:0:0:
308,376,86960,2,0,P|396:372|445:321,1,140
474,243,87475,2,0,P|472:207|464:160,1,70,2|0,0:0|0:0,0:0:0:0:
260,140,87989,2,0,L|187:143,1,70,0|8,0:0|0:0,0:0:0:0:
97,91,88332,2,0,P|56:85|12:85,2,70
197,55,88846,6,0,L|410:44,1,210,6|0,0:0|0:0,0:0:0:0:
494,102,89532,2,0,P|457:214|371:207,1,210,8|0,0:0|0:0,0:0:0:0:
301,144,90217,2,0,P|285:182|275:231,1,70,2|0,0:0|0:0,0:0:0:0:
191,270,90560,2,0,P|156:263|120:263,1,70,0|0,0:0|0:0,0:0:0:0:
44,334,90903,1,8,0:0:0:0:
44,334,91417,1,0,0:0:0:0:
121,262,91589,6,0,L|108:112,1,140,2|0,0:0|0:0,0:0:0:0:
301,36,92275,2,0,L|288:175,1,140,8|0,0:0|0:0,0:0:0:0:
427,333,92960,2,0,L|418:262,1,70,2|0,0:0|0:0,0:0:0:0:
209,236,93475,2,0,L|139:244,1,70,0|8,0:0|0:0,0:0:0:0:
86,154,93817,2,0,L|16:145,2,70,0|0|0,0:0|0:0|0:0,0:0:0:0:
132,58,94332,6,0,P|208:126|313:105,1,210,6|0,0:0|0:0,0:0:0:0:
397,162,95017,2,0,P|400:197|402:239,1,70,8|0,0:0|0:0,0:0:0:0:
304,273,95360,2,0,P|301:307|299:342,1,70,0|0,0:0|0:0,0:0:0:0:
194,355,95703,2,0,L|121:347,2,70,2|0|0,0:0|0:0|0:0,0:0:0:0:
299,342,96217,1,0,0:0:0:0:
400,368,96389,1,8,0:0:0:0:
400,368,96903,1,0,0:0:0:0:
480,299,97075,6,0,L|485:227,1,70,2|0,0:0|0:0,0:0:0:0:
460,127,97417,1,0,0:0:0:0:
359,93,97589,2,0,L|289:97,1,70,0|8,0:0|0:0,0:0:0:0:
193,142,97932,2,0,L|123:137,2,70,0|0|0,0:0|0:0|0:0,0:0:0:0:
289,97,98446,1,2,0:0:0:0:
361,172,98617,6,0,L|374:322,1,140,0|0,0:0|0:0,0:0:0:0:
279,361,99132,2,0,P|243:357|210:345,2,70,8|0|0,0:0|0:0|0:0,0:0:0:0:
450,240,99817,6,0,L|462:100,1,140,2|8,0:0|0:0,0:0:0:0:
387,24,100332,2,0,P|338:58|255:52,1,140,2|8,0:0|0:0,0:0:0:0:
163,12,100846,2,0,P|156:66|217:148,1,140,2|0,0:0|0:0,0:0:0:0:
246,342,101532,6,0,L|243:263,1,70,2|8,0:0|0:0,0:0:0:0:
313,193,101875,2,0,L|315:123,2,70,2|2|8,0:0|0:0|0:0,0:0:0:0:
342,294,102389,1,2,0:0:0:0:
246,342,102560,6,0,P|178:332|96:354,1,140,2|8,0:0|0:0,0:0:0:0:
17,294,103075,2,0,P|10:217|37:156,1,140,2|8,0:0|0:0,0:0:0:0:
127,112,103589,2,0,P|180:136|271:129,1,140,2|0,0:0|0:0,0:0:0:0:
260,132,105303,6,0,L|275:277,1,140,2|8,0:0|0:0,0:0:0:0:
358,208,105817,2,0,L|372:68,1,140,2|8,0:0|0:0,0:0:0:0:
276,24,106332,2,0,P|211:53|125:37,1,140,2|0,0:0|0:0,0:0:0:0:
72,243,107017,2,0,L|77:312,1,70,2|8,0:0|0:0,0:0:0:0:
182,312,107360,2,0,L|176:381,2,70,2|2|8,0:0|0:0|0:0,0:0:0:0:
256,236,107875,1,2,0:0:0:0:
209,142,108046,6,0,P|138:120|64:136,1,140,2|8,0:0|0:0,0:0:0:0:
30,226,108560,2,0,P|18:294|77:358,1,140,2|8,0:0|0:0,0:0:0:0:
162,361,109075,2,0,L|311:354,1,140,2|0,0:0|0:0,0:0:0:0:
256,192,110789,5,6,1:1:0:0:
