osu file format v14

[General]
AudioFilename: NKR012- 05. Tripped - Pure Hate (300BPM) short.mp3
AudioLeadIn: 0
PreviewTime: 134091
Countdown: 1
SampleSet: Normal
StackLeniency: 0.7
Mode: 0
LetterboxInBreaks: 0
WidescreenStoryboard: 0

[Editor]
DistanceSpacing: 0.5
BeatDivisor: 4
GridSize: 8
TimelineZoom: 1.7

[Metadata]
Title:Pure Hate
TitleUnicode:Pure Hate
Artist:Tripped
ArtistUnicode:Tripped
Creator:quadz
Version:Despise 4z
Source:
Tags:
BeatmapID:825657
BeatmapSetID:377219

[Difficulty]
HPDrainRate:5
CircleSize:4
OverallDifficulty:9
ApproachRate:10
SliderMultiplier:1.5
SliderTickRate:1

[Events]
//Background and Video events
0,0,"1353442.jpg",0,0
//Break Periods
//Storyboard Layer 0 (Background)
//Storyboard Layer 1 (Fail)
//Storyboard Layer 2 (Pass)
//Storyboard Layer 3 (Foreground)
//Storyboard Sound Samples

[TimingPoints]
19299,200,4,1,0,100,1,0
43241,-200,4,1,0,100,0,0
44891,-100,4,1,0,100,0,0
70491,-66.6666666666667,4,1,0,100,0,0
76491,-100,4,1,0,100,0,0
83291,-66.6666666666667,4,1,0,100,0,0
93691,-76.9230769230769,4,1,0,100,0,0
93891,-86.9565217391304,4,1,0,100,0,0
94291,-100,4,1,0,100,0,0
108691,-66.6666666666667,4,1,0,100,0,0
114591,-100,4,1,0,100,0,0
115291,-66.6666666666667,4,1,0,100,0,0
117091,-100,4,1,0,100,0,0
118491,-66.6666666666667,4,1,0,100,0,0
120191,-133.333333333333,4,1,0,100,0,0
120791,-100,4,1,0,100,0,0
121691,-66.6666666666667,4,1,0,100,0,0
127291,-100,4,1,0,100,0,0
127691,-200,4,1,0,100,0,0
128091,-50,4,1,0,100,0,0
130491,-100,4,1,0,100,0,0
131291,-50,4,1,0,100,0,0
134491,-100,4,1,0,100,0,1
140091,-100,4,1,0,100,0,0
153693,-66.6666666666667,4,1,0,100,0,0
159299,-100,4,1,0,100,0,0
160499,-66.6666666666667,4,1,0,100,0,0
163299,-50,4,1,0,100,0,0
165999,-100,4,1,0,100,0,0
179299,-66.6666666666667,4,1,0,100,0,1
184899,-100,4,1,0,100,0,1
185699,-66.6666666666667,4,1,0,100,0,1
192141,-100,4,1,0,5,0,0

[HitObjects]
160,288,19299,6,0,B|104:280|88:192|88:192|120:200|184:208|208:80,1,300
204,98,20099,2,0,B|140:106|84:74|84:74|164:138|92:154|92:250,1,300
208,104,20899,2,0,B|280:136|280:136|224:208|312:280|312:280|376:224,1,300
336,88,21699,2,0,B|216:128|256:176|256:176|336:144|376:208|352:272,1,300
288,336,22299,1,0,0:0:0:0:
216,304,22399,6,0,L|176:352,2,37.5
112,192,22899,1,0,0:0:0:0:
312,112,23299,2,0,B|376:184|376:184|320:208|320:208|416:320,1,300
208,256,24099,1,0,0:0:0:0:
112,328,24499,1,0,0:0:0:0:
344,208,24899,2,0,B|416:168|416:88|344:48|288:72|288:72|240:80|192:64,1,300
184,88,25499,1,0,0:0:0:0:
176,104,25549,1,0,0:0:0:0:
168,120,25599,1,0,0:0:0:0:
160,136,25649,1,0,0:0:0:0:
152,152,25699,5,0,0:0:0:0:
88,80,26099,1,0,0:0:0:0:
320,288,26499,1,0,0:0:0:0:
448,240,26899,2,0,P|472:192|392:160,2,150
368,272,27699,1,0,0:0:0:0:
368,312,28099,1,0,0:0:0:0:
296,344,28299,1,0,0:0:0:0:
216,320,28499,1,0,0:0:0:0:
136,344,28699,1,0,0:0:0:0:
104,336,28799,2,0,L|64:304,1,37.5
256,192,28899,12,0,31899,0:0:0:0:
152,136,32099,5,0,0:0:0:0:
112,240,32199,1,0,0:0:0:0:
392,72,32299,2,0,P|416:112|424:152,1,75
208,56,32499,1,0,0:0:0:0:
240,152,32599,1,0,0:0:0:0:
48,208,32699,2,0,P|32:264|32:280,1,75
176,240,32899,5,0,0:0:0:0:
336,280,32999,1,0,0:0:0:0:
336,280,33049,1,0,0:0:0:0:
336,280,33099,2,0,P|384:288|416:280,1,75
496,48,33299,2,0,L|496:144,1,75
344,192,33499,1,0,0:0:0:0:
248,176,33599,1,0,0:0:0:0:
216,176,33649,1,0,0:0:0:0:
176,176,33699,6,0,L|104:152,1,75
200,40,33899,1,0,0:0:0:0:
272,144,33999,1,0,0:0:0:0:
392,112,34099,1,0,0:0:0:0:
384,240,34199,1,0,0:0:0:0:
80,264,34299,2,0,L|96:328,2,37.5
80,144,34499,5,0,0:0:0:0:
184,224,34599,2,0,L|160:256,2,37.5
80,336,34799,1,0,0:0:0:0:
216,344,34899,2,0,L|256:272,1,75
352,136,35099,2,0,L|432:168,1,75
448,336,35249,2,0,L|424:296,1,37.5
344,248,35399,5,0,0:0:0:0:
240,208,35499,1,0,0:0:0:0:
240,80,35599,1,0,0:0:0:0:
120,72,35699,2,0,L|32:120,1,75
152,232,35899,2,0,L|160:336,1,75
328,336,36099,1,0,0:0:0:0:
320,216,36199,1,0,0:0:0:0:
296,176,36249,1,0,0:0:0:0:
264,160,36299,2,0,P|208:160|168:152,1,75
408,24,36499,2,0,L|408:112,1,75
376,328,36699,1,0,0:0:0:0:
192,320,36799,1,0,0:0:0:0:
152,320,36849,1,0,0:0:0:0:
112,320,36899,5,0,0:0:0:0:
200,136,36999,1,0,0:0:0:0:
280,80,37099,1,0,0:0:0:0:
288,176,37199,1,0,0:0:0:0:
368,160,37299,2,0,L|400:240,1,75
384,328,37499,2,0,L|336:352,2,37.5
160,280,37649,6,0,L|96:264,15,37.5
336,64,38449,1,0,0:0:0:0:
344,64,38499,6,0,B|384:88|384:88|392:128,1,75
192,136,38699,2,0,L|96:136,1,75
448,216,38899,1,0,0:0:0:0:
256,328,38999,1,0,0:0:0:0:
304,208,39099,1,0,0:0:0:0:
304,208,39149,1,0,0:0:0:0:
304,208,39199,1,0,0:0:0:0:
376,288,39299,5,0,0:0:0:0:
320,120,39399,1,0,0:0:0:0:
280,128,39449,1,0,0:0:0:0:
240,136,39499,2,0,B|224:184|224:184|240:216,1,75
176,24,39699,2,0,P|120:40|104:64,1,75
112,192,39899,1,0,0:0:0:0:
192,216,39999,1,0,0:0:0:0:
184,256,40049,1,0,0:0:0:0:
176,288,40099,5,0,0:0:0:0:
96,272,40199,1,0,0:0:0:0:
280,264,40299,2,0,B|320:288|320:288|352:304,2,75
240,160,40599,1,0,0:0:0:0:
200,240,40699,2,0,L|152:256,2,37.5
320,200,40899,5,0,0:0:0:0:
360,104,40999,1,0,0:0:0:0:
344,80,41049,1,0,0:0:0:0:
320,64,41099,1,0,0:0:0:0:
320,168,41199,1,0,0:0:0:0:
320,200,41249,1,0,0:0:0:0:
336,224,41299,1,0,0:0:0:0:
400,168,41399,1,0,0:0:0:0:
432,160,41449,1,0,0:0:0:0:
464,160,41499,1,0,0:0:0:0:
192,320,41699,6,0,L|112:304,1,75
296,192,41899,2,0,L|304:280,1,75
152,192,42099,2,0,B|160:152|160:152|200:128,1,75
352,152,42299,1,0,0:0:0:0:
304,48,42399,1,0,0:0:0:0:
320,224,42499,1,0,0:0:0:0:
440,128,42599,1,0,0:0:0:0:
440,128,42649,1,0,0:0:0:0:
440,128,42699,2,0,L|440:216,1,75
184,136,42899,2,0,L|264:136,1,75
160,264,43099,2,0,L|72:264,1,75
40,200,43249,6,0,B|88:192|104:264|104:264|144:208|184:240|224:192|152:176|152:176|208:136|248:192|248:192|216:264|224:296|288:320|280:240|336:280,1,562.5
128,88,44899,6,0,L|216:96,1,75,0|2,0:0|0:0,0:0:0:0:
368,80,45099,2,0,L|288:112,1,75,0|2,0:0|0:0,0:0:0:0:
48,120,45299,2,0,L|120:160,1,75,0|2,0:0|0:0,0:0:0:0:
448,168,45499,2,0,L|368:200,1,75,0|2,0:0|0:0,0:0:0:0:
168,232,45699,6,0,L|208:296,1,75,0|2,0:0|0:0,0:0:0:0:
424,208,45899,2,0,L|384:136,1,75,0|2,0:0|0:0,0:0:0:0:
184,64,46099,2,0,L|112:128,1,75,0|2,0:0|0:0,0:0:0:0:
272,176,46299,1,0,0:0:0:0:
336,288,46399,6,0,L|280:296,2,37.5
400,72,46699,2,0,L|400:176,1,75,0|2,0:0|0:0,0:0:0:0:
176,240,46899,2,0,L|88:240,1,75,0|2,0:0|0:0,0:0:0:0:
264,56,47099,2,0,L|360:8,1,75,0|2,0:0|0:0,0:0:0:0:
432,272,47299,5,0,0:0:0:0:
328,176,47399,1,0,0:0:0:0:
392,320,47499,1,0,0:0:0:0:
160,288,47599,1,0,0:0:0:0:
184,176,47699,1,0,0:0:0:0:
256,80,47799,1,0,0:0:0:0:
96,128,47899,1,0,0:0:0:0:
96,128,47949,1,0,0:0:0:0:
96,128,47999,6,0,P|144:128|184:120,1,75
496,128,48299,2,0,L|488:208,1,75,0|2,0:0|0:0,0:0:0:0:
208,296,48499,2,0,L|288:296,1,75,0|2,0:0|0:0,0:0:0:0:
96,248,48699,1,0,0:0:0:0:
384,216,48799,1,0,0:0:0:0:
352,216,48849,1,0,0:0:0:0:
320,216,48899,6,0,L|216:216,1,75,0|2,0:0|0:0,0:0:0:0:
128,168,49099,2,0,P|144:128|184:96,1,75,0|2,0:0|0:0,0:0:0:0:
384,272,49299,2,0,P|368:320|336:344,1,75,0|2,0:0|0:0,0:0:0:0:
280,216,49499,2,0,B|336:216|336:216|360:256,1,75,0|2,0:0|0:0,0:0:0:0:
208,312,49699,6,0,L|128:312,1,75,0|2,0:0|0:0,0:0:0:0:
480,112,49899,2,0,L|392:112,1,75,0|2,0:0|0:0,0:0:0:0:
24,160,50099,2,0,L|112:152,1,75,0|2,0:0|0:0,0:0:0:0:
472,184,50299,2,2,L|392:184,1,75
240,176,50449,6,0,L|216:208,1,37.5
136,224,50599,1,0,0:0:0:0:
136,224,50649,1,0,0:0:0:0:
136,224,50699,1,0,0:0:0:0:
184,272,50799,1,0,0:0:0:0:
184,272,50849,1,0,0:0:0:0:
184,272,50899,1,0,0:0:0:0:
136,320,50999,1,0,0:0:0:0:
136,320,51049,1,0,0:0:0:0:
136,320,51099,1,0,0:0:0:0:
240,352,51199,1,0,0:0:0:0:
288,352,51249,1,0,0:0:0:0:
328,336,51299,6,0,P|376:312|400:288,1,75,0|2,0:0|0:0,0:0:0:0:
256,248,51499,2,0,L|176:232,1,75,0|2,0:0|0:0,0:0:0:0:
232,112,51699,2,0,L|312:96,1,75,0|2,0:0|0:0,0:0:0:0:
120,200,51899,2,0,L|120:120,1,75,0|2,0:0|0:0,0:0:0:0:
336,64,52099,6,0,B|368:88|368:88|368:128,1,75,0|2,0:0|0:0,0:0:0:0:
176,256,52299,2,0,L|72:256,1,75,0|2,0:0|0:0,0:0:0:0:
312,104,52499,2,0,B|336:144|336:144|328:184,1,75,0|2,0:0|0:0,0:0:0:0:
216,240,52699,1,0,0:0:0:0:
288,272,52799,1,0,0:0:0:0:
288,272,52849,1,0,0:0:0:0:
288,272,52899,6,0,B|336:248|336:248|352:264,1,75,0|2,0:0|0:0,0:0:0:0:
512,176,53099,2,0,L|512:272,1,75
256,184,53299,2,0,B|272:136|272:136|312:128,1,75,0|2,0:0|0:0,0:0:0:0:
352,296,53499,2,0,L|280:328,1,75,0|2,0:0|0:0,0:0:0:0:
80,264,53699,5,0,0:0:0:0:
208,328,53799,1,0,0:0:0:0:
80,264,53899,1,0,0:0:0:0:
208,328,53999,1,0,0:0:0:0:
160,80,54099,2,0,L|64:80,1,75,0|2,0:0|0:0,0:0:0:0:
208,168,54299,1,0,0:0:0:0:
248,160,54349,1,0,0:0:0:0:
288,152,54399,6,0,P|336:144|368:128,1,75
136,280,54699,2,0,L|56:248,1,75,0|2,0:0|0:0,0:0:0:0:
280,200,54899,2,0,L|352:248,1,75,0|2,0:0|0:0,0:0:0:0:
104,192,55099,2,0,L|32:112,1,75,0|2,0:0|0:0,0:0:0:0:
456,208,55299,6,0,L|424:288,1,75,0|2,0:0|0:0,0:0:0:0:
136,128,55499,2,0,B|152:80|152:80|192:72,1,75,0|2,0:0|0:0,0:0:0:0:
264,224,55699,2,0,L|192:272,1,75,0|2,0:0|0:0,0:0:0:0:
216,128,55899,1,0,0:0:0:0:
336,136,55999,1,0,0:0:0:0:
384,176,56049,1,0,0:0:0:0:
416,232,56099,6,0,P|456:208|472:168,1,75,0|2,0:0|0:0,0:0:0:0:
320,72,56299,2,0,P|272:96|232:96,1,75,0|2,0:0|0:0,0:0:0:0:
96,88,56499,2,0,P|96:128|120:160,1,75,0|2,0:0|0:0,0:0:0:0:
288,208,56699,2,0,P|320:240|320:272,1,75,0|2,0:0|0:0,0:0:0:0:
224,320,56899,1,0,0:0:0:0:
152,296,56999,1,0,0:0:0:0:
112,232,57099,1,0,0:0:0:0:
136,160,57199,1,0,0:0:0:0:
192,112,57299,1,0,0:0:0:0:
432,136,57699,5,0,0:0:0:0:
432,256,57899,1,0,0:0:0:0:
360,336,58099,1,0,0:0:0:0:
208,256,58199,1,0,0:0:0:0:
208,352,58299,1,0,0:0:0:0:
336,72,58499,1,0,0:0:0:0:
208,80,58699,1,0,0:0:0:0:
304,192,58899,1,0,0:0:0:0:
272,40,58999,1,0,0:0:0:0:
160,200,59099,1,0,0:0:0:0:
376,176,59299,6,0,L|472:176,1,75
256,296,59499,2,0,L|168:280,1,75
272,72,59699,1,0,0:0:0:0:
96,112,59799,1,0,0:0:0:0:
272,72,59899,1,0,0:0:0:0:
288,280,60099,5,0,0:0:0:0:
416,296,60199,1,0,0:0:0:0:
288,280,60299,1,0,0:0:0:0:
416,296,60399,1,0,0:0:0:0:
288,280,60499,1,0,0:0:0:0:
144,304,60599,1,0,0:0:0:0:
288,280,60699,1,0,0:0:0:0:
144,304,60799,1,0,0:0:0:0:
288,280,60899,1,0,0:0:0:0:
472,40,61099,1,0,0:0:0:0:
120,240,61299,2,0,L|32:200,1,75
400,320,61499,1,0,0:0:0:0:
344,192,61699,6,0,L|408:128,1,75
440,232,61899,2,0,L|512:176,1,75
216,168,62099,2,0,L|208:88,1,75
192,320,62299,1,0,0:0:0:0:
256,88,62499,6,0,L|344:96,1,75
312,208,62699,2,0,L|368:136,1,75
136,224,62899,2,0,L|216:176,1,75
480,48,63099,1,0,0:0:0:0:
144,256,63299,5,0,0:0:0:0:
232,256,63399,1,0,0:0:0:0:
96,320,63499,1,0,0:0:0:0:
280,320,63599,1,0,0:0:0:0:
144,168,63699,2,0,L|72:120,1,75
304,72,63899,1,0,0:0:0:0:
336,112,63949,1,0,0:0:0:0:
352,152,63999,1,0,0:0:0:0:
360,200,64049,1,0,0:0:0:0:
352,248,64099,5,0,0:0:0:0:
80,192,64299,2,0,P|112:160|160:160,1,75
408,208,64499,1,0,0:0:0:0:
288,224,64599,1,0,0:0:0:0:
464,208,64699,1,0,0:0:0:0:
224,96,64899,2,0,L|120:88,1,75
296,288,65099,2,0,L|400:304,1,75
304,152,65299,1,0,0:0:0:0:
184,216,65399,1,0,0:0:0:0:
328,96,65499,1,0,0:0:0:0:
64,248,65699,6,0,B|72:288|72:288|112:320,1,75
320,248,65899,6,0,B|312:208|312:208|272:176,1,75
160,144,66099,1,0,0:0:0:0:
208,272,66199,1,0,0:0:0:0:
192,88,66299,1,0,0:0:0:0:
312,336,66499,5,0,0:0:0:0:
392,352,66599,1,0,0:0:0:0:
408,240,66699,1,0,0:0:0:0:
448,312,66799,1,0,0:0:0:0:
448,112,66899,1,0,0:0:0:0:
288,96,66999,1,0,0:0:0:0:
168,192,67099,1,0,0:0:0:0:
320,224,67199,1,0,0:0:0:0:
256,336,67299,1,0,0:0:0:0:
56,160,67499,6,0,L|48:72,1,75
120,256,67699,2,0,L|104:160,1,75
216,304,67899,1,0,0:0:0:0:
224,144,68099,6,0,B|240:96|240:96|280:80,1,75
336,176,68299,2,0,P|304:208|264:240,1,75
48,160,68499,2,0,L|80:80,1,75
336,320,68699,1,0,0:0:0:0:
304,32,68899,6,0,L|384:32,1,75
312,336,69099,2,0,L|208:344,1,75
360,112,69299,2,0,L|456:112,1,75
160,304,69499,1,0,0:0:0:0:
160,200,69699,5,0,0:0:0:0:
200,128,69899,1,0,0:0:0:0:
264,80,70099,1,0,0:0:0:0:
344,80,70299,1,0,0:0:0:0:
432,104,70499,6,0,B|464:160|456:224|400:200|400:200|432:304,1,225.000008583069
288,88,70899,2,0,L|96:240,1,225.000008583069
144,48,71299,2,0,B|168:128|232:104|312:144|312:144|312:176,1,225.000008583069
120,248,71699,1,0,0:0:0:0:
336,240,71899,1,0,0:0:0:0:
352,264,71949,1,0,0:0:0:0:
368,288,71999,1,0,0:0:0:0:
384,304,72049,1,0,0:0:0:0:
408,320,72099,5,0,0:0:0:0:
464,48,72499,2,0,L|336:256,1,225.000008583069
176,136,72899,1,0,0:0:0:0:
272,232,73099,1,0,0:0:0:0:
192,304,73299,1,0,0:0:0:0:
56,208,73499,1,0,0:0:0:0:
56,184,73549,1,0,0:0:0:0:
72,144,73599,1,0,0:0:0:0:
80,120,73649,1,0,0:0:0:0:
80,88,73699,1,0,0:0:0:0:
416,88,74099,6,0,P|264:104|168:72,2,225.000008583069
112,232,74599,2,0,L|88:296,2,56.2500021457673
192,288,74799,2,0,L|208:344,2,56.2500021457673
336,320,75099,1,0,0:0:0:0:
464,152,75299,2,0,P|400:184|240:184,1,225.000008583069
152,40,75699,2,0,P|192:104|152:248,1,225.000008583069
128,152,75949,2,0,L|168:96,3,56.2500021457673
288,136,76199,2,0,B|400:136|400:136|272:136,1,225.000008583069
328,176,76499,6,0,B|296:256|296:256|312:216|312:216|288:272|288:272|304:232|304:232|272:312,1,300
456,240,77099,1,0,0:0:0:0:
248,176,77299,1,0,0:0:0:0:
160,168,77399,1,0,0:0:0:0:
112,96,77499,1,0,0:0:0:0:
352,104,77699,5,0,0:0:0:0:
240,248,77899,1,0,0:0:0:0:
128,248,78099,1,0,0:0:0:0:
136,256,78149,1,0,0:0:0:0:
144,264,78199,1,0,0:0:0:0:
152,272,78249,1,0,0:0:0:0:
160,280,78299,1,0,0:0:0:0:
264,112,78499,5,0,0:0:0:0:
344,160,78699,1,0,0:0:0:0:
168,128,78899,1,0,0:0:0:0:
224,192,78999,1,0,0:0:0:0:
216,272,79099,1,0,0:0:0:0:
104,232,79299,1,0,0:0:0:0:
48,304,79399,2,0,L|88:328,2,37.5
64,144,79599,2,0,L|24:184,2,37.5
200,40,79799,2,0,L|152:24,2,37.5
376,80,80099,5,0,0:0:0:0:
264,96,80299,1,0,0:0:0:0:
320,168,80499,1,0,0:0:0:0:
400,176,80599,1,0,0:0:0:0:
448,240,80699,1,0,0:0:0:0:
336,256,80899,1,0,0:0:0:0:
248,200,80999,2,0,L|200:160,2,37.5
168,240,81199,2,0,L|120:248,2,37.5
176,320,81399,2,0,L|144:360,2,37.5
256,344,81599,2,0,L|304:400,2,37.5
64,312,81899,5,0,0:0:0:0:
136,232,82099,1,0,0:0:0:0:
64,192,82199,2,0,L|16:160,2,37.5
144,112,82499,5,0,0:0:0:0:
256,48,82599,1,0,0:0:0:0:
256,64,82649,1,0,0:0:0:0:
256,80,82699,1,0,0:0:0:0:
256,96,82749,1,0,0:0:0:0:
256,112,82799,1,0,0:0:0:0:
256,128,82849,1,0,0:0:0:0:
256,144,82899,1,0,0:0:0:0:
256,160,82949,1,0,0:0:0:0:
256,176,82999,1,0,0:0:0:0:
256,192,83049,1,0,0:0:0:0:
256,208,83099,1,0,0:0:0:0:
256,232,83149,1,0,0:0:0:0:
256,248,83199,1,0,0:0:0:0:
256,272,83249,1,0,0:0:0:0:
256,296,83299,6,0,B|192:304|192:304|144:272,1,112.500004291535
320,112,83499,2,0,B|376:112|376:112|416:160,1,112.500004291535
168,168,83699,2,0,L|80:72,1,112.500004291535
272,48,83899,1,0,0:0:0:0:
312,200,83999,1,0,0:0:0:0:
180,266,84099,6,0,B|148:226|148:226|172:154,1,112.500004291535
328,272,84299,1,0,0:0:0:0:
448,192,84399,1,0,0:0:0:0:
296,352,84499,2,0,L|176:352,1,112.500004291535
80,160,84699,2,0,L|216:160,1,112.500004291535
448,304,84899,5,0,0:0:0:0:
448,304,84999,1,0,0:0:0:0:
360,104,85099,1,0,0:0:0:0:
208,240,85199,1,0,0:0:0:0:
136,80,85299,1,0,0:0:0:0:
72,240,85399,1,0,0:0:0:0:
240,104,85499,1,0,0:0:0:0:
296,264,85599,1,0,0:0:0:0:
432,120,85699,5,0,0:0:0:0:
264,96,85799,2,0,L|200:128,2,56.2500021457673
360,208,85999,2,0,L|408:240,2,56.2500021457673
88,152,86299,1,0,0:0:0:0:
448,112,86499,5,0,0:0:0:0:
456,280,86599,1,0,0:0:0:0:
184,296,86699,2,0,B|160:344|160:344|120:320|72:320,1,112.500004291535
336,248,86899,2,0,B|360:232|352:192|352:192|408:176,1,112.500004291535
152,72,87099,1,0,0:0:0:0:
232,192,87199,1,0,0:0:0:0:
88,176,87299,1,0,0:0:0:0:
280,88,87399,1,0,0:0:0:0:
400,192,87499,2,0,L|400:328,1,112.500004291535
152,208,87699,2,0,B|160:176|120:136|120:136|72:152,1,112.500004291535
400,32,87899,2,0,P|432:80|448:144,1,112.500004291535
272,192,88099,5,0,0:0:0:0:
64,280,88199,2,0,L|72:344,2,56.2500021457673
416,232,88399,2,0,L|504:240,2,56.2500021457673
184,64,88599,2,0,L|144:0,2,56.2500021457673
240,216,88899,6,0,B|264:264|232:304|232:304|272:288|304:320,1,168.750006437302
320,152,89099,2,0,B|280:104|224:128|224:128|184:80,1,168.750006437302
88,192,89299,2,0,P|144:224|88:312,1,168.750006437302
248,304,89499,2,0,B|280:352|304:328|328:288|328:288|360:296|376:336,1,168.750006437302
432,104,89699,5,0,0:0:0:0:
240,216,89799,1,0,0:0:0:0:
64,80,89899,2,0,L|184:80,1,112.500004291535
320,184,90099,1,0,0:0:0:0:
176,184,90199,1,0,0:0:0:0:
56,296,90299,2,0,B|112:336|112:336|176:320,1,112.500004291535
416,280,90499,5,0,0:0:0:0:
416,280,90599,1,0,0:0:0:0:
320,72,90699,1,0,0:0:0:0:
320,72,90799,1,0,0:0:0:0:
320,344,90899,1,0,0:0:0:0:
320,344,90999,2,0,B|256:336|240:312|168:296,1,112.500004291535
288,184,91199,1,0,0:0:0:0:
400,256,91299,6,0,B|440:208|440:208|472:248|512:240,1,112.500004291535
160,96,91499,2,0,B|120:128|120:128|176:144|112:208,1,112.500004291535
392,160,91699,2,0,P|368:96|320:72,1,112.500004291535
120,248,91899,2,0,B|160:240|160:240|176:280|216:296,1,112.500004291535
408,312,92099,5,0,0:0:0:0:
216,48,92299,1,0,0:0:0:0:
112,320,92499,1,0,0:0:0:0:
224,320,92599,1,0,0:0:0:0:
112,320,92699,1,0,0:0:0:0:
408,104,92899,5,0,0:0:0:0:
288,144,92999,1,0,0:0:0:0:
432,192,93099,2,0,P|456:248|432:328,1,112.500004291535
336,224,93299,1,0,0:0:0:0:
344,48,93399,1,0,0:0:0:0:
136,88,93499,2,0,L|40:168,1,112.500004291535
168,200,93699,6,0,L|80:280,1,97.4999955368044
224,296,93899,2,0,L|160:368,1,86.2500016450882
352,224,94099,2,0,L|472:224,1,86.2500016450882
392,312,94299,2,0,B|352:336|352:336|312:312,1,75
240,272,94499,5,0,0:0:0:0:
208,264,94549,1,0,0:0:0:0:
176,272,94599,1,0,0:0:0:0:
144,288,94649,1,0,0:0:0:0:
112,272,94699,1,0,0:0:0:0:
104,232,94749,1,0,0:0:0:0:
112,200,94799,1,0,0:0:0:0:
136,176,94849,1,0,0:0:0:0:
168,168,94899,1,0,0:0:0:0:
200,184,94949,1,0,0:0:0:0:
232,192,94999,1,0,0:0:0:0:
264,192,95049,1,0,0:0:0:0:
296,184,95099,1,0,0:0:0:0:
336,176,95149,1,0,0:0:0:0:
352,144,95199,1,0,0:0:0:0:
360,112,95249,1,0,0:0:0:0:
352,80,95299,5,0,0:0:0:0:
432,48,95399,2,0,L|432:104,2,37.5
392,176,95599,2,0,L|408:224,2,37.5
464,296,95799,2,0,L|440:344,2,37.5
280,344,96099,5,0,0:0:0:0:
184,320,96299,1,0,0:0:0:0:
128,240,96499,1,0,0:0:0:0:
144,136,96699,1,0,0:0:0:0:
248,184,96899,5,0,0:0:0:0:
408,104,97099,1,0,0:0:0:0:
448,192,97299,1,0,0:0:0:0:
296,40,97499,1,0,0:0:0:0:
216,112,97699,5,0,0:0:0:0:
96,64,97899,1,0,0:0:0:0:
136,192,98099,1,0,0:0:0:0:
24,272,98299,1,0,0:0:0:0:
160,304,98499,5,0,0:0:0:0:
424,120,98699,1,0,0:0:0:0:
440,256,98899,1,0,0:0:0:0:
304,168,99099,5,0,0:0:0:0:
304,256,99199,2,0,L|328:312,2,37.5
128,304,99499,1,0,0:0:0:0:
40,248,99699,1,0,0:0:0:0:
232,208,99899,1,0,0:0:0:0:
240,72,100099,1,0,0:0:0:0:
64,72,100299,1,0,0:0:0:0:
128,168,100499,1,0,0:0:0:0:
384,152,100699,1,0,0:0:0:0:
368,256,100899,5,0,0:0:0:0:
184,216,101099,1,0,0:0:0:0:
128,320,101299,1,0,0:0:0:0:
328,224,101499,1,0,0:0:0:0:
408,328,101699,1,0,0:0:0:0:
256,128,101899,1,0,0:0:0:0:
64,104,102099,1,0,0:0:0:0:
352,200,102299,1,0,0:0:0:0:
400,144,102399,1,0,0:0:0:0:
400,104,102449,1,0,0:0:0:0:
392,72,102499,6,0,P|344:48|304:56,1,75,0|2,0:0|0:0,0:0:0:0:
96,144,102699,2,0,P|128:176|168:184,1,75,0|2,0:0|0:0,0:0:0:0:
352,232,102899,2,0,L|312:320,1,75,0|2,0:0|0:0,0:0:0:0:
176,184,103099,2,0,L|272:160,1,75,0|2,0:0|0:0,0:0:0:0:
208,280,103299,2,0,B|176:280|176:280|144:248,1,75,0|2,0:0|0:0,0:0:0:0:
88,48,103499,2,0,P|128:72|168:72,1,75,0|2,0:0|0:0,0:0:0:0:
312,96,103699,2,0,P|360:136|368:176,1,75,0|2,0:0|0:0,0:0:0:0:
280,240,103899,2,0,P|280:288|296:312,1,75,0|2,0:0|0:0,0:0:0:0:
472,248,104099,6,0,L|392:256,1,75,0|2,0:0|0:0,0:0:0:0:
136,168,104299,2,0,L|120:248,1,75,0|2,0:0|0:0,0:0:0:0:
208,328,104499,2,0,P|264:320|296:336,2,75,0|2|0,0:0|0:0|0:0,0:0:0:0:
96,344,104799,1,2,0:0:0:0:
64,128,104899,6,0,P|120:112|168:112,1,75,0|2,0:0|0:0,0:0:0:0:
312,152,105099,1,0,0:0:0:0:
224,240,105199,1,2,0:0:0:0:
368,240,105299,1,0,0:0:0:0:
176,168,105399,1,2,0:0:0:0:
320,48,105499,1,0,0:0:0:0:
440,80,105599,1,0,0:0:0:0:
456,104,105649,1,0,0:0:0:0:
472,136,105699,6,0,P|480:176|480:240,1,75
352,272,105899,2,0,P|328:312|328:360,1,75
144,320,106099,2,0,P|128:272|88:240,1,75
136,96,106299,2,0,P|176:80|192:48,1,75
368,88,106499,2,0,P|368:136|384:168,1,75
272,304,106699,1,0,0:0:0:0:
448,352,106899,1,0,0:0:0:0:
176,168,107099,1,0,0:0:0:0:
376,152,107399,6,0,L|408:192,4,37.5
144,264,107699,2,0,L|120:312,7,37.5
144,160,108099,1,0,0:0:0:0:
176,240,108199,1,0,0:0:0:0:
152,248,108249,1,0,0:0:0:0:
128,256,108299,1,0,0:0:0:0:
56,160,108399,1,0,0:0:0:0:
64,136,108449,1,0,0:0:0:0:
72,112,108499,1,0,0:0:0:0:
216,136,108599,1,0,0:0:0:0:
240,152,108649,1,0,0:0:0:0:
264,168,108699,2,0,B|312:208|304:280|304:280,1,112.500004291535
360,344,108899,6,0,B|432:336|432:336|384:304|384:304|360:256|456:280,1,225.000008583069
280,8,109299,2,0,B|248:64|248:64|192:64|232:0|232:0|144:0,1,225.000008583069
24,272,109699,5,0,0:0:0:0:
240,208,109899,1,0,0:0:0:0:
320,336,110099,1,0,0:0:0:0:
448,224,110299,1,0,0:0:0:0:
368,40,110499,1,0,0:0:0:0:
176,128,110699,1,0,0:0:0:0:
344,192,110899,1,0,0:0:0:0:
240,328,111099,1,0,0:0:0:0:
80,272,111299,1,0,0:0:0:0:
232,160,111499,1,0,0:0:0:0:
384,304,111699,1,0,0:0:0:0:
432,144,111899,1,0,0:0:0:0:
240,24,111999,6,0,L|312:56,1,56.2500021457673
88,32,112099,2,0,B|24:48|24:48|80:120|0:200,1,225.000008583069
368,320,112499,2,0,B|397:270|440:268|490:280|493:323|493:323|456:340|462:408,1,225.000008583069
448,40,112899,1,0,0:0:0:0:
264,256,113099,1,0,0:0:0:0:
192,88,113299,1,0,0:0:0:0:
88,176,113499,1,0,0:0:0:0:
200,240,113699,1,0,0:0:0:0:
336,120,113899,1,0,0:0:0:0:
352,304,114099,1,0,0:0:0:0:
144,360,114299,1,0,0:0:0:0:
40,280,114599,6,0,L|-8:304,4,37.5
248,56,114899,2,0,L|288:104,7,37.5
480,216,115299,2,0,B|512:216|544:256|552:320|496:344|496:344|464:296|400:312,1,225.000008583069
232,112,115699,2,0,B|208:48|208:48|168:88|96:56|176:16|176:16|120:-32,1,225.000008583069
32,160,116099,5,0,0:0:0:0:
136,152,116199,1,0,0:0:0:0:
136,256,116299,1,0,0:0:0:0:
248,208,116399,1,0,0:0:0:0:
256,320,116499,1,0,0:0:0:0:
368,312,116599,1,0,0:0:0:0:
424,248,116699,1,0,0:0:0:0:
400,208,116749,1,0,0:0:0:0:
432,184,116799,6,0,P|424:120|360:72,1,112.500004291535
176,112,116999,1,2,0:0:0:0:
272,104,117099,2,0,L|352:96,1,75,0|2,0:0|0:0,0:0:0:0:
88,104,117299,2,0,L|88:208,1,75,0|2,0:0|0:0,0:0:0:0:
360,192,117499,2,0,L|368:280,1,75,0|2,0:0|0:0,0:0:0:0:
152,312,117699,6,0,B|144:264|144:264|104:240,1,75,0|2,0:0|0:0,0:0:0:0:
200,152,117899,2,0,B|248:160|248:160|288:144,1,75,0|2,0:0|0:0,0:0:0:0:
440,152,118099,2,0,L|384:224,1,75,0|2,0:0|0:0,0:0:0:0:
120,288,118299,2,0,L|216:280,1,75
232,288,118449,1,0,0:0:0:0:
272,312,118499,6,0,B|352:312|392:312|392:312|440:344|440:344|464:280,1,225.000008583069
256,56,118899,2,0,B|224:120|224:120|168:96|168:96|128:128|128:128|48:128,1,225.000008583069
72,304,119299,1,0,0:0:0:0:
184,256,119499,1,0,0:0:0:0:
288,328,119699,1,0,0:0:0:0:
416,320,119899,1,0,0:0:0:0:
416,56,120199,6,0,L|456:40,1,28.1250010728836
336,152,120399,2,0,L|312:192,1,28.1250010728836
256,72,120599,2,0,L|216:64,1,28.1250010728836
80,144,120799,2,0,L|48:200,2,37.5
144,184,120999,1,0,0:0:0:0:
144,184,121049,1,0,0:0:0:0:
144,184,121099,1,0,0:0:0:0:
64,272,121199,1,0,0:0:0:0:
152,272,121299,1,0,0:0:0:0:
216,344,121399,1,0,0:0:0:0:
304,200,121499,1,0,0:0:0:0:
456,256,121599,1,0,0:0:0:0:
488,240,121649,1,0,0:0:0:0:
512,216,121699,6,0,P|528:152|440:16,1,225.000008583069
0,96,122099,2,0,B|24:208|24:208|72:160|72:160|112:208,1,225.000008583069
448,312,122499,2,0,B|392:224|392:224|440:216|480:240|480:240|504:208,1,225.000008583069
216,72,122899,2,0,B|168:112|168:112|144:128|112:104|104:80|152:88|152:48|152:48|96:-40,1,225.000008583069
0,296,123299,6,0,B|40:368|40:368|112:344|192:392,1,225.000008583069
424,96,123699,2,0,B|424:32|424:32|456:32|488:56|512:112|512:192,1,225.000008583069
264,224,124099,5,0,0:0:0:0:
48,256,124199,1,0,0:0:0:0:
168,360,124299,1,0,0:0:0:0:
136,144,124399,1,0,0:0:0:0:
312,288,124499,1,0,0:0:0:0:
272,120,124599,1,0,0:0:0:0:
128,112,124699,1,0,0:0:0:0:
144,160,124749,1,0,0:0:0:0:
176,200,124799,1,0,0:0:0:0:
352,136,124899,6,0,B|400:112|400:112|464:120|496:192|496:192|488:256|488:256|512:264,1,225.000008583069
160,320,125299,2,0,B|112:312|112:312|128:352|128:352|80:360|24:272|48:240,1,225.000008583069
336,32,125699,6,0,B|384:80|440:64|472:32|472:32|480:120,1,225.000008583069
360,288,126099,2,0,B|368:368|368:368|296:320|296:320|296:416,1,225.000008583069
0,16,126499,6,0,B|72:16|72:16|32:-32|96:16|64:96|16:136,1,225.000008583069
464,136,126899,2,0,B|424:240|424:240|480:216|488:248|496:296|488:328,1,225.000008583069
72,312,127399,6,0,L|24:328,4,37.5
312,280,127699,1,0,0:0:0:0:
328,272,127749,1,0,0:0:0:0:
344,264,127799,1,0,0:0:0:0:
352,248,127849,1,0,0:0:0:0:
360,232,127899,1,0,0:0:0:0:
360,216,127949,1,0,0:0:0:0:
360,200,127999,1,0,0:0:0:0:
352,184,128049,1,0,0:0:0:0:
352,144,128099,1,0,0:0:0:0:
368,112,128149,6,0,P|448:176|368:208,1,225
160,144,128432,1,0,0:0:0:0:
80,152,128499,2,0,B|0:192|88:232|88:232|152:200|216:240|216:336,1,300
368,216,128832,1,0,0:0:0:0:
432,272,128899,6,0,B|480:288|504:336|432:384|352:312|352:312|304:320|280:360|208:360,1,300
216,192,129232,1,0,0:0:0:0:
304,208,129299,2,0,B|384:216|440:200|416:64|416:64|480:112,1,300
240,48,129632,1,0,0:0:0:0:
168,72,129699,6,0,B|64:120|232:120|272:152|272:152|168:184|216:288,1,300
272,288,130032,1,0,0:0:0:0:
352,304,130099,2,0,P|464:360|416:248,1,300
320,112,130349,2,0,L|256:56,2,75
216,152,130599,6,0,L|200:200,4,37.5
248,232,130899,2,0,L|264:280,7,37.5
128,344,131299,2,0,B|184:288|280:384|352:320|352:216,1,300
120,256,131632,1,0,0:0:0:0:
64,208,131699,2,0,B|32:192|40:128|72:96|176:80|256:200,1,300
424,200,132032,1,0,0:0:0:0:
400,128,132099,6,0,B|376:56|304:56|240:88|272:168|272:168|248:208|192:224|152:184,1,300
24,216,132432,1,0,0:0:0:0:
48,144,132499,2,0,B|112:96|160:120|192:152|184:248|264:288,1,300
352,320,132765,1,0,0:0:0:0:
440,272,132832,1,0,0:0:0:0:
464,176,132899,1,0,0:0:0:0:
344,160,132974,1,0,0:0:0:0:
144,32,133099,5,0,0:0:0:0:
40,144,133224,1,0,0:0:0:0:
184,240,133374,1,0,0:0:0:0:
288,232,133499,1,0,0:0:0:0:
296,248,133549,1,0,0:0:0:0:
304,264,133599,1,0,0:0:0:0:
312,280,133649,1,0,0:0:0:0:
328,304,133699,2,0,P|400:264|312:64,1,300
144,168,134499,5,0,0:0:0:0:
224,136,134599,1,0,0:0:0:0:
232,144,134649,1,0,0:0:0:0:
232,144,134699,1,0,0:0:0:0:
152,72,134799,1,0,0:0:0:0:
360,128,134899,2,0,L|280:176,1,75
216,216,135099,1,0,0:0:0:0:
304,240,135199,1,0,0:0:0:0:
328,272,135249,1,0,0:0:0:0:
368,272,135299,5,0,0:0:0:0:
456,264,135399,1,0,0:0:0:0:
456,296,135449,1,0,0:0:0:0:
440,328,135499,1,0,0:0:0:0:
256,232,135599,1,0,0:0:0:0:
112,320,135699,2,0,L|64:240,1,75
304,96,135899,2,0,L|328:168,1,75
224,144,136049,2,0,L|184:128,1,37.5
96,144,136199,5,0,0:0:0:0:
96,144,136249,1,0,0:0:0:0:
96,144,136299,2,0,L|40:216,1,75
224,200,136499,1,0,0:0:0:0:
352,208,136599,1,0,0:0:0:0:
352,320,136699,1,0,0:0:0:0:
224,320,136799,1,0,0:0:0:0:
224,320,136849,1,0,0:0:0:0:
224,320,136899,6,0,L|128:320,1,75
208,112,137099,1,0,0:0:0:0:
328,144,137199,1,0,0:0:0:0:
120,192,137299,1,0,0:0:0:0:
328,256,137399,1,0,0:0:0:0:
448,160,137499,2,0,L|440:120,2,37.5
240,168,137699,1,0,0:0:0:0:
72,208,137799,2,0,L|48:256,2,37.5
176,96,137999,1,0,0:0:0:0:
192,248,138099,1,0,0:0:0:0:
344,80,138199,1,0,0:0:0:0:
344,248,138299,1,0,0:0:0:0:
160,328,138399,6,0,L|120:336,2,37.5
376,336,138599,2,0,L|416:352,2,37.5
72,128,138799,1,0,0:0:0:0:
232,56,138899,1,0,0:0:0:0:
240,192,138999,1,0,0:0:0:0:
352,248,139099,1,0,0:0:0:0:
448,136,139199,6,0,L|456:96,2,37.5
144,160,139399,1,0,0:0:0:0:
128,296,139499,1,0,0:0:0:0:
288,264,139599,1,0,0:0:0:0:
392,128,139699,1,0,0:0:0:0:
448,304,139799,1,0,0:0:0:0:
272,160,139899,6,0,L|224:120,2,37.5
256,192,140099,12,0,140899,0:0:0:0:
72,208,140999,5,0,0:0:0:0:
200,216,141099,1,0,0:0:0:0:
160,320,141199,1,0,0:0:0:0:
384,240,141299,2,0,L|384:320,1,75
480,192,141499,1,0,0:0:0:0:
480,192,141549,1,0,0:0:0:0:
480,192,141599,6,0,L|424:120,1,75
176,80,141799,2,0,L|136:112,2,37.5
336,136,141999,1,0,0:0:0:0:
184,168,142099,1,0,0:0:0:0:
280,40,142199,1,0,0:0:0:0:
280,208,142299,1,0,0:0:0:0:
120,248,142399,6,0,L|80:224,2,37.5
456,200,142599,1,0,0:0:0:0:
312,288,142699,2,0,L|400:312,1,75
168,272,142899,2,0,L|256:304,1,75
312,176,143099,1,0,0:0:0:0:
288,136,143149,1,0,0:0:0:0:
256,112,143199,6,0,P|216:136|168:144,1,75
48,128,143399,2,0,L|32:168,2,37.5
264,64,143599,2,0,L|288:120,2,37.5
432,160,143799,2,0,L|416:200,2,37.5
128,264,144099,5,0,0:0:0:0:
56,304,144199,1,0,0:0:0:0:
200,352,144299,1,0,0:0:0:0:
160,200,144399,1,0,0:0:0:0:
200,64,144499,2,0,L|96:64,1,75
237,213,144699,2,0,L|277:197,2,37.5
376,48,144899,5,0,0:0:0:0:
264,96,144999,2,0,L|248:136,2,37.5
352,160,145199,1,0,0:0:0:0:
256,296,145299,1,0,0:0:0:0:
352,272,145399,1,0,0:0:0:0:
416,344,145499,1,0,0:0:0:0:
480,232,145599,2,0,L|448:176,2,37.5
88,176,145799,5,0,0:0:0:0:
184,112,145899,2,0,B|200:160|200:160|200:208,1,75
128,272,146099,2,0,B|80:272|80:272|48:288,1,75
224,336,146299,1,0,0:0:0:0:
248,304,146349,1,0,0:0:0:0:
256,264,146399,1,0,0:0:0:0:
216,112,147299,5,0,0:0:0:0:
344,88,147499,1,0,0:0:0:0:
360,224,147699,1,0,0:0:0:0:
360,224,147799,1,0,0:0:0:0:
360,224,147899,1,0,0:0:0:0:
80,104,148099,5,0,0:0:0:0:
88,264,148299,1,0,0:0:0:0:
240,248,148499,1,0,0:0:0:0:
240,248,148599,1,0,0:0:0:0:
240,248,148699,1,0,0:0:0:0:
168,64,148899,5,0,0:0:0:0:
368,64,149099,1,0,0:0:0:0:
96,192,149299,1,0,0:0:0:0:
176,192,149399,1,0,0:0:0:0:
208,272,149499,1,0,0:0:0:0:
336,184,149699,5,0,0:0:0:0:
336,272,149799,1,0,0:0:0:0:
432,192,149899,1,0,0:0:0:0:
424,280,149999,1,0,0:0:0:0:
360,112,150099,5,0,0:0:0:0:
440,112,150199,1,0,0:0:0:0:
304,56,150299,1,0,0:0:0:0:
464,32,150399,1,0,0:0:0:0:
208,104,150499,1,0,0:0:0:0:
32,208,150699,6,0,L|112:176,1,75
184,288,150899,2,0,L|272:240,1,75
64,328,151099,1,0,0:0:0:0:
384,96,151299,6,0,L|456:136,1,75
360,240,151499,2,0,L|384:320,1,75
104,224,151699,1,0,0:0:0:0:
296,168,151799,1,0,0:0:0:0:
112,136,151899,2,0,L|56:64,1,75
216,232,152099,6,0,L|200:128,1,75
344,280,152299,2,0,L|408:224,1,75
272,64,152499,1,0,0:0:0:0:
408,104,152599,1,0,0:0:0:0:
112,80,152699,2,0,L|112:184,1,75
272,168,152899,6,0,L|216:240,1,75
48,304,153099,1,0,0:0:0:0:
144,280,153199,1,0,0:0:0:0:
80,248,153299,1,0,0:0:0:0:
224,288,153399,1,0,0:0:0:0:
144,344,153499,2,0,L|184:352,2,37.5
224,288,153699,6,0,B|280:272|280:272|336:304,1,112.500004291535
456,272,153899,2,0,B|448:200|448:200|392:160,1,112.500004291535
112,160,154099,1,0,0:0:0:0:
360,80,154199,1,0,0:0:0:0:
144,96,154299,1,0,0:0:0:0:
96,232,154499,6,0,B|152:272|152:272|208:240,1,112.500004291535
320,160,154699,2,0,B|376:128|376:128|448:152,1,112.500004291535
288,264,154899,1,0,0:0:0:0:
192,40,154999,1,0,0:0:0:0:
112,168,155099,1,0,0:0:0:0:
352,232,155299,6,0,B|392:208|392:208|448:248|432:296,1,112.500004291535
144,312,155499,1,0,0:0:0:0:
176,64,155699,1,0,0:0:0:0:
288,248,155799,1,0,0:0:0:0:
264,104,155899,1,0,0:0:0:0:
24,144,156099,5,0,0:0:0:0:
200,128,156199,1,0,0:0:0:0:
80,256,156299,1,0,0:0:0:0:
112,72,156399,1,0,0:0:0:0:
192,248,156499,1,0,0:0:0:0:
296,176,156599,1,0,0:0:0:0:
336,320,156699,1,0,0:0:0:0:
440,208,156799,1,0,0:0:0:0:
376,72,156899,5,0,0:0:0:0:
72,232,157099,2,0,L|168:320,1,112.500004291535
312,248,157299,2,0,L|424:272,2,112.500004291535
40,64,157699,5,0,0:0:0:0:
448,96,157899,1,0,0:0:0:0:
48,216,158099,5,0,0:0:0:0:
80,328,158199,1,0,0:0:0:0:
192,304,158299,2,0,B|208:240|208:240|264:216,1,112.500004291535
360,208,158499,2,0,B|352:144|352:144|280:104,1,112.500004291535
184,48,158699,2,0,L|88:136,1,112.500004291535
0,128,158899,1,0,0:0:0:0:
120,224,158999,1,0,0:0:0:0:
288,184,159099,1,0,0:0:0:0:
416,288,159299,5,0,0:0:0:0:
408,296,159499,1,0,0:0:0:0:
392,312,159699,1,0,0:0:0:0:
368,328,159899,1,0,0:0:0:0:
336,336,160099,5,0,0:0:0:0:
48,120,160499,2,0,P|96:152|104:320,1,225.000008583069
200,88,160899,2,0,P|248:136|416:128,2,225.000008583069
272,216,161499,6,0,L|256:288,4,56.2500021457673
224,152,161799,1,0,0:0:0:0:
208,256,161899,1,0,0:0:0:0:
320,272,161999,1,0,0:0:0:0:
336,176,162099,1,0,0:0:0:0:
187,187,162199,1,0,0:0:0:0:
240,293,162299,1,0,0:0:0:0:
353,236,162399,1,0,0:0:0:0:
306,137,162499,6,0,B|256:64|176:56|208:120|208:120|112:128,1,225.000008583069
24,240,162899,1,0,0:0:0:0:
128,232,162999,1,0,0:0:0:0:
120,320,163099,2,0,L|208:352,1,56.2500021457673
416,272,163299,6,0,B|488:184|376:192|376:192|264:216|432:56,1,300
32,40,163632,1,0,0:0:0:0:
48,136,163699,2,0,B|104:120|168:136|208:160|216:176|216:176|224:120|320:104,1,300
440,240,164032,1,0,0:0:0:0:
392,312,164099,2,0,B|312:224|296:304|296:304|248:248|240:184|336:168,1,300
40,272,164432,1,0,0:0:0:0:
40,272,164499,2,0,B|56:160|152:256|152:256|240:256|184:112,1,300
264,64,164765,1,0,0:0:0:0:
360,48,164832,1,0,0:0:0:0:
432,120,164899,5,0,0:0:0:0:
336,200,165099,1,0,0:0:0:0:
360,280,165232,1,0,0:0:0:0:
296,328,165365,1,0,0:0:0:0:
224,296,165499,1,0,0:0:0:0:
184,312,165565,1,0,0:0:0:0:
144,304,165632,1,0,0:0:0:0:
112,272,165699,2,0,L|96:216,3,50
128,144,165999,1,0,0:0:0:0:
216,184,166099,6,0,L|256:160,8,37.5
336,152,166699,1,0,0:0:0:0:
360,200,166899,1,0,0:0:0:0:
360,248,166999,1,0,0:0:0:0:
352,272,167099,1,0,0:0:0:0:
240,256,167299,5,0,0:0:0:0:
128,280,167499,1,0,0:0:0:0:
32,248,167699,1,0,0:0:0:0:
72,192,167799,1,0,0:0:0:0:
56,128,167899,1,0,0:0:0:0:
464,96,168099,5,0,0:0:0:0:
152,128,168299,1,0,0:0:0:0:
288,16,168499,1,0,0:0:0:0:
288,240,168599,1,0,0:0:0:0:
392,120,168699,1,0,0:0:0:0:
376,336,168899,5,0,0:0:0:0:
256,328,168999,2,0,L|184:344,2,37.5
144,224,169199,2,0,L|96:168,2,37.5
224,88,169399,2,0,L|232:24,2,37.5
392,200,169699,5,0,0:0:0:0:
304,216,169899,1,0,0:0:0:0:
344,296,170099,1,0,0:0:0:0:
256,304,170199,1,0,0:0:0:0:
168,320,170299,1,0,0:0:0:0:
56,104,170499,5,0,0:0:0:0:
144,64,170599,1,0,0:0:0:0:
160,152,170699,1,0,0:0:0:0:
240,112,170799,1,0,0:0:0:0:
304,168,170899,1,0,0:0:0:0:
368,232,170999,1,0,0:0:0:0:
432,304,171099,2,0,L|472:352,2,37.5
192,296,171299,5,0,0:0:0:0:
360,112,171499,1,0,0:0:0:0:
144,144,171699,2,0,B|96:144|96:144|64:96,2,75
408,48,172099,5,0,0:0:0:0:
408,128,172199,2,0,L|456:144,2,37.5
336,168,172399,1,0,0:0:0:0:
368,232,172499,1,0,0:0:0:0:
232,224,172599,1,0,0:0:0:0:
208,296,172699,1,0,0:0:0:0:
144,224,172799,1,0,0:0:0:0:
40,224,172899,5,0,0:0:0:0:
264,32,172999,1,0,0:0:0:0:
264,80,173099,1,0,0:0:0:0:
264,128,173199,1,0,0:0:0:0:
264,176,173299,1,0,0:0:0:0:
264,224,173399,1,0,0:0:0:0:
264,272,173499,1,0,0:0:0:0:
264,320,173599,1,0,0:0:0:0:
112,336,173699,6,0,L|48:280,1,75
176,264,173899,2,0,L|176:184,1,75
48,192,174099,1,0,0:0:0:0:
168,136,174199,1,0,0:0:0:0:
112,64,174299,1,0,0:0:0:0:
440,40,174499,6,0,L|440:120,1,75
216,288,174699,2,0,L|248:208,1,75
488,160,174899,1,0,0:0:0:0:
232,128,174999,1,0,0:0:0:0:
336,288,175099,1,0,0:0:0:0:
304,48,175299,5,0,0:0:0:0:
128,88,175399,1,0,0:0:0:0:
128,88,175449,1,0,0:0:0:0:
128,88,175499,1,0,0:0:0:0:
96,128,175599,1,0,0:0:0:0:
96,128,175649,1,0,0:0:0:0:
96,128,175699,1,0,0:0:0:0:
112,176,175799,1,0,0:0:0:0:
112,176,175849,1,0,0:0:0:0:
112,176,175899,2,0,B|160:168|160:168|184:192,1,75
448,160,176099,6,0,L|408:240,1,75
304,144,176299,1,0,0:0:0:0:
232,224,176399,1,0,0:0:0:0:
336,240,176499,1,0,0:0:0:0:
272,344,176599,1,0,0:0:0:0:
80,256,176699,1,0,0:0:0:0:
184,120,176799,1,0,0:0:0:0:
32,176,176899,1,0,0:0:0:0:
256,200,176999,1,0,0:0:0:0:
288,304,177099,6,0,L|200:336,1,75
296,128,177299,2,0,L|376:184,1,75
408,56,177499,1,0,0:0:0:0:
320,56,177599,1,0,0:0:0:0:
224,56,177699,1,0,0:0:0:0:
80,256,177899,1,0,0:0:0:0:
368,248,178099,1,0,0:0:0:0:
368,248,178199,1,0,0:0:0:0:
368,248,178299,1,0,0:0:0:0:
104,96,178499,5,0,0:0:0:0:
184,144,178599,2,0,L|168:192,2,37.5
152,288,178799,1,0,0:0:0:0:
112,208,178899,1,0,0:0:0:0:
240,304,178999,1,0,0:0:0:0:
264,216,179099,1,0,0:0:0:0:
368,304,179199,1,0,0:0:0:0:
192,80,179299,6,0,P|128:96|80:128,1,112.500004291535
296,80,179499,2,0,P|360:104|400:136,1,112.500004291535
160,144,179699,2,0,P|96:160|48:192,1,112.500004291535
320,152,179899,2,0,P|384:176|424:208,1,112.500004291535
176,280,180099,5,0,0:0:0:0:
248,104,180199,1,0,0:0:0:0:
296,224,180299,1,0,0:0:0:0:
80,152,180399,1,0,0:0:0:0:
144,320,180499,2,0,B|200:320|200:320|240:240,1,112.500004291535
360,80,180699,2,0,B|464:160,1,112.500004291535
312,256,180899,5,0,0:0:0:0:
360,128,180999,1,0,0:0:0:0:
224,168,181099,1,0,0:0:0:0:
144,80,181199,1,0,0:0:0:0:
296,72,181299,2,0,B|352:88|352:88|384:144,1,112.500004291535
152,328,181499,2,0,L|128:184,1,112.500004291535
416,296,181699,5,0,0:0:0:0:
416,296,181799,1,0,0:0:0:0:
336,152,181899,1,0,0:0:0:0:
280,296,181999,1,0,0:0:0:0:
144,208,182099,1,0,0:0:0:0:
32,264,182199,1,0,0:0:0:0:
96,80,182299,1,0,0:0:0:0:
216,120,182399,1,0,0:0:0:0:
336,64,182499,6,0,B|368:64|392:72|392:72|424:88|448:104,1,112.500004291535
440,304,182699,2,0,B|408:296|384:280|384:280|352:248|328:200,1,112.500004291535
128,40,182899,1,0,0:0:0:0:
152,240,182999,1,0,0:0:0:0:
280,120,183099,1,0,0:0:0:0:
48,104,183199,1,0,0:0:0:0:
40,224,183299,6,0,B|72:280|72:280|128:304,1,112.500004291535
464,160,183499,2,0,L|344:232,1,112.500004291535
168,208,183699,2,0,B|168:144|168:144|224:96,1,112.500004291535
384,104,183899,6,0,B|440:80|440:80|456:16,2,112.500004291535
280,288,184199,2,0,L|256:360,2,56.2500021457673
72,168,184399,2,0,L|8:120,2,56.2500021457673
304,48,184599,2,0,L|384:16,2,56.2500021457673
272,248,184899,6,0,B|312:208|328:240|328:240|368:280,1,112.5
432,184,185099,2,0,B|424:144|424:144|400:152|360:160|320:136,1,112.5
216,64,185299,2,0,B|232:96|232:96|264:104|264:104|280:144|256:176,1,112.5
160,200,185499,2,0,B|126:179|119:152|128:136|128:136|173:132|184:104,1,112.5
392,168,185699,5,0,0:0:0:0:
368,288,185799,1,0,0:0:0:0:
120,320,185899,2,0,B|56:296|56:296|40:240,1,112.500004291535
128,96,186099,1,0,0:0:0:0:
232,232,186199,1,0,0:0:0:0:
248,48,186299,1,0,0:0:0:0:
112,208,186399,1,0,0:0:0:0:
312,144,186499,6,0,P|384:144|440:144,1,112.500004291535
424,256,186699,2,0,L|304:256,1,112.500004291535
312,144,186899,2,0,L|424:144,1,112.500004291535
176,248,187099,2,0,B|104:248|104:248|72:208,1,112.500004291535
192,88,187299,5,0,0:0:0:0:
240,208,187399,1,0,0:0:0:0:
192,88,187499,1,0,0:0:0:0:
136,304,187599,1,0,0:0:0:0:
144,160,187699,1,0,0:0:0:0:
240,336,187799,1,0,0:0:0:0:
288,144,187899,1,0,0:0:0:0:
368,256,187999,1,0,0:0:0:0:
416,112,188099,5,0,0:0:0:0:
88,144,188199,2,0,L|96:208,2,56.2500021457673
184,216,188399,2,0,L|216:264,2,56.2500021457673
104,296,188599,2,0,L|80:368,2,56.2500021457673
272,336,188799,1,0,0:0:0:0:
360,344,188899,2,0,B|408:304|432:328|432:328|480:336,1,112.500004291535
352,56,189099,6,0,B|312:104|312:104|240:80,1,112.500004291535
80,80,189299,2,0,L|80:192,1,112.500004291535
424,160,189499,1,0,0:0:0:0:
424,296,189599,1,0,0:0:0:0:
208,168,189699,6,0,L|208:304,1,112.500004291535
96,88,189899,2,0,B|136:49|136:49|192:50,1,112.500004291535,0|0,0:0|0:0,2:0:0:0:
368,176,190099,2,0,L|368:296,1,112.500004291535
88,208,190299,2,0,L|208:208,1,112.500004291535
352,64,190499,5,0,0:0:0:0:
352,64,190599,1,0,0:0:0:0:
320,312,190699,1,0,0:0:0:0:
320,312,190799,1,0,0:0:0:0:
160,256,190899,1,0,0:0:0:0:
248,152,190999,1,0,0:0:0:0:
80,200,191099,1,0,0:0:0:0:
312,208,191199,1,0,0:0:0:0:
160,104,191299,5,0,0:0:0:0:
152,312,191399,1,0,0:0:0:0:
152,312,191449,1,0,0:0:0:0:
152,312,191499,1,0,0:0:0:0:
264,264,191599,1,0,0:0:0:0:
264,264,191649,1,0,0:0:0:0:
264,264,191699,1,0,0:0:0:0:
384,328,191799,1,0,0:0:0:0:
384,328,191849,1,0,0:0:0:0:
384,328,191899,1,0,0:0:0:0:
408,96,192099,5,0,0:0:0:0:
256,192,192149,12,0,197699,0:0:0:0:
