osu file format v14

[General]
AudioFilename: audio.mp3
AudioLeadIn: 0
PreviewTime: 27372
Countdown: 0
SampleSet: None
StackLeniency: 0.7
Mode: 1
LetterboxInBreaks: 0
WidescreenStoryboard: 0

[Editor]
DistanceSpacing: 1
BeatDivisor: 4
GridSize: 32
TimelineZoom: 1.3

[Metadata]
Title:Start Lifting Dumbbells, and Your Life Will Change
TitleUnicode:Start Lifting Dumbbells, and Your Life Will Change
Artist:Triple-Q
ArtistUnicode:Triple-Q
Creator:Lost The Lights
Version:Looking Swole, Joker!
Source:
Tags:Persona 5 Dumbbell Nan Kilo Moteru Joker Ren Amamiya Shoji Meguro Hibiki Sakura Ai Fairouz Naruzo Machio Kaito Ishikawa
BeatmapID:2128042
BeatmapSetID:1016776

[Difficulty]
HPDrainRate:6
CircleSize:4
OverallDifficulty:6
ApproachRate:9
SliderMultiplier:1.4
SliderTickRate:1

[Events]
//Background and Video events
0,0,"test.jpg",0,75
//Break Periods
//Storyboard Layer 0 (Background)
//Storyboard Layer 1 (Fail)
//Storyboard Layer 2 (Pass)
//Storyboard Layer 3 (Foreground)
//Storyboard Sound Samples

[TimingPoints]
100,454.545454545455,4,1,0,30,1,0
14645,-100,4,1,0,50,0,0
28509,-100,4,1,0,80,0,0
43736,-100,4,1,0,80,0,1
58281,-100,4,1,0,50,0,0
86690,-100,4,1,0,80,0,0
87372,-100,4,1,0,80,0,1
116463,-100,4,1,0,50,0,0
160100,-100,4,1,0,80,0,1
174645,-100,4,1,0,80,0,0
175781,-100,4,1,0,50,0,0
212827,-100,4,1,0,80,0,0
229190,-100,4,1,0,80,0,1
258281,-100,4,1,0,80,0,0

[HitObjects]
256,192,100,5,8,0:0:0:0:
256,192,327,1,8,0:0:0:0:
256,192,440,1,8,0:0:0:0:
256,192,668,1,0,0:0:0:0:
256,192,781,1,8,0:0:0:0:
256,192,1009,1,8,0:0:0:0:
256,192,1122,1,8,0:0:0:0:
256,192,1350,1,0,0:0:0:0:
256,192,1463,1,8,0:0:0:0:
256,192,1690,1,8,0:0:0:0:
256,192,1804,1,8,0:0:0:0:
256,192,2031,1,0,0:0:0:0:
256,192,2145,1,8,0:0:0:0:
256,192,2372,1,8,0:0:0:0:
256,192,2486,1,8,0:0:0:0:
256,192,2713,1,0,0:0:0:0:
256,192,2827,1,8,0:0:0:0:
256,192,2940,1,0,0:0:0:0:
256,192,3054,1,0,0:0:0:0:
256,192,3168,1,0,0:0:0:0:
256,192,3281,1,8,0:0:0:0:
256,192,3736,1,8,0:0:0:0:
256,192,3963,1,8,0:0:0:0:
256,192,4077,1,8,0:0:0:0:
256,192,4304,1,0,0:0:0:0:
256,192,4418,1,8,0:0:0:0:
256,192,4645,1,8,0:0:0:0:
256,192,4759,1,8,0:0:0:0:
256,192,4986,1,0,0:0:0:0:
256,192,5100,1,8,0:0:0:0:
256,192,5327,1,8,0:0:0:0:
256,192,5440,1,8,0:0:0:0:
256,192,5668,1,0,0:0:0:0:
256,192,5781,1,8,0:0:0:0:
256,192,6009,1,8,0:0:0:0:
256,192,6122,1,8,0:0:0:0:
256,192,6350,1,0,0:0:0:0:
256,192,6463,1,8,0:0:0:0:
256,192,6577,1,0,0:0:0:0:
256,192,6690,1,0,0:0:0:0:
256,192,6804,1,0,0:0:0:0:
256,192,6918,1,8,0:0:0:0:
256,192,7372,1,8,0:0:0:0:
256,192,7600,1,8,0:0:0:0:
256,192,7713,1,8,0:0:0:0:
256,192,7940,1,0,0:0:0:0:
256,192,8054,1,8,0:0:0:0:
256,192,8281,1,8,0:0:0:0:
256,192,8395,1,8,0:0:0:0:
256,192,8622,1,0,0:0:0:0:
256,192,8736,1,8,0:0:0:0:
256,192,8963,1,8,0:0:0:0:
256,192,9077,1,8,0:0:0:0:
256,192,9304,1,0,0:0:0:0:
256,192,9418,1,8,0:0:0:0:
256,192,9645,1,8,0:0:0:0:
256,192,9759,1,8,0:0:0:0:
256,192,9986,1,0,0:0:0:0:
256,192,10100,1,8,0:0:0:0:
256,192,10213,1,0,0:0:0:0:
256,192,10327,1,0,0:0:0:0:
256,192,10440,1,0,0:0:0:0:
256,192,10554,1,8,0:0:0:0:
256,192,11009,1,8,0:0:0:0:
256,192,11236,1,8,0:0:0:0:
256,192,11350,1,8,0:0:0:0:
256,192,11577,1,0,0:0:0:0:
256,192,11690,1,8,0:0:0:0:
256,192,11918,1,8,0:0:0:0:
256,192,12031,1,8,0:0:0:0:
256,192,12259,1,0,0:0:0:0:
256,192,12372,1,8,0:0:0:0:
256,192,12600,1,8,0:0:0:0:
256,192,12713,1,8,0:0:0:0:
256,192,12940,1,0,0:0:0:0:
256,192,13054,1,8,0:0:0:0:
256,192,13281,1,8,0:0:0:0:
256,192,13395,1,8,0:0:0:0:
256,192,13622,1,0,0:0:0:0:
256,192,13736,1,8,0:0:0:0:
256,192,13850,1,0,0:0:0:0:
256,192,13963,1,0,0:0:0:0:
256,192,14077,1,0,0:0:0:0:
256,192,14190,1,8,0:0:0:0:
256,192,14418,1,0,0:0:0:0:
256,192,14531,1,0,0:0:0:0:
256,192,14645,1,8,0:0:0:0:
256,192,14872,1,8,0:0:0:0:
256,192,14986,1,8,0:0:0:0:
256,192,15213,1,0,0:0:0:0:
256,192,15327,1,8,0:0:0:0:
256,192,15554,1,8,0:0:0:0:
256,192,15668,1,8,0:0:0:0:
256,192,15895,1,0,0:0:0:0:
256,192,16009,1,8,0:0:0:0:
256,192,16236,1,8,0:0:0:0:
256,192,16350,1,8,0:0:0:0:
256,192,16577,1,0,0:0:0:0:
256,192,16690,1,8,0:0:0:0:
256,192,16918,1,8,0:0:0:0:
256,192,17031,1,8,0:0:0:0:
256,192,17259,1,0,0:0:0:0:
256,192,17372,1,8,0:0:0:0:
256,192,17486,1,0,0:0:0:0:
256,192,17600,1,0,0:0:0:0:
256,192,17713,1,0,0:0:0:0:
256,192,17827,1,8,0:0:0:0:
256,192,18281,1,8,0:0:0:0:
256,192,18509,1,8,0:0:0:0:
256,192,18622,1,8,0:0:0:0:
256,192,18850,1,0,0:0:0:0:
256,192,18963,1,8,0:0:0:0:
256,192,19190,1,8,0:0:0:0:
256,192,19304,1,8,0:0:0:0:
256,192,19531,1,0,0:0:0:0:
256,192,19645,1,8,0:0:0:0:
256,192,19872,1,8,0:0:0:0:
256,192,19986,1,8,0:0:0:0:
256,192,20213,1,0,0:0:0:0:
256,192,20327,1,8,0:0:0:0:
256,192,20554,1,8,0:0:0:0:
256,192,20668,1,8,0:0:0:0:
256,192,20895,1,0,0:0:0:0:
256,192,21009,1,8,0:0:0:0:
256,192,21122,1,0,0:0:0:0:
256,192,21236,1,0,0:0:0:0:
256,192,21350,1,0,0:0:0:0:
256,192,21463,1,8,0:0:0:0:
256,192,21690,1,0,0:0:0:0:
256,192,21804,1,0,0:0:0:0:
256,192,21918,1,8,0:0:0:0:
256,192,22145,1,8,0:0:0:0:
256,192,22259,1,8,0:0:0:0:
256,192,22486,1,0,0:0:0:0:
256,192,22600,1,8,0:0:0:0:
256,192,22827,1,8,0:0:0:0:
256,192,22940,1,8,0:0:0:0:
256,192,23168,1,0,0:0:0:0:
256,192,23281,1,8,0:0:0:0:
256,192,23509,1,8,0:0:0:0:
256,192,23622,1,8,0:0:0:0:
256,192,23850,1,0,0:0:0:0:
256,192,23963,1,8,0:0:0:0:
256,192,24190,1,8,0:0:0:0:
256,192,24304,1,8,0:0:0:0:
256,192,24531,1,0,0:0:0:0:
256,192,24645,1,8,0:0:0:0:
256,192,24759,1,0,0:0:0:0:
256,192,24872,1,0,0:0:0:0:
256,192,24986,1,0,0:0:0:0:
256,192,25100,1,8,0:0:0:0:
256,192,25327,1,0,0:0:0:0:
256,192,25440,1,0,0:0:0:0:
256,192,25554,1,8,0:0:0:0:
256,192,25781,1,8,0:0:0:0:
256,192,25895,1,8,0:0:0:0:
256,192,26122,1,0,0:0:0:0:
256,192,26236,1,8,0:0:0:0:
256,192,26463,1,8,0:0:0:0:
256,192,26577,1,8,0:0:0:0:
256,192,26804,1,0,0:0:0:0:
256,192,26918,1,8,0:0:0:0:
256,192,27145,1,8,0:0:0:0:
256,192,27259,1,8,0:0:0:0:
256,192,27600,1,8,0:0:0:0:
256,192,27940,1,0,0:0:0:0:
256,192,28281,1,8,0:0:0:0:
256,192,28509,1,0,0:0:0:0:
256,192,28584,1,0,0:0:0:0:
256,192,28660,1,0,0:0:0:0:
256,192,28736,1,8,0:0:0:0:
256,192,28850,1,8,0:0:0:0:
256,192,28963,1,0,0:0:0:0:
256,192,29190,1,4,0:0:0:0:
256,192,29418,1,8,0:0:0:0:
256,192,29531,1,0,0:0:0:0:
256,192,29645,1,8,0:0:0:0:
256,192,29759,1,8,0:0:0:0:
256,192,29872,1,0,0:0:0:0:
256,192,30100,1,8,0:0:0:0:
256,192,30327,1,0,0:0:0:0:
256,192,30440,1,8,0:0:0:0:
256,192,30554,1,0,0:0:0:0:
256,192,30781,1,8,0:0:0:0:
256,192,31009,1,0,0:0:0:0:
256,192,31236,1,8,0:0:0:0:
256,192,31350,1,8,0:0:0:0:
256,192,31463,1,0,0:0:0:0:
256,192,31690,1,8,0:0:0:0:
256,192,31918,1,8,0:0:0:0:
256,192,32031,1,0,0:0:0:0:
256,192,32259,1,0,0:0:0:0:
256,192,32372,1,8,0:0:0:0:
256,192,32600,1,8,0:0:0:0:
256,192,32827,1,0,0:0:0:0:
256,192,33054,1,8,0:0:0:0:
256,192,33281,1,8,0:0:0:0:
256,192,33395,1,8,0:0:0:0:
256,192,33509,1,0,0:0:0:0:
256,192,33736,1,8,0:0:0:0:
256,192,33963,1,0,0:0:0:0:
256,192,34077,1,8,0:0:0:0:
256,192,34190,1,0,0:0:0:0:
256,192,34418,1,8,0:0:0:0:
256,192,34645,1,0,0:0:0:0:
256,192,34872,1,8,0:0:0:0:
256,192,35100,1,0,0:0:0:0:
256,192,35213,1,8,0:0:0:0:
256,192,35327,1,0,0:0:0:0:
256,192,35440,1,0,0:0:0:0:
256,192,35554,1,8,0:0:0:0:
256,192,35781,1,8,0:0:0:0:
256,192,36009,1,8,0:0:0:0:
256,192,36122,1,8,0:0:0:0:
256,192,36236,1,0,0:0:0:0:
256,192,36350,1,0,0:0:0:0:
256,192,36463,1,8,0:0:0:0:
256,192,36690,1,8,0:0:0:0:
256,192,36918,1,8,0:0:0:0:
256,192,37031,1,8,0:0:0:0:
256,192,37145,1,0,0:0:0:0:
256,192,37372,1,8,0:0:0:0:
256,192,37600,1,0,0:0:0:0:
256,192,37713,1,8,0:0:0:0:
256,192,37827,1,0,0:0:0:0:
256,192,38054,1,8,0:0:0:0:
256,192,38281,1,8,0:0:0:0:
256,192,38509,1,0,0:0:0:0:
256,192,38622,1,8,0:0:0:0:
256,192,38736,1,0,0:0:0:0:
256,192,38963,1,8,0:0:0:0:
256,192,39077,1,0,0:0:0:0:
256,192,39190,1,0,0:0:0:0:
256,192,39304,1,0,0:0:0:0:
256,192,39418,1,8,0:0:0:0:
256,192,39645,1,0,0:0:0:0:
256,192,39872,1,8,0:0:0:0:
256,192,39986,1,8,0:0:0:0:
256,192,40100,1,0,0:0:0:0:
256,192,40327,1,0,0:0:0:0:
256,192,40440,1,0,0:0:0:0:
256,192,40554,1,8,0:0:0:0:
256,192,40781,1,0,0:0:0:0:
256,192,40895,1,0,0:0:0:0:
256,192,41009,1,8,0:0:0:0:
256,192,41236,1,0,0:0:0:0:
256,192,41350,1,8,0:0:0:0:
256,192,41577,1,0,0:0:0:0:
256,192,41690,1,8,0:0:0:0:
256,192,41918,1,8,0:0:0:0:
256,192,42145,1,0,0:0:0:0:
256,192,42259,1,8,0:0:0:0:
256,192,42486,1,0,0:0:0:0:
256,192,42600,1,8,0:0:0:0:
256,192,42827,1,8,0:0:0:0:
256,192,43054,1,8,0:0:0:0:
256,192,43168,1,8,0:0:0:0:
256,192,43281,1,0,0:0:0:0:
256,192,43509,1,8,0:0:0:0:
256,192,43736,1,4,0:0:0:0:
256,192,43963,1,8,0:0:0:0:
256,192,44077,1,0,0:0:0:0:
256,192,44304,1,0,0:0:0:0:
256,192,44418,1,8,0:0:0:0:
256,192,44645,1,8,0:0:0:0:
256,192,44872,1,0,0:0:0:0:
256,192,44986,1,8,0:0:0:0:
256,192,45100,1,0,0:0:0:0:
256,192,45327,1,8,0:0:0:0:
256,192,45554,1,0,0:0:0:0:
256,192,45781,1,8,0:0:0:0:
256,192,46009,1,8,0:0:0:0:
256,192,46122,1,0,0:0:0:0:
256,192,46350,1,0,0:0:0:0:
256,192,46463,1,8,0:0:0:0:
256,192,46690,1,0,0:0:0:0:
256,192,46918,1,8,0:0:0:0:
256,192,47145,1,0,0:0:0:0:
256,192,47259,1,0,0:0:0:0:
256,192,47372,1,8,0:0:0:0:
256,192,47600,1,8,0:0:0:0:
256,192,47713,1,0,0:0:0:0:
256,192,47827,1,8,0:0:0:0:
256,192,48054,1,0,0:0:0:0:
256,192,48281,1,8,0:0:0:0:
256,192,48395,1,8,0:0:0:0:
256,192,48509,1,8,0:0:0:0:
256,192,48736,1,8,0:0:0:0:
256,192,48963,1,0,0:0:0:0:
256,192,49190,1,8,0:0:0:0:
256,192,49304,1,0,0:0:0:0:
256,192,49531,1,0,0:0:0:0:
256,192,49645,1,8,0:0:0:0:
256,192,49872,1,8,0:0:0:0:
256,192,50100,1,0,0:0:0:0:
256,192,50213,1,8,0:0:0:0:
256,192,50327,1,0,0:0:0:0:
256,192,50440,1,0,0:0:0:0:
256,192,50554,1,8,0:0:0:0:
256,192,50781,1,8,0:0:0:0:
256,192,50895,1,8,0:0:0:0:
256,192,51009,1,4,0:0:0:0:
256,192,51236,1,8,0:0:0:0:
256,192,51350,1,0,0:0:0:0:
256,192,51577,1,0,0:0:0:0:
256,192,51690,1,8,0:0:0:0:
256,192,51918,1,8,0:0:0:0:
256,192,52145,1,0,0:0:0:0:
256,192,52259,1,8,0:0:0:0:
256,192,52372,1,0,0:0:0:0:
256,192,52600,1,0,0:0:0:0:
256,192,52713,1,8,0:0:0:0:
256,192,52827,1,8,0:0:0:0:
256,192,52940,1,0,0:0:0:0:
256,192,53054,1,0,0:0:0:0:
256,192,53168,1,0,0:0:0:0:
256,192,53281,1,8,0:0:0:0:
256,192,53509,1,8,0:0:0:0:
256,192,53736,1,8,0:0:0:0:
256,192,53850,1,0,0:0:0:0:
256,192,53963,1,0,0:0:0:0:
256,192,54077,1,8,0:0:0:0:
256,192,54190,1,0,0:0:0:0:
256,192,54418,1,8,0:0:0:0:
256,192,54645,1,0,0:0:0:0:
256,192,54759,1,0,0:0:0:0:
256,192,54872,1,8,0:0:0:0:
256,192,54986,1,8,0:0:0:0:
256,192,55100,1,0,0:0:0:0:
256,192,55213,1,0,0:0:0:0:
256,192,55327,1,8,0:0:0:0:
256,192,55554,1,0,0:0:0:0:
256,192,55668,1,8,0:0:0:0:
256,192,55781,1,8,0:0:0:0:
256,192,55895,1,8,0:0:0:0:
256,192,56009,1,0,0:0:0:0:
256,192,56122,1,0,0:0:0:0:
256,192,56236,1,8,0:0:0:0:
256,192,56463,1,8,0:0:0:0:
256,192,56690,1,0,0:0:0:0:
256,192,56804,1,8,0:0:0:0:
256,192,56918,1,0,0:0:0:0:
256,192,57031,1,0,0:0:0:0:
256,192,57145,1,8,0:0:0:0:
256,192,57259,1,8,0:0:0:0:
256,192,57372,1,0,0:0:0:0:
256,192,57600,1,8,0:0:0:0:
256,192,57713,1,8,0:0:0:0:
256,192,57827,1,0,0:0:0:0:
256,192,57940,1,0,0:0:0:0:
256,192,58054,1,8,0:0:0:0:
256,192,58168,1,8,0:0:0:0:
256,192,58281,1,4,0:0:0:0:
256,192,58736,1,8,0:0:0:0:
256,192,58963,1,0,0:0:0:0:
256,192,59190,1,0,0:0:0:0:
256,192,59418,1,0,0:0:0:0:
256,192,59531,1,0,0:0:0:0:
256,192,59645,1,8,0:0:0:0:
256,192,59759,1,8,0:0:0:0:
256,192,59872,1,0,0:0:0:0:
256,192,60100,1,0,0:0:0:0:
256,192,60327,1,0,0:0:0:0:
256,192,60440,1,0,0:0:0:0:
256,192,60554,1,8,0:0:0:0:
256,192,60781,1,0,0:0:0:0:
256,192,61009,1,0,0:0:0:0:
256,192,61122,1,8,0:0:0:0:
256,192,61236,1,0,0:0:0:0:
256,192,61350,1,0,0:0:0:0:
256,192,61463,1,8,0:0:0:0:
256,192,61690,1,0,0:0:0:0:
256,192,61804,1,8,0:0:0:0:
256,192,61918,1,0,0:0:0:0:
256,192,62145,1,0,0:0:0:0:
256,192,62259,1,0,0:0:0:0:
256,192,62372,1,8,0:0:0:0:
256,192,62600,1,0,0:0:0:0:
256,192,62827,1,0,0:0:0:0:
256,192,63054,1,0,0:0:0:0:
256,192,63281,1,8,0:0:0:0:
256,192,63509,1,0,0:0:0:0:
256,192,63622,1,0,0:0:0:0:
256,192,63736,1,0,0:0:0:0:
256,192,63963,1,0,0:0:0:0:
256,192,64190,1,8,0:0:0:0:
256,192,64418,1,0,0:0:0:0:
256,192,64531,1,8,0:0:0:0:
256,192,64645,1,0,0:0:0:0:
256,192,64872,1,0,0:0:0:0:
256,192,64986,1,0,0:0:0:0:
256,192,65100,1,8,0:0:0:0:
256,192,65213,1,8,0:0:0:0:
256,192,65327,1,8,0:0:0:0:
256,192,65440,1,8,0:0:0:0:
256,192,65554,1,0,0:0:0:0:
256,192,65781,1,0,0:0:0:0:
256,192,66009,1,8,0:0:0:0:
256,192,66236,1,0,0:0:0:0:
256,192,66350,1,0,0:0:0:0:
256,192,66463,1,0,0:0:0:0:
256,192,66690,1,8,0:0:0:0:
256,192,66918,1,0,0:0:0:0:
256,192,67031,1,8,0:0:0:0:
256,192,67259,1,0,0:0:0:0:
256,192,67372,1,8,0:0:0:0:
256,192,67600,1,0,0:0:0:0:
256,192,67713,1,0,0:0:0:0:
256,192,67827,1,8,0:0:0:0:
256,192,68054,1,0,0:0:0:0:
256,192,68281,1,0,0:0:0:0:
256,192,68395,1,8,0:0:0:0:
256,192,68509,1,0,0:0:0:0:
256,192,68622,1,0,0:0:0:0:
256,192,68736,1,8,0:0:0:0:
256,192,68963,1,0,0:0:0:0:
256,192,69077,1,8,0:0:0:0:
256,192,69190,1,0,0:0:0:0:
256,192,69418,1,0,0:0:0:0:
256,192,69645,1,8,0:0:0:0:
256,192,69872,1,0,0:0:0:0:
256,192,69986,1,8,0:0:0:0:
256,192,70100,1,0,0:0:0:0:
256,192,70327,1,8,0:0:0:0:
256,192,70554,1,0,0:0:0:0:
256,192,70668,1,8,0:0:0:0:
256,192,70895,1,0,0:0:0:0:
256,192,71009,1,8,0:0:0:0:
256,192,71463,1,8,0:0:0:0:
256,192,71918,1,8,0:0:0:0:
256,192,72145,1,0,0:0:0:0:
256,192,72259,1,0,0:0:0:0:
256,192,72372,1,8,0:0:0:0:
256,192,72486,1,8,0:0:0:0:
256,192,72600,1,8,0:0:0:0:
256,192,72713,1,8,0:0:0:0:
256,192,72827,1,4,0:0:0:0:
256,192,73054,1,8,0:0:0:0:
256,192,73281,1,0,0:0:0:0:
256,192,73395,1,8,0:0:0:0:
256,192,73622,1,0,0:0:0:0:
256,192,73736,1,8,0:0:0:0:
256,192,74190,1,0,0:0:0:0:
256,192,74418,1,8,0:0:0:0:
256,192,74645,1,0,0:0:0:0:
256,192,74872,1,8,0:0:0:0:
256,192,75100,1,0,0:0:0:0:
256,192,75213,1,8,0:0:0:0:
256,192,75440,1,0,0:0:0:0:
256,192,75554,1,8,0:0:0:0:
256,192,76009,1,0,0:0:0:0:
256,192,76236,1,8,0:0:0:0:
256,192,76350,1,0,0:0:0:0:
256,192,76463,1,0,0:0:0:0:
256,192,76690,1,8,0:0:0:0:
256,192,76918,1,0,0:0:0:0:
256,192,77031,1,8,0:0:0:0:
256,192,77259,1,0,0:0:0:0:
256,192,77372,1,8,0:0:0:0:
256,192,77827,1,0,0:0:0:0:
256,192,78054,1,8,0:0:0:0:
256,192,78281,1,0,0:0:0:0:
256,192,78509,1,8,0:0:0:0:
256,192,78736,1,0,0:0:0:0:
256,192,78850,1,8,0:0:0:0:
256,192,79077,1,0,0:0:0:0:
256,192,79190,1,8,0:0:0:0:
256,192,79418,1,0,0:0:0:0:
256,192,79645,1,8,0:0:0:0:
256,192,79759,1,8,0:0:0:0:
256,192,79872,1,8,0:0:0:0:
256,192,79986,1,8,0:0:0:0:
256,192,80100,1,4,0:0:0:0:
256,192,80327,1,8,0:0:0:0:
256,192,80554,1,0,0:0:0:0:
256,192,80668,1,8,0:0:0:0:
256,192,80895,1,0,0:0:0:0:
256,192,81009,1,8,0:0:0:0:
256,192,81463,1,0,0:0:0:0:
256,192,81690,1,8,0:0:0:0:
256,192,81918,1,0,0:0:0:0:
256,192,82145,1,8,0:0:0:0:
256,192,82372,1,0,0:0:0:0:
256,192,82486,1,8,0:0:0:0:
256,192,82713,1,0,0:0:0:0:
256,192,82827,1,8,0:0:0:0:
256,192,83281,1,0,0:0:0:0:
256,192,83509,1,8,0:0:0:0:
256,192,83736,1,0,0:0:0:0:
256,192,83963,1,8,0:0:0:0:
256,192,84190,1,0,0:0:0:0:
256,192,84304,1,8,0:0:0:0:
256,192,84531,1,0,0:0:0:0:
256,192,84645,1,8,0:0:0:0:
256,192,84872,1,0,0:0:0:0:
256,192,84986,1,0,0:0:0:0:
256,192,85100,1,8,0:0:0:0:
256,192,85213,1,8,0:0:0:0:
256,192,85327,1,8,0:0:0:0:
256,192,85440,1,8,0:0:0:0:
256,192,85554,1,0,0:0:0:0:
256,192,86690,1,0,0:0:0:0:
256,192,86918,1,8,0:0:0:0:
256,192,86993,1,8,0:0:0:0:
256,192,87069,1,8,0:0:0:0:
256,192,87145,1,0,0:0:0:0:
256,192,87372,1,4,0:0:0:0:
256,192,87600,1,8,0:0:0:0:
256,192,87713,1,0,0:0:0:0:
256,192,87827,1,8,0:0:0:0:
256,192,87940,1,8,0:0:0:0:
256,192,88054,1,0,0:0:0:0:
256,192,88281,1,8,0:0:0:0:
256,192,88509,1,0,0:0:0:0:
256,192,88622,1,8,0:0:0:0:
256,192,88736,1,0,0:0:0:0:
256,192,88963,1,8,0:0:0:0:
256,192,89190,1,0,0:0:0:0:
256,192,89418,1,8,0:0:0:0:
256,192,89531,1,8,0:0:0:0:
256,192,89645,1,0,0:0:0:0:
256,192,89872,1,8,0:0:0:0:
256,192,90100,1,8,0:0:0:0:
256,192,90213,1,0,0:0:0:0:
256,192,90440,1,0,0:0:0:0:
256,192,90554,1,8,0:0:0:0:
256,192,90781,1,8,0:0:0:0:
256,192,91009,1,0,0:0:0:0:
256,192,91236,1,8,0:0:0:0:
256,192,91463,1,8,0:0:0:0:
256,192,91577,1,8,0:0:0:0:
256,192,91690,1,0,0:0:0:0:
256,192,91918,1,8,0:0:0:0:
256,192,92145,1,0,0:0:0:0:
256,192,92259,1,8,0:0:0:0:
256,192,92372,1,0,0:0:0:0:
256,192,92600,1,8,0:0:0:0:
256,192,92827,1,0,0:0:0:0:
256,192,93054,1,8,0:0:0:0:
256,192,93281,1,0,0:0:0:0:
256,192,93395,1,8,0:0:0:0:
256,192,93509,1,0,0:0:0:0:
256,192,93622,1,0,0:0:0:0:
256,192,93736,1,8,0:0:0:0:
256,192,93963,1,8,0:0:0:0:
256,192,94190,1,8,0:0:0:0:
256,192,94304,1,8,0:0:0:0:
256,192,94418,1,0,0:0:0:0:
256,192,94531,1,0,0:0:0:0:
256,192,94645,1,8,0:0:0:0:
256,192,94872,1,8,0:0:0:0:
256,192,95100,1,8,0:0:0:0:
256,192,95213,1,8,0:0:0:0:
256,192,95327,1,0,0:0:0:0:
256,192,95554,1,8,0:0:0:0:
256,192,95781,1,0,0:0:0:0:
256,192,95895,1,8,0:0:0:0:
256,192,96009,1,0,0:0:0:0:
256,192,96236,1,8,0:0:0:0:
256,192,96463,1,8,0:0:0:0:
256,192,96690,1,0,0:0:0:0:
256,192,96804,1,8,0:0:0:0:
256,192,96918,1,0,0:0:0:0:
256,192,97145,1,8,0:0:0:0:
256,192,97259,1,0,0:0:0:0:
256,192,97372,1,0,0:0:0:0:
256,192,97486,1,0,0:0:0:0:
256,192,97600,1,8,0:0:0:0:
256,192,97827,1,0,0:0:0:0:
256,192,98054,1,8,0:0:0:0:
256,192,98168,1,8,0:0:0:0:
256,192,98281,1,0,0:0:0:0:
256,192,98509,1,0,0:0:0:0:
256,192,98622,1,0,0:0:0:0:
256,192,98736,1,8,0:0:0:0:
256,192,98963,1,0,0:0:0:0:
256,192,99077,1,0,0:0:0:0:
256,192,99190,1,8,0:0:0:0:
256,192,99418,1,0,0:0:0:0:
256,192,99531,1,8,0:0:0:0:
256,192,99759,1,0,0:0:0:0:
256,192,99872,1,8,0:0:0:0:
256,192,100100,1,8,0:0:0:0:
256,192,100327,1,0,0:0:0:0:
256,192,100554,1,8,0:0:0:0:
256,192,100668,1,8,0:0:0:0:
256,192,100781,1,0,0:0:0:0:
256,192,101009,1,8,0:0:0:0:
256,192,101236,1,8,0:0:0:0:
256,192,101350,1,8,0:0:0:0:
256,192,101463,1,0,0:0:0:0:
256,192,101577,1,0,0:0:0:0:
256,192,101690,1,8,0:0:0:0:
256,192,101804,1,8,0:0:0:0:
256,192,101918,1,4,0:0:0:0:
256,192,102145,1,8,0:0:0:0:
256,192,102259,1,0,0:0:0:0:
256,192,102372,1,8,0:0:0:0:
256,192,102486,1,8,0:0:0:0:
256,192,102600,1,0,0:0:0:0:
256,192,102827,1,8,0:0:0:0:
256,192,103054,1,0,0:0:0:0:
256,192,103168,1,8,0:0:0:0:
256,192,103281,1,0,0:0:0:0:
256,192,103509,1,8,0:0:0:0:
256,192,103736,1,0,0:0:0:0:
256,192,103963,1,8,0:0:0:0:
256,192,104077,1,8,0:0:0:0:
256,192,104190,1,0,0:0:0:0:
256,192,104418,1,8,0:0:0:0:
256,192,104645,1,8,0:0:0:0:
256,192,104759,1,0,0:0:0:0:
256,192,104986,1,0,0:0:0:0:
256,192,105100,1,8,0:0:0:0:
256,192,105327,1,8,0:0:0:0:
256,192,105554,1,0,0:0:0:0:
256,192,105781,1,8,0:0:0:0:
256,192,106009,1,8,0:0:0:0:
256,192,106122,1,8,0:0:0:0:
256,192,106236,1,0,0:0:0:0:
256,192,106463,1,8,0:0:0:0:
256,192,106690,1,0,0:0:0:0:
256,192,106804,1,8,0:0:0:0:
256,192,106918,1,0,0:0:0:0:
256,192,107145,1,8,0:0:0:0:
256,192,107372,1,0,0:0:0:0:
256,192,107600,1,8,0:0:0:0:
256,192,107827,1,0,0:0:0:0:
256,192,107940,1,8,0:0:0:0:
256,192,108054,1,0,0:0:0:0:
256,192,108168,1,0,0:0:0:0:
256,192,108281,1,8,0:0:0:0:
256,192,108509,1,8,0:0:0:0:
256,192,108736,1,8,0:0:0:0:
256,192,108850,1,8,0:0:0:0:
256,192,108963,1,0,0:0:0:0:
256,192,109077,1,0,0:0:0:0:
256,192,109190,1,8,0:0:0:0:
256,192,109418,1,8,0:0:0:0:
256,192,109645,1,8,0:0:0:0:
256,192,109759,1,8,0:0:0:0:
256,192,109872,1,0,0:0:0:0:
256,192,110100,1,8,0:0:0:0:
256,192,110327,1,0,0:0:0:0:
256,192,110440,1,8,0:0:0:0:
256,192,110554,1,0,0:0:0:0:
256,192,110781,1,8,0:0:0:0:
256,192,111009,1,8,0:0:0:0:
256,192,111236,1,0,0:0:0:0:
256,192,111350,1,8,0:0:0:0:
256,192,111463,1,0,0:0:0:0:
256,192,111690,1,8,0:0:0:0:
256,192,111804,1,0,0:0:0:0:
256,192,111918,1,0,0:0:0:0:
256,192,112031,1,0,0:0:0:0:
256,192,112145,1,8,0:0:0:0:
256,192,112372,1,0,0:0:0:0:
256,192,112600,1,8,0:0:0:0:
256,192,112713,1,8,0:0:0:0:
256,192,112827,1,0,0:0:0:0:
256,192,113054,1,0,0:0:0:0:
256,192,113168,1,0,0:0:0:0:
256,192,113281,1,8,0:0:0:0:
256,192,113509,1,0,0:0:0:0:
256,192,113622,1,0,0:0:0:0:
256,192,113736,1,8,0:0:0:0:
256,192,113963,1,0,0:0:0:0:
256,192,114077,1,8,0:0:0:0:
256,192,114304,1,0,0:0:0:0:
256,192,114418,1,8,0:0:0:0:
256,192,114645,1,8,0:0:0:0:
256,192,114872,1,0,0:0:0:0:
256,192,114986,1,8,0:0:0:0:
256,192,115213,1,0,0:0:0:0:
256,192,115327,1,8,0:0:0:0:
256,192,115554,1,8,0:0:0:0:
256,192,115781,1,8,0:0:0:0:
256,192,115895,1,8,0:0:0:0:
256,192,116009,1,0,0:0:0:0:
256,192,116122,1,0,0:0:0:0:
256,192,116236,1,8,0:0:0:0:
256,192,116350,1,8,0:0:0:0:
256,192,116463,1,4,0:0:0:0:
256,192,116690,1,0,0:0:0:0:
256,192,116804,1,8,0:0:0:0:
256,192,117031,1,8,0:0:0:0:
256,192,117145,1,0,0:0:0:0:
256,192,117372,1,8,0:0:0:0:
256,192,117600,1,0,0:0:0:0:
256,192,117713,1,8,0:0:0:0:
256,192,117827,1,0,0:0:0:0:
256,192,118054,1,8,0:0:0:0:
256,192,118281,1,8,0:0:0:0:
256,192,118509,1,0,0:0:0:0:
256,192,118622,1,0,0:0:0:0:
256,192,118736,1,8,0:0:0:0:
256,192,118850,1,8,0:0:0:0:
256,192,118963,1,0,0:0:0:0:
256,192,119190,1,8,0:0:0:0:
256,192,119418,1,8,0:0:0:0:
256,192,119645,1,8,0:0:0:0:
256,192,119872,1,0,0:0:0:0:
256,192,120100,1,8,0:0:0:0:
256,192,120327,1,0,0:0:0:0:
256,192,120440,1,8,0:0:0:0:
256,192,120668,1,8,0:0:0:0:
256,192,120781,1,0,0:0:0:0:
256,192,121009,1,8,0:0:0:0:
256,192,121236,1,0,0:0:0:0:
256,192,121350,1,8,0:0:0:0:
256,192,121577,1,8,0:0:0:0:
256,192,121690,1,8,0:0:0:0:
256,192,121804,1,8,0:0:0:0:
256,192,121918,1,0,0:0:0:0:
256,192,122145,1,8,0:0:0:0:
256,192,122372,1,0,0:0:0:0:
256,192,122600,1,8,0:0:0:0:
256,192,122713,1,0,0:0:0:0:
256,192,122827,1,0,0:0:0:0:
256,192,122940,1,8,0:0:0:0:
256,192,123168,1,0,0:0:0:0:
256,192,123281,1,8,0:0:0:0:
256,192,123509,1,8,0:0:0:0:
256,192,123622,1,8,0:0:0:0:
256,192,123736,1,0,0:0:0:0:
256,192,123963,1,8,0:0:0:0:
256,192,124077,1,0,0:0:0:0:
256,192,124304,1,0,0:0:0:0:
256,192,124418,1,8,0:0:0:0:
256,192,124645,1,8,0:0:0:0:
256,192,124872,1,0,0:0:0:0:
256,192,124986,1,0,0:0:0:0:
256,192,125100,1,8,0:0:0:0:
256,192,125327,1,0,0:0:0:0:
256,192,125554,1,8,0:0:0:0:
256,192,125668,1,0,0:0:0:0:
256,192,125781,1,0,0:0:0:0:
256,192,125895,1,8,0:0:0:0:
256,192,126122,1,8,0:0:0:0:
256,192,126350,1,8,0:0:0:0:
256,192,126463,1,8,0:0:0:0:
256,192,126577,1,0,0:0:0:0:
256,192,126804,1,8,0:0:0:0:
256,192,126918,1,0,0:0:0:0:
256,192,127145,1,8,0:0:0:0:
256,192,127372,1,0,0:0:0:0:
256,192,127486,1,0,0:0:0:0:
256,192,127600,1,8,0:0:0:0:
256,192,127713,1,8,0:0:0:0:
256,192,127827,1,0,0:0:0:0:
256,192,127940,1,0,0:0:0:0:
256,192,128054,1,8,0:0:0:0:
256,192,128281,1,0,0:0:0:0:
256,192,128395,1,8,0:0:0:0:
256,192,128509,1,8,0:0:0:0:
256,192,128622,1,8,0:0:0:0:
256,192,128736,1,0,0:0:0:0:
256,192,128850,1,0,0:0:0:0:
256,192,128963,1,8,0:0:0:0:
256,192,129190,1,8,0:0:0:0:
256,192,129418,1,8,0:0:0:0:
256,192,129531,1,8,0:0:0:0:
256,192,129645,1,0,0:0:0:0:
256,192,129759,1,0,0:0:0:0:
256,192,129872,1,8,0:0:0:0:
256,192,129986,1,0,0:0:0:0:
256,192,130100,1,8,0:0:0:0:
256,192,130327,1,8,0:0:0:0:
256,192,130440,1,8,0:0:0:0:
256,192,130554,1,0,0:0:0:0:
256,192,130668,1,0,0:0:0:0:
256,192,130781,1,8,0:0:0:0:
256,192,130895,1,8,0:0:0:0:
256,192,131009,1,0,0:0:0:0:
256,192,131122,1,8,0:0:0:0:
256,192,131350,1,0,0:0:0:0:
256,192,131463,1,8,0:0:0:0:
256,192,131690,1,8,0:0:0:0:
256,192,131804,1,0,0:0:0:0:
256,192,131918,1,8,0:0:0:0:
256,192,132145,1,0,0:0:0:0:
256,192,132259,1,8,0:0:0:0:
256,192,132372,1,8,0:0:0:0:
256,192,132600,1,0,0:0:0:0:
256,192,132713,1,0,0:0:0:0:
256,192,132827,1,8,0:0:0:0:
256,192,132940,1,8,0:0:0:0:
256,192,133054,1,0,0:0:0:0:
256,192,133168,1,0,0:0:0:0:
256,192,133281,1,8,0:0:0:0:
256,192,133395,1,0,0:0:0:0:
256,192,133509,1,8,0:0:0:0:
256,192,133622,1,8,0:0:0:0:
256,192,133736,1,0,0:0:0:0:
256,192,133963,1,12,0:0:0:0:
256,192,134190,1,12,0:0:0:0:
256,192,134418,1,8,0:0:0:0:
256,192,134531,1,8,0:0:0:0:
256,192,134645,1,0,0:0:0:0:
256,192,134759,1,8,0:0:0:0:
256,192,134986,1,0,0:0:0:0:
256,192,135100,1,8,0:0:0:0:
256,192,135327,1,8,0:0:0:0:
256,192,135440,1,0,0:0:0:0:
256,192,135554,1,8,0:0:0:0:
256,192,135668,1,8,0:0:0:0:
256,192,135781,1,0,0:0:0:0:
256,192,135895,1,0,0:0:0:0:
256,192,136009,1,8,0:0:0:0:
256,192,136122,1,0,0:0:0:0:
256,192,136236,1,8,0:0:0:0:
256,192,136463,1,8,0:0:0:0:
256,192,136577,1,0,0:0:0:0:
256,192,136690,1,8,0:0:0:0:
256,192,136804,1,8,0:0:0:0:
256,192,136918,1,0,0:0:0:0:
256,192,137031,1,8,0:0:0:0:
256,192,137259,1,8,0:0:0:0:
256,192,137372,1,0,0:0:0:0:
256,192,137600,1,8,0:0:0:0:
256,192,137713,1,0,0:0:0:0:
256,192,137827,1,8,0:0:0:0:
256,192,138054,1,8,0:0:0:0:
256,192,138168,1,8,0:0:0:0:
256,192,138281,1,0,0:0:0:0:
256,192,138395,1,8,0:0:0:0:
256,192,138509,1,0,0:0:0:0:
256,192,138622,1,0,0:0:0:0:
256,192,138736,1,8,0:0:0:0:
256,192,138963,1,8,0:0:0:0:
256,192,139077,1,8,0:0:0:0:
256,192,139190,1,0,0:0:0:0:
256,192,139418,1,0,0:0:0:0:
256,192,139531,1,0,0:0:0:0:
256,192,139645,1,8,0:0:0:0:
256,192,139872,1,8,0:0:0:0:
256,192,139986,1,0,0:0:0:0:
256,192,140100,1,8,0:0:0:0:
256,192,140213,1,0,0:0:0:0:
256,192,140440,1,8,0:0:0:0:
256,192,140554,1,8,0:0:0:0:
256,192,140668,1,0,0:0:0:0:
256,192,140781,1,8,0:0:0:0:
256,192,140895,1,0,0:0:0:0:
256,192,141009,1,8,0:0:0:0:
256,192,141122,1,8,0:0:0:0:
256,192,141236,1,0,0:0:0:0:
256,192,141463,1,8,0:0:0:0:
256,192,141690,1,0,0:0:0:0:
256,192,141804,1,8,0:0:0:0:
256,192,141918,1,0,0:0:0:0:
256,192,142145,1,8,0:0:0:0:
256,192,142259,1,0,0:0:0:0:
256,192,142600,1,8,0:0:0:0:
256,192,142827,1,0,0:0:0:0:
256,192,143054,1,8,0:0:0:0:
256,192,143168,1,0,0:0:0:0:
256,192,143281,1,8,0:0:0:0:
256,192,143509,1,8,0:0:0:0:
256,192,143736,1,0,0:0:0:0:
256,192,143850,1,8,0:0:0:0:
256,192,143963,1,8,0:0:0:0:
256,192,144190,1,0,0:0:0:0:
256,192,144418,1,8,0:0:0:0:
256,192,144531,1,8,0:0:0:0:
256,192,144645,1,0,0:0:0:0:
256,192,144872,1,12,0:0:0:0:
256,192,145100,1,12,0:0:0:0:
256,192,145554,1,8,0:0:0:0:
256,192,145781,1,0,0:0:0:0:
256,192,146009,1,8,0:0:0:0:
256,192,146236,1,0,0:0:0:0:
256,192,146463,1,8,0:0:0:0:
256,192,146690,1,0,0:0:0:0:
256,192,146918,1,8,0:0:0:0:
256,192,147145,1,0,0:0:0:0:
256,192,147372,1,8,0:0:0:0:
256,192,147600,1,0,0:0:0:0:
256,192,147713,1,8,0:0:0:0:
256,192,147940,1,0,0:0:0:0:
256,192,148054,1,8,0:0:0:0:
256,192,148281,1,0,0:0:0:0:
256,192,148509,1,8,0:0:0:0:
256,192,148622,1,0,0:0:0:0:
256,192,148736,1,8,0:0:0:0:
256,192,148963,1,8,0:0:0:0:
256,192,149190,1,8,0:0:0:0:
256,192,149418,1,0,0:0:0:0:
256,192,149645,1,8,0:0:0:0:
256,192,149872,1,0,0:0:0:0:
256,192,150100,1,8,0:0:0:0:
256,192,150327,1,0,0:0:0:0:
256,192,150554,1,8,0:0:0:0:
256,192,150781,1,8,0:0:0:0:
256,192,151009,1,8,0:0:0:0:
256,192,151463,1,8,0:0:0:0:
256,192,151918,1,8,0:0:0:0:
256,192,152372,1,8,0:0:0:0:
256,192,152486,1,8,0:0:0:0:
256,192,152600,1,0,0:0:0:0:
256,192,152827,1,8,0:0:0:0:
256,192,153054,1,0,0:0:0:0:
256,192,153281,1,8,0:0:0:0:
256,192,153509,1,0,0:0:0:0:
256,192,153736,1,8,0:0:0:0:
256,192,153963,1,0,0:0:0:0:
256,192,154190,1,8,0:0:0:0:
256,192,154418,1,0,0:0:0:0:
256,192,154645,1,8,0:0:0:0:
256,192,154872,1,0,0:0:0:0:
256,192,154986,1,8,0:0:0:0:
256,192,155213,1,0,0:0:0:0:
256,192,155327,1,8,0:0:0:0:
256,192,155554,1,8,0:0:0:0:
256,192,155781,1,0,0:0:0:0:
256,192,156009,1,8,0:0:0:0:
256,192,156236,1,8,0:0:0:0:
256,192,156350,1,0,0:0:0:0:
256,192,156463,1,8,0:0:0:0:
256,192,156690,1,0,0:0:0:0:
256,192,156804,1,0,0:0:0:0:
256,192,156918,1,8,0:0:0:0:
256,192,157031,1,8,0:0:0:0:
256,192,157145,1,0,0:0:0:0:
256,192,157259,1,0,0:0:0:0:
256,192,157372,1,8,0:0:0:0:
256,192,157600,1,0,0:0:0:0:
256,192,157713,1,8,0:0:0:0:
256,192,157827,1,8,0:0:0:0:
256,192,157940,1,8,0:0:0:0:
256,192,158054,1,0,0:0:0:0:
256,192,158168,1,0,0:0:0:0:
256,192,158281,1,8,0:0:0:0:
256,192,158509,1,0,0:0:0:0:
256,192,158736,1,8,0:0:0:0:
256,192,158963,1,0,0:0:0:0:
256,192,159077,1,0,0:0:0:0:
256,192,159190,1,8,0:0:0:0:
256,192,159418,1,0,0:0:0:0:
256,192,159645,1,8,0:0:0:0:
256,192,159759,1,8,0:0:0:0:
256,192,159872,1,8,0:0:0:0:
256,192,159986,1,8,0:0:0:0:
256,192,160100,1,4,0:0:0:0:
256,192,160327,1,0,0:0:0:0:
256,192,160554,1,8,0:0:0:0:
256,192,160668,1,0,0:0:0:0:
256,192,160781,1,8,0:0:0:0:
256,192,161009,1,8,0:0:0:0:
256,192,161236,1,8,0:0:0:0:
256,192,161350,1,8,0:0:0:0:
256,192,161463,1,0,0:0:0:0:
256,192,161690,1,8,0:0:0:0:
256,192,161918,1,0,0:0:0:0:
256,192,162145,1,8,0:0:0:0:
256,192,162372,1,8,0:0:0:0:
256,192,162486,1,0,0:0:0:0:
256,192,162600,1,8,0:0:0:0:
256,192,162827,1,8,0:0:0:0:
256,192,163054,1,0,0:0:0:0:
256,192,163168,1,0,0:0:0:0:
256,192,163281,1,8,0:0:0:0:
256,192,163509,1,8,0:0:0:0:
256,192,163736,1,0,0:0:0:0:
256,192,163963,1,0,0:0:0:0:
256,192,164190,1,8,0:0:0:0:
256,192,164304,1,0,0:0:0:0:
256,192,164418,1,8,0:0:0:0:
256,192,164645,1,8,0:0:0:0:
256,192,164872,1,8,0:0:0:0:
256,192,164986,1,8,0:0:0:0:
256,192,165100,1,0,0:0:0:0:
256,192,165327,1,8,0:0:0:0:
256,192,165554,1,0,0:0:0:0:
256,192,165781,1,8,0:0:0:0:
256,192,166009,1,8,0:0:0:0:
256,192,166122,1,8,0:0:0:0:
256,192,166236,1,0,0:0:0:0:
256,192,166463,1,8,0:0:0:0:
256,192,166690,1,0,0:0:0:0:
256,192,166804,1,0,0:0:0:0:
256,192,166918,1,8,0:0:0:0:
256,192,167145,1,8,0:0:0:0:
256,192,167259,1,8,0:0:0:0:
256,192,167372,1,0,0:0:0:0:
256,192,167600,1,0,0:0:0:0:
256,192,167827,1,8,0:0:0:0:
256,192,167940,1,0,0:0:0:0:
256,192,168054,1,8,0:0:0:0:
256,192,168281,1,8,0:0:0:0:
256,192,168509,1,8,0:0:0:0:
256,192,168622,1,8,0:0:0:0:
256,192,168736,1,0,0:0:0:0:
256,192,168963,1,8,0:0:0:0:
256,192,169190,1,0,0:0:0:0:
256,192,169418,1,8,0:0:0:0:
256,192,169531,1,8,0:0:0:0:
256,192,169645,1,0,0:0:0:0:
256,192,169872,1,8,0:0:0:0:
256,192,170100,1,8,0:0:0:0:
256,192,170327,1,0,0:0:0:0:
256,192,170440,1,0,0:0:0:0:
256,192,170554,1,8,0:0:0:0:
256,192,170781,1,8,0:0:0:0:
256,192,171009,1,0,0:0:0:0:
256,192,171236,1,8,0:0:0:0:
256,192,171350,1,8,0:0:0:0:
256,192,171463,1,0,0:0:0:0:
256,192,171577,1,0,0:0:0:0:
256,192,171690,1,8,0:0:0:0:
256,192,171918,1,8,0:0:0:0:
256,192,172145,1,8,0:0:0:0:
256,192,172259,1,8,0:0:0:0:
256,192,172372,1,0,0:0:0:0:
256,192,172486,1,0,0:0:0:0:
256,192,172600,1,8,0:0:0:0:
256,192,172827,1,8,0:0:0:0:
256,192,173054,1,0,0:0:0:0:
256,192,173168,1,8,0:0:0:0:
256,192,173395,1,0,0:0:0:0:
256,192,173509,1,8,0:0:0:0:
256,192,173736,1,0,0:0:0:0:
256,192,173963,1,8,0:0:0:0:
256,192,174077,1,8,0:0:0:0:
256,192,174190,1,0,0:0:0:0:
256,192,174418,1,8,0:0:0:0:
256,192,174645,1,12,0:0:0:0:
256,192,175781,1,0,0:0:0:0:
256,192,175895,1,0,0:0:0:0:
256,192,176009,1,8,0:0:0:0:
256,192,176236,1,8,0:0:0:0:
256,192,176350,1,0,0:0:0:0:
256,192,176463,1,0,0:0:0:0:
256,192,176690,1,0,0:0:0:0:
256,192,176804,1,0,0:0:0:0:
256,192,176918,1,8,0:0:0:0:
256,192,177145,1,0,0:0:0:0:
256,192,177259,1,0,0:0:0:0:
256,192,177372,1,8,0:0:0:0:
256,192,177600,1,8,0:0:0:0:
256,192,177713,1,8,0:0:0:0:
256,192,177827,1,0,0:0:0:0:
256,192,177940,1,0,0:0:0:0:
256,192,178054,1,8,0:0:0:0:
256,192,178168,1,0,0:0:0:0:
256,192,178281,1,8,0:0:0:0:
256,192,178736,1,8,0:0:0:0:
256,192,178963,1,0,0:0:0:0:
256,192,179190,1,8,0:0:0:0:
256,192,179531,1,8,0:0:0:0:
256,192,179872,1,8,0:0:0:0:
256,192,180327,1,8,0:0:0:0:
256,192,180554,1,0,0:0:0:0:
256,192,180668,1,8,0:0:0:0:
256,192,180895,1,0,0:0:0:0:
256,192,181009,1,8,0:0:0:0:
256,192,181236,1,0,0:0:0:0:
256,192,181463,1,8,0:0:0:0:
256,192,181690,1,0,0:0:0:0:
256,192,181804,1,0,0:0:0:0:
256,192,181918,1,8,0:0:0:0:
256,192,182372,1,8,0:0:0:0:
256,192,182600,1,0,0:0:0:0:
256,192,182827,1,8,0:0:0:0:
256,192,183168,1,8,0:0:0:0:
256,192,183509,1,8,0:0:0:0:
256,192,183736,1,0,0:0:0:0:
256,192,183963,1,8,0:0:0:0:
256,192,184190,1,0,0:0:0:0:
256,192,184304,1,8,0:0:0:0:
256,192,184531,1,0,0:0:0:0:
256,192,184645,1,8,0:0:0:0:
256,192,184872,1,0,0:0:0:0:
256,192,185100,1,8,0:0:0:0:
256,192,185327,1,0,0:0:0:0:
256,192,185554,1,8,0:0:0:0:
256,192,186009,1,8,0:0:0:0:
256,192,186236,1,0,0:0:0:0:
256,192,186463,1,8,0:0:0:0:
256,192,186804,1,8,0:0:0:0:
256,192,187145,1,8,0:0:0:0:
256,192,187600,1,8,0:0:0:0:
256,192,187827,1,0,0:0:0:0:
256,192,187940,1,8,0:0:0:0:
256,192,188168,1,0,0:0:0:0:
256,192,188281,1,8,0:0:0:0:
256,192,188509,1,0,0:0:0:0:
256,192,188736,1,8,0:0:0:0:
256,192,188963,1,0,0:0:0:0:
256,192,189077,1,0,0:0:0:0:
256,192,189190,1,8,0:0:0:0:
256,192,189645,1,8,0:0:0:0:
256,192,189872,1,0,0:0:0:0:
256,192,190100,1,8,0:0:0:0:
256,192,190440,1,8,0:0:0:0:
256,192,190781,1,8,0:0:0:0:
256,192,191009,1,0,0:0:0:0:
256,192,191236,1,8,0:0:0:0:
256,192,191463,1,0,0:0:0:0:
256,192,191577,1,8,0:0:0:0:
256,192,191804,1,0,0:0:0:0:
256,192,191918,1,8,0:0:0:0:
256,192,192145,1,8,0:0:0:0:
256,192,192259,1,0,0:0:0:0:
256,192,192372,1,8,0:0:0:0:
256,192,192827,1,8,0:0:0:0:
256,192,192940,1,0,0:0:0:0:
256,192,193054,1,8,0:0:0:0:
256,192,193281,1,8,0:0:0:0:
256,192,193395,1,0,0:0:0:0:
256,192,193509,1,8,0:0:0:0:
256,192,193736,1,8,0:0:0:0:
256,192,193850,1,0,0:0:0:0:
256,192,193963,1,8,0:0:0:0:
256,192,194190,1,8,0:0:0:0:
256,192,194304,1,0,0:0:0:0:
256,192,194418,1,8,0:0:0:0:
256,192,194645,1,0,0:0:0:0:
256,192,194759,1,8,0:0:0:0:
256,192,194986,1,8,0:0:0:0:
256,192,195100,1,8,0:0:0:0:
256,192,195213,1,0,0:0:0:0:
256,192,195440,1,8,0:0:0:0:
256,192,195554,1,8,0:0:0:0:
256,192,195668,1,0,0:0:0:0:
256,192,195781,1,8,0:0:0:0:
256,192,196009,1,8,0:0:0:0:
256,192,196463,1,8,0:0:0:0:
256,192,196690,1,8,0:0:0:0:
256,192,196918,1,0,0:0:0:0:
256,192,197145,1,0,0:0:0:0:
256,192,197372,1,8,0:0:0:0:
256,192,197600,1,8,0:0:0:0:
256,192,197827,1,0,0:0:0:0:
256,192,198054,1,0,0:0:0:0:
256,192,198281,1,8,0:0:0:0:
256,192,198509,1,8,0:0:0:0:
256,192,198622,1,0,0:0:0:0:
256,192,198736,1,8,0:0:0:0:
256,192,198850,1,0,0:0:0:0:
256,192,199077,1,8,0:0:0:0:
256,192,199190,1,8,0:0:0:0:
256,192,199418,1,0,0:0:0:0:
256,192,199645,1,8,0:0:0:0:
256,192,200100,1,8,0:0:0:0:
256,192,200213,1,0,0:0:0:0:
256,192,200327,1,8,0:0:0:0:
256,192,200554,1,8,0:0:0:0:
256,192,200668,1,0,0:0:0:0:
256,192,200781,1,8,0:0:0:0:
256,192,201009,1,8,0:0:0:0:
256,192,201122,1,0,0:0:0:0:
256,192,201236,1,8,0:0:0:0:
256,192,201463,1,8,0:0:0:0:
256,192,201577,1,0,0:0:0:0:
256,192,201690,1,8,0:0:0:0:
256,192,201918,1,8,0:0:0:0:
256,192,202145,1,0,0:0:0:0:
256,192,202259,1,8,0:0:0:0:
256,192,202372,1,8,0:0:0:0:
256,192,202486,1,0,0:0:0:0:
256,192,202713,1,0,0:0:0:0:
256,192,202827,1,8,0:0:0:0:
256,192,203054,1,0,0:0:0:0:
256,192,203281,1,8,0:0:0:0:
256,192,203736,1,8,0:0:0:0:
256,192,203963,1,8,0:0:0:0:
256,192,204190,1,0,0:0:0:0:
256,192,204418,1,0,0:0:0:0:
256,192,204645,1,8,0:0:0:0:
256,192,204872,1,8,0:0:0:0:
256,192,205100,1,0,0:0:0:0:
256,192,205327,1,0,0:0:0:0:
256,192,205554,1,0,0:0:0:0:
256,192,205668,1,8,0:0:0:0:
256,192,205781,1,8,0:0:0:0:
256,192,205895,1,8,0:0:0:0:
256,192,206009,1,0,0:0:0:0:
256,192,206236,1,8,0:0:0:0:
256,192,206350,1,0,0:0:0:0:
256,192,206463,1,8,0:0:0:0:
256,192,206690,1,8,0:0:0:0:
256,192,206918,1,8,0:0:0:0:
256,192,207031,1,0,0:0:0:0:
256,192,207145,1,8,0:0:0:0:
256,192,207372,1,8,0:0:0:0:
256,192,207600,1,0,0:0:0:0:
256,192,207827,1,0,0:0:0:0:
256,192,208054,1,8,0:0:0:0:
256,192,208281,1,0,0:0:0:0:
256,192,208509,1,8,0:0:0:0:
256,192,208622,1,0,0:0:0:0:
256,192,208736,1,8,0:0:0:0:
256,192,208963,1,8,0:0:0:0:
256,192,209190,1,0,0:0:0:0:
256,192,209304,1,8,0:0:0:0:
256,192,209418,1,8,0:0:0:0:
256,192,209531,1,8,0:0:0:0:
256,192,209645,1,0,0:0:0:0:
256,192,209872,1,8,0:0:0:0:
256,192,209986,1,0,0:0:0:0:
256,192,210100,1,8,0:0:0:0:
256,192,210327,1,8,0:0:0:0:
256,192,210440,1,0,0:0:0:0:
256,192,210554,1,8,0:0:0:0:
256,192,210781,1,0,0:0:0:0:
256,192,211009,1,12,0:0:0:0:
256,192,211463,1,8,0:0:0:0:
256,192,211690,1,0,0:0:0:0:
256,192,211804,1,0,0:0:0:0:
256,192,211918,1,8,0:0:0:0:
256,192,212145,1,0,0:0:0:0:
256,192,212372,1,8,0:0:0:0:
256,192,212486,1,8,0:0:0:0:
256,192,212600,1,8,0:0:0:0:
256,192,212713,1,8,0:0:0:0:
256,192,212827,1,4,0:0:0:0:
256,192,213054,1,0,0:0:0:0:
256,192,213281,1,8,0:0:0:0:
256,192,213395,1,0,0:0:0:0:
256,192,213509,1,8,0:0:0:0:
256,192,213736,1,8,0:0:0:0:
256,192,213963,1,8,0:0:0:0:
256,192,214077,1,8,0:0:0:0:
256,192,214190,1,0,0:0:0:0:
256,192,214418,1,8,0:0:0:0:
256,192,214645,1,0,0:0:0:0:
256,192,214872,1,8,0:0:0:0:
256,192,215100,1,8,0:0:0:0:
256,192,215213,1,0,0:0:0:0:
256,192,215327,1,8,0:0:0:0:
256,192,215554,1,8,0:0:0:0:
256,192,215781,1,0,0:0:0:0:
256,192,215895,1,0,0:0:0:0:
256,192,216009,1,8,0:0:0:0:
256,192,216236,1,8,0:0:0:0:
256,192,216463,1,0,0:0:0:0:
256,192,216690,1,0,0:0:0:0:
256,192,216918,1,8,0:0:0:0:
256,192,217031,1,0,0:0:0:0:
256,192,217145,1,8,0:0:0:0:
256,192,217372,1,8,0:0:0:0:
256,192,217600,1,8,0:0:0:0:
256,192,217713,1,8,0:0:0:0:
256,192,217827,1,0,0:0:0:0:
256,192,218054,1,8,0:0:0:0:
256,192,218281,1,0,0:0:0:0:
256,192,218509,1,8,0:0:0:0:
256,192,218736,1,8,0:0:0:0:
256,192,218850,1,8,0:0:0:0:
256,192,218963,1,0,0:0:0:0:
256,192,219190,1,8,0:0:0:0:
256,192,219418,1,0,0:0:0:0:
256,192,219531,1,0,0:0:0:0:
256,192,219645,1,8,0:0:0:0:
256,192,219872,1,8,0:0:0:0:
256,192,219986,1,8,0:0:0:0:
256,192,220100,1,0,0:0:0:0:
256,192,220327,1,0,0:0:0:0:
256,192,220554,1,8,0:0:0:0:
256,192,220668,1,0,0:0:0:0:
256,192,220781,1,8,0:0:0:0:
256,192,221009,1,8,0:0:0:0:
256,192,221236,1,8,0:0:0:0:
256,192,221350,1,8,0:0:0:0:
256,192,221463,1,0,0:0:0:0:
256,192,221690,1,8,0:0:0:0:
256,192,221918,1,0,0:0:0:0:
256,192,222145,1,8,0:0:0:0:
256,192,222259,1,8,0:0:0:0:
256,192,222372,1,0,0:0:0:0:
256,192,222600,1,8,0:0:0:0:
256,192,222827,1,8,0:0:0:0:
256,192,223054,1,0,0:0:0:0:
256,192,223168,1,0,0:0:0:0:
256,192,223281,1,8,0:0:0:0:
256,192,223509,1,8,0:0:0:0:
256,192,223736,1,0,0:0:0:0:
256,192,223963,1,8,0:0:0:0:
256,192,224077,1,8,0:0:0:0:
256,192,224190,1,0,0:0:0:0:
256,192,224304,1,0,0:0:0:0:
256,192,224418,1,8,0:0:0:0:
256,192,224645,1,8,0:0:0:0:
256,192,224872,1,8,0:0:0:0:
256,192,224986,1,8,0:0:0:0:
256,192,225100,1,0,0:0:0:0:
256,192,225213,1,0,0:0:0:0:
256,192,225327,1,8,0:0:0:0:
256,192,225554,1,8,0:0:0:0:
256,192,225781,1,0,0:0:0:0:
256,192,225895,1,8,0:0:0:0:
256,192,226122,1,0,0:0:0:0:
256,192,226236,1,8,0:0:0:0:
256,192,226463,1,0,0:0:0:0:
256,192,226690,1,8,0:0:0:0:
256,192,226804,1,8,0:0:0:0:
256,192,226918,1,0,0:0:0:0:
256,192,227145,1,8,0:0:0:0:
256,192,227372,1,12,0:0:0:0:
256,192,228281,1,8,0:0:0:0:
256,192,228622,1,0,0:0:0:0:
256,192,228736,1,8,0:0:0:0:
256,192,228850,1,8,0:0:0:0:
256,192,228963,1,0,0:0:0:0:
256,192,229077,1,0,0:0:0:0:
256,192,229190,1,12,0:0:0:0:
256,192,229418,1,0,0:0:0:0:
256,192,229531,1,8,0:0:0:0:
256,192,229759,1,8,0:0:0:0:
256,192,229872,1,0,0:0:0:0:
256,192,230100,1,8,0:0:0:0:
256,192,230327,1,0,0:0:0:0:
256,192,230440,1,8,0:0:0:0:
256,192,230554,1,0,0:0:0:0:
256,192,230781,1,8,0:0:0:0:
256,192,231009,1,0,0:0:0:0:
256,192,231236,1,8,0:0:0:0:
256,192,231350,1,8,0:0:0:0:
256,192,231463,1,0,0:0:0:0:
256,192,231690,1,8,0:0:0:0:
256,192,231918,1,8,0:0:0:0:
256,192,232031,1,0,0:0:0:0:
256,192,232259,1,0,0:0:0:0:
256,192,232372,1,8,0:0:0:0:
256,192,232600,1,8,0:0:0:0:
256,192,232827,1,8,0:0:0:0:
256,192,233054,1,8,0:0:0:0:
256,192,233168,1,0,0:0:0:0:
256,192,233281,1,8,0:0:0:0:
256,192,233509,1,0,0:0:0:0:
256,192,233736,1,8,0:0:0:0:
256,192,233850,1,8,0:0:0:0:
256,192,233963,1,8,0:0:0:0:
256,192,234190,1,8,0:0:0:0:
256,192,234418,1,0,0:0:0:0:
256,192,234645,1,0,0:0:0:0:
256,192,234872,1,0,0:0:0:0:
256,192,234986,1,8,0:0:0:0:
256,192,235100,1,0,0:0:0:0:
256,192,235213,1,0,0:0:0:0:
256,192,235327,1,8,0:0:0:0:
256,192,235554,1,8,0:0:0:0:
256,192,235781,1,8,0:0:0:0:
256,192,235895,1,8,0:0:0:0:
256,192,236009,1,0,0:0:0:0:
256,192,236122,1,0,0:0:0:0:
256,192,236236,1,8,0:0:0:0:
256,192,236350,1,8,0:0:0:0:
256,192,236463,1,4,0:0:0:0:
256,192,236690,1,8,0:0:0:0:
256,192,236804,1,0,0:0:0:0:
256,192,237031,1,0,0:0:0:0:
256,192,237145,1,8,0:0:0:0:
256,192,237372,1,8,0:0:0:0:
256,192,237600,1,0,0:0:0:0:
256,192,237713,1,8,0:0:0:0:
256,192,237827,1,0,0:0:0:0:
256,192,238054,1,8,0:0:0:0:
256,192,238168,1,0,0:0:0:0:
256,192,238281,1,8,0:0:0:0:
256,192,238509,1,0,0:0:0:0:
256,192,238622,1,8,0:0:0:0:
256,192,238736,1,0,0:0:0:0:
256,192,238963,1,8,0:0:0:0:
256,192,239077,1,0,0:0:0:0:
256,192,239190,1,0,0:0:0:0:
256,192,239304,1,0,0:0:0:0:
256,192,239418,1,8,0:0:0:0:
256,192,239645,1,0,0:0:0:0:
256,192,239872,1,8,0:0:0:0:
256,192,239986,1,8,0:0:0:0:
256,192,240100,1,0,0:0:0:0:
256,192,240327,1,8,0:0:0:0:
256,192,240440,1,0,0:0:0:0:
256,192,240668,1,0,0:0:0:0:
256,192,240781,1,8,0:0:0:0:
256,192,241009,1,8,0:0:0:0:
256,192,241236,1,0,0:0:0:0:
256,192,241350,1,8,0:0:0:0:
256,192,241690,1,8,0:0:0:0:
256,192,241918,1,0,0:0:0:0:
256,192,242145,1,8,0:0:0:0:
256,192,242372,1,8,0:0:0:0:
256,192,242486,1,8,0:0:0:0:
256,192,242600,1,0,0:0:0:0:
256,192,242827,1,8,0:0:0:0:
256,192,243054,1,8,0:0:0:0:
256,192,243168,1,8,0:0:0:0:
256,192,243281,1,0,0:0:0:0:
256,192,243395,1,0,0:0:0:0:
256,192,243509,1,8,0:0:0:0:
256,192,243622,1,8,0:0:0:0:
256,192,243736,1,4,0:0:0:0:
256,192,243963,1,0,0:0:0:0:
256,192,244077,1,8,0:0:0:0:
256,192,244304,1,8,0:0:0:0:
256,192,244418,1,0,0:0:0:0:
256,192,244645,1,8,0:0:0:0:
256,192,244872,1,0,0:0:0:0:
256,192,244986,1,8,0:0:0:0:
256,192,245100,1,0,0:0:0:0:
256,192,245327,1,8,0:0:0:0:
256,192,245554,1,8,0:0:0:0:
256,192,245781,1,8,0:0:0:0:
256,192,245895,1,8,0:0:0:0:
256,192,246009,1,0,0:0:0:0:
256,192,246236,1,8,0:0:0:0:
256,192,246463,1,8,0:0:0:0:
256,192,246577,1,0,0:0:0:0:
256,192,246804,1,0,0:0:0:0:
256,192,246918,1,8,0:0:0:0:
256,192,247145,1,8,0:0:0:0:
256,192,247372,1,0,0:0:0:0:
256,192,247600,1,0,0:0:0:0:
256,192,247713,1,8,0:0:0:0:
256,192,247940,1,8,0:0:0:0:
256,192,248054,1,0,0:0:0:0:
256,192,248281,1,8,0:0:0:0:
256,192,248509,1,0,0:0:0:0:
256,192,248622,1,8,0:0:0:0:
256,192,248736,1,0,0:0:0:0:
256,192,248963,1,8,0:0:0:0:
256,192,249190,1,0,0:0:0:0:
256,192,249418,1,0,0:0:0:0:
256,192,249531,1,8,0:0:0:0:
256,192,249645,1,0,0:0:0:0:
256,192,249759,1,0,0:0:0:0:
256,192,249872,1,8,0:0:0:0:
256,192,250100,1,8,0:0:0:0:
256,192,250327,1,8,0:0:0:0:
256,192,250440,1,8,0:0:0:0:
256,192,250554,1,0,0:0:0:0:
256,192,250668,1,0,0:0:0:0:
256,192,250781,1,8,0:0:0:0:
256,192,250895,1,8,0:0:0:0:
256,192,251009,1,4,0:0:0:0:
256,192,251236,1,8,0:0:0:0:
256,192,251350,1,0,0:0:0:0:
256,192,251577,1,0,0:0:0:0:
256,192,251690,1,8,0:0:0:0:
256,192,251918,1,8,0:0:0:0:
256,192,252145,1,0,0:0:0:0:
256,192,252259,1,0,0:0:0:0:
256,192,252372,1,8,0:0:0:0:
256,192,252600,1,0,0:0:0:0:
256,192,252827,1,8,0:0:0:0:
256,192,253054,1,0,0:0:0:0:
256,192,253168,1,8,0:0:0:0:
256,192,253281,1,0,0:0:0:0:
256,192,253509,1,8,0:0:0:0:
256,192,253622,1,0,0:0:0:0:
256,192,253736,1,0,0:0:0:0:
256,192,253850,1,0,0:0:0:0:
256,192,253963,1,8,0:0:0:0:
256,192,254190,1,0,0:0:0:0:
256,192,254418,1,8,0:0:0:0:
256,192,254531,1,8,0:0:0:0:
256,192,254645,1,0,0:0:0:0:
256,192,254872,1,0,0:0:0:0:
256,192,254986,1,0,0:0:0:0:
256,192,255100,1,8,0:0:0:0:
256,192,255327,1,0,0:0:0:0:
256,192,255440,1,0,0:0:0:0:
256,192,255554,1,8,0:0:0:0:
256,192,255781,1,0,0:0:0:0:
256,192,255895,1,8,0:0:0:0:
256,192,256122,1,0,0:0:0:0:
256,192,256236,1,8,0:0:0:0:
256,192,256463,1,0,0:0:0:0:
256,192,256690,1,8,0:0:0:0:
256,192,256918,1,8,0:0:0:0:
256,192,257145,1,0,0:0:0:0:
256,192,257259,1,0,0:0:0:0:
256,192,257372,1,8,0:0:0:0:
256,192,257600,1,8,0:0:0:0:
256,192,257713,1,8,0:0:0:0:
256,192,257827,1,8,0:0:0:0:
256,192,257940,1,8,0:0:0:0:
256,192,258054,1,0,0:0:0:0:
256,192,258168,1,0,0:0:0:0:
256,192,258281,1,12,0:0:0:0:
256,192,258736,1,8,0:0:0:0:
256,192,258850,1,8,0:0:0:0:
256,192,258963,1,8,0:0:0:0:
256,192,259190,1,8,0:0:0:0:
256,192,259418,1,8,0:0:0:0:
