osu file format v14

[General]
AudioFilename: audio.mp3
AudioLeadIn: 0
PreviewTime: 46623
Countdown: 0
SampleSet: Normal
StackLeniency: 0.6
Mode: 0
LetterboxInBreaks: 0
WidescreenStoryboard: 1

[Editor]
Bookmarks: 55899,111551,130102,148652
DistanceSpacing: 0.5
BeatDivisor: 4
GridSize: 32
TimelineZoom: 2.6

[Metadata]
Title:Kyoto Borderline (Speed Edit)
TitleUnicode:Kyoto Borderline (Speed Edit)
Artist:Triple-Q
ArtistUnicode:Triple-Q
Creator:burntcedar13
Version:Ultimate
Source:
Tags:
BeatmapID:1099271
BeatmapSetID:515940

[Difficulty]
HPDrainRate:4
CircleSize:2
OverallDifficulty:7
ApproachRate:10
SliderMultiplier:1.7
SliderTickRate:2

[Events]
//Background and Video events
//Break Periods
2,74649,82115
2,111751,118057
//Storyboard Layer 0 (Background)
//Storyboard Layer 1 (Fail)
//Storyboard Layer 2 (Pass)
//Storyboard Layer 3 (Foreground)
//Storyboard Sound Samples

[TimingPoints]
247,289.855072463768,4,1,1,100,1,0
7203,-100,4,1,2,100,0,0
9522,-100,4,1,1,100,0,0
16478,-100,4,1,2,100,0,0
18797,-133.333333333333,4,1,1,100,0,0
23435,-111.111111111111,4,1,1,100,0,0
29232,-133.333333333333,4,1,1,100,0,0
30391,-111.111111111111,4,1,1,100,0,0
31551,-133.333333333333,4,1,1,100,0,0
32710,-111.111111111111,4,1,1,100,0,0
37493,-200,4,1,1,100,0,0
46623,-100,4,1,2,100,0,0
55899,-50,4,1,1,100,0,1
73290,-133.333333333333,4,1,2,100,0,0
83870,-200,4,1,1,100,0,0
90681,-125,4,1,1,100,0,0
91551,-100,4,1,1,100,0,0
93000,-50,4,1,1,100,0,1
110391,-100,4,1,1,100,0,0
118507,-100,4,1,2,100,0,0
120826,-100,4,1,1,100,0,0
127783,-100,4,1,2,100,0,0
130102,-100,4,1,1,100,0,0
137058,-100,4,1,2,100,0,0
139377,-100,4,1,1,100,0,0
146333,-100,4,1,2,100,0,0
148652,-142.857142857143,4,2,0,100,0,0
151261,-100,4,2,0,100,0,0
151551,-133.333333333333,4,1,1,100,0,0
153580,-100,4,1,1,100,0,0
157928,-142.857142857143,4,2,0,100,0,0
160536,-100,4,2,0,100,0,0
160826,-133.333333333333,4,1,1,100,0,0
162855,-100,4,1,1,100,0,0

[HitObjects]
62,119,247,5,0,0:0:0:0:
31,159,391,1,0,0:0:0:0:
26,209,536,2,2,L|53:302,1,85,10|2,0:0|0:0,0:0:0:0:
319,384,826,5,0,0:0:0:0:
350,344,970,1,0,0:0:0:0:
355,294,1116,2,2,L|328:201,1,85,10|2,0:0|0:0,0:0:0:0:
110,40,1406,5,0,0:0:0:0:
65,64,1550,1,0,0:0:0:0:
41,108,1696,2,2,L|29:204,1,85,10|2,0:0|0:0,0:0:0:0:
243,384,1985,5,0,0:0:0:0:
287,359,2131,1,0,0:0:0:0:
311,315,2275,2,2,L|322:218,1,85,10|2,0:0|0:0,0:0:0:0:
184,10,2565,5,0,0:0:0:0:
133,14,2709,1,0,0:0:0:0:
93,45,2855,2,2,L|44:129,1,85,10|2,0:0|0:0,0:0:0:0:
172,378,3144,5,0,0:0:0:0:
222,372,3290,1,0,0:0:0:0:
261,341,3435,2,2,L|309:256,1,85,10|2,0:0|0:0,0:0:0:0:
261,19,3725,5,0,0:0:0:0:
212,3,3869,1,0,0:0:0:0:
163,15,4015,2,2,L|85:73,1,85,10|2,0:0|0:0,0:0:0:0:
106,353,4304,5,0,0:0:0:0:
154,367,4448,1,0,0:0:0:0:
202,353,4594,2,2,L|279:294,1,85,10|2,0:0|0:0,0:0:0:0:
450,119,4884,5,0,0:0:0:0:
481,159,5028,1,0,0:0:0:0:
486,209,5174,2,2,L|459:302,1,85,10|2,0:0|0:0,0:0:0:0:
193,384,5463,5,0,0:0:0:0:
162,344,5609,1,0,0:0:0:0:
157,294,5754,2,2,L|184:201,1,85,10|2,0:0|0:0,0:0:0:0:
402,40,6043,5,0,0:0:0:0:
447,64,6189,1,0,0:0:0:0:
471,108,6333,2,2,L|482:204,1,85,10|2,0:0|0:0,0:0:0:0:
269,384,6622,5,0,0:0:0:0:
225,359,6768,1,0,0:0:0:0:
201,315,6913,2,2,L|189:218,1,85,10|2,0:0|0:0,0:0:0:0:
337,0,7202,5,0,0:0:0:0:
142,94,7348,1,8,0:0:0:0:
133,135,7420,1,8,0:0:0:0:
124,177,7492,1,8,0:0:0:0:
337,0,7638,1,0,0:0:0:0:
142,94,7783,5,8,0:0:0:0:
133,135,7855,1,8,0:0:0:0:
124,177,7927,1,8,0:0:0:0:
116,218,8000,1,8,0:0:0:0:
107,260,8072,1,8,0:0:0:0:
6,5,8218,1,0,0:0:0:0:
269,141,8362,1,8,0:0:0:0:
6,5,8507,1,0,0:0:0:0:
107,260,8652,5,8,0:0:0:0:
116,218,8724,1,8,0:0:0:0:
124,177,8797,1,8,0:0:0:0:
133,135,8869,1,8,0:0:0:0:
142,94,8941,1,8,0:0:0:0:
264,324,9087,1,0,0:0:0:0:
1,188,9232,1,8,0:0:0:0:
264,324,9376,1,0,0:0:0:0:
411,126,9522,6,0,L|501:93,1,85,8|0,0:0|0:0,0:0:0:0:
375,309,9812,1,0,0:0:0:0:
411,126,9957,2,2,L|501:93,1,85,10|2,0:0|0:0,0:0:0:0:
375,309,10246,2,0,L|284:341,1,85,10|0,0:0|0:0,0:0:0:0:
411,126,10536,1,0,0:0:0:0:
375,309,10681,5,8,0:0:0:0:
301,199,10826,1,0,0:0:0:0:
411,126,10971,1,0,0:0:0:0:
484,235,11116,1,0,0:0:0:0:
370,336,11261,5,8,0:0:0:0:
416,98,11406,1,0,0:0:0:0:
512,240,11551,1,0,0:0:0:0:
274,194,11696,1,0,0:0:0:0:
34,273,11841,6,0,L|-5:360,1,85,8|0,0:0|0:0,0:0:0:0:
219,250,12131,1,0,0:0:0:0:
34,273,12276,2,2,L|-5:360,1,85,10|2,0:0|0:0,0:0:0:0:
219,250,12565,2,0,L|257:161,1,85,10|0,0:0|0:0,0:0:0:0:
34,273,12855,1,0,0:0:0:0:
219,250,13000,5,8,0:0:0:0:
114,168,13145,1,0,0:0:0:0:
34,273,13290,1,0,0:0:0:0:
137,354,13435,1,0,0:0:0:0:
245,246,13580,5,8,0:0:0:0:
5,276,13725,1,0,0:0:0:0:
140,382,13870,1,0,0:0:0:0:
111,142,14015,1,0,0:0:0:0:
321,32,14160,6,0,L|410:-2,1,85,8|0,0:0|0:0,0:0:0:0:
288,215,14450,1,0,0:0:0:0:
321,32,14595,2,2,L|410:-2,1,85,10|2,0:0|0:0,0:0:0:0:
288,215,14884,2,0,L|197:248,1,85,10|0,0:0|0:0,0:0:0:0:
321,32,15174,1,0,0:0:0:0:
288,215,15319,5,8,0:0:0:0:
211,106,15464,1,0,0:0:0:0:
321,32,15609,1,0,0:0:0:0:
396,139,15754,1,0,0:0:0:0:
282,241,15899,5,8,0:0:0:0:
325,3,16044,1,0,0:0:0:0:
424,143,16189,1,0,0:0:0:0:
186,102,16334,1,0,0:0:0:0:
0,260,16478,5,0,0:0:0:0:
185,367,16623,1,8,0:0:0:0:
227,369,16695,1,8,0:0:0:0:
269,371,16767,1,8,0:0:0:0:
0,260,16913,1,0,0:0:0:0:
185,367,17058,5,8,0:0:0:0:
227,369,17130,1,8,0:0:0:0:
269,371,17202,1,8,0:0:0:0:
312,373,17275,1,8,0:0:0:0:
354,375,17347,1,8,0:0:0:0:
80,382,17493,1,0,0:0:0:0:
280,201,17638,1,8,0:0:0:0:
80,382,17783,1,0,0:0:0:0:
354,375,17928,5,8,0:0:0:0:
312,373,18000,1,8,0:0:0:0:
269,371,18073,1,8,0:0:0:0:
227,369,18145,1,8,0:0:0:0:
185,367,18217,1,8,0:0:0:0:
480,382,18362,1,8,0:0:0:0:
280,201,18507,1,8,0:0:0:0:
480,382,18652,1,8,0:0:0:0:
506,180,18797,6,0,B|492:134|492:134|505:42,1,127.500004863739,8|0,0:0|0:0,0:0:0:0:
284,103,19377,5,8,0:0:0:0:
114,213,19522,1,0,0:0:0:0:
311,130,19667,1,8,0:0:0:0:
85,184,19812,1,0,0:0:0:0:
328,170,19957,2,0,B|325:217|325:217|259:276,1,127.500004863739,8|8,0:0|0:0,0:0:0:0:
284,103,20391,1,8,0:0:0:0:
0,286,20681,5,8,0:0:0:0:
266,243,20826,1,8,0:0:0:0:
0,286,20971,1,8,0:0:0:0:
88,102,21116,6,0,B|124:71|124:71|163:-13,1,127.500004863739,8|8,0:0|0:0,0:0:0:0:
214,178,21696,5,8,0:0:0:0:
416,160,21841,1,0,0:0:0:0:
210,216,21986,1,8,0:0:0:0:
421,119,22131,1,0,0:0:0:0:
221,258,22276,2,0,B|252:293|252:293|341:299,1,127.500004863739,8|8,0:0|0:0,0:0:0:0:
214,178,22710,1,8,0:0:0:0:
385,89,23000,5,8,0:0:0:0:
509,302,23145,1,8,0:0:0:0:
512,42,23290,1,8,0:0:0:0:
303,259,23435,6,0,L|236:332,1,76.4999976654053,8|0,0:0|0:0,0:0:0:0:
0,384,23725,2,0,L|67:311,1,76.4999976654053,8|0,0:0|0:0,0:0:0:0:
251,315,24015,5,0,0:0:0:0:
51,327,24160,1,0,0:0:0:0:
303,259,24304,1,8,0:0:0:0:
0,384,24449,1,0,0:0:0:0:
311,257,24594,5,0,0:0:0:0:
84,175,24739,1,0,0:0:0:0:
393,218,24883,1,8,0:0:0:0:
0,215,25028,1,8,0:0:0:0:
321,257,25174,5,0,0:0:0:0:
173,121,25319,1,8,0:0:0:0:
397,255,25463,1,8,0:0:0:0:
97,124,25608,1,0,0:0:0:0:
437,109,25754,6,0,L|521:127,1,76.4999976654053
321,185,26044,2,2,L|405:203,1,76.4999976654053,10|2,0:0|0:0,0:0:0:0:
205,261,26333,2,0,L|289:279,1,76.4999976654053
89,337,26623,2,2,L|173:355,1,76.4999976654053,10|2,0:0|0:0,0:0:0:0:
511,125,26913,5,0,0:0:0:0:
279,277,27058,1,0,0:0:0:0:
321,185,27203,1,10,0:0:0:0:
89,337,27348,1,2,0:0:0:0:
437,109,27493,5,0,0:0:0:0:
205,261,27638,1,8,0:0:0:0:
395,201,27783,1,10,0:0:0:0:
163,353,27928,1,10,0:0:0:0:
406,298,28073,6,0,B|460:269|460:269|516:182,1,152.999995330811,8|0,0:0|0:0,0:0:0:0:
247,95,28652,5,8,0:0:0:0:
2,224,28797,1,0,0:0:0:0:
247,95,28942,1,8,0:0:0:0:
2,224,29087,1,0,0:0:0:0:
279,188,29232,6,0,L|366:171,1,63.7500024318696,8|0,0:0|0:0,0:0:0:0:
315,212,29522,2,2,L|402:195,1,63.7500024318696,10|2,0:0|0:0,0:0:0:0:
351,236,29812,1,0,0:0:0:0:
191,289,29957,5,8,0:0:0:0:
92,115,30102,1,10,0:0:0:0:
158,384,30247,1,10,0:0:0:0:
18,178,30392,6,0,B|-1:119|-1:119|16:18,1,152.999995330811,8|0,0:0|0:0,0:0:0:0:
274,219,30971,5,8,0:0:0:0:
508,71,31116,1,0,0:0:0:0:
274,219,31261,1,8,0:0:0:0:
508,71,31406,1,0,0:0:0:0:
338,293,31551,6,0,L|279:359,1,63.7500024318696,8|0,0:0|0:0,0:0:0:0:
341,336,31841,2,2,L|282:402,1,63.7500024318696,10|2,0:0|0:0,0:0:0:0:
344,379,32131,1,0,0:0:0:0:
119,304,32275,5,8,0:0:0:0:
3,99,32420,1,10,0:0:0:0:
83,343,32565,1,10,0:0:0:0:
165,112,32710,6,0,L|189:25,1,76.4999976654053,8|0,0:0|0:0,0:0:0:0:
438,0,33000,2,0,L|414:87,1,76.4999976654053,8|0,0:0|0:0,0:0:0:0:
342,283,33290,5,0,0:0:0:0:
185,38,33435,1,0,0:0:0:0:
439,1,33580,1,8,0:0:0:0:
165,112,33725,1,0,0:0:0:0:
379,358,33870,5,0,0:0:0:0:
133,109,34015,1,0,0:0:0:0:
421,2,34160,1,8,0:0:0:0:
127,200,34305,1,8,0:0:0:0:
426,301,34449,5,0,0:0:0:0:
182,141,34594,1,8,0:0:0:0:
399,3,34739,1,8,0:0:0:0:
194,216,34884,1,0,0:0:0:0:
3,10,35029,6,0,L|76:30,1,76.4999976654053
27,123,35319,2,2,L|100:143,1,76.4999976654053,10|2,0:0|0:0,0:0:0:0:
51,236,35609,2,0,L|124:256,1,76.4999976654053
75,349,35899,2,2,L|148:369,1,76.4999976654053,10|2,0:0|0:0,0:0:0:0:
3,10,36189,5,0,0:0:0:0:
124,256,36333,1,0,0:0:0:0:
27,123,36478,1,8,0:0:0:0:
148,369,36623,1,8,0:0:0:0:
76,30,36768,5,0,0:0:0:0:
51,236,36913,1,8,0:0:0:0:
100,143,37058,1,8,0:0:0:0:
75,349,37203,1,0,0:0:0:0:
0,0,37348,5,4,0:0:0:0:
231,149,37493,5,0,0:0:0:0:
439,183,37783,1,0,0:0:0:0:
249,142,38073,5,0,0:0:0:0:
427,255,38363,1,0,0:0:0:0:
269,144,38652,5,0,0:0:0:0:
389,317,38942,1,0,0:0:0:0:
287,153,39232,5,0,0:0:0:0:
329,359,39522,1,0,0:0:0:0:
299,168,39812,5,0,0:0:0:0:
258,375,40102,1,0,0:0:0:0:
305,187,40391,5,0,0:0:0:0:
186,361,40681,1,0,0:0:0:0:
303,207,40971,5,0,0:0:0:0:
126,321,41261,6,0,L|86:352,1,42.5
303,207,41551,6,0,L|262:237,1,42.5
281,149,42131,5,0,0:0:0:0:
73,183,42421,1,0,0:0:0:0:
262,142,42711,5,0,0:0:0:0:
84,255,43001,1,0,0:0:0:0:
242,144,43290,5,0,0:0:0:0:
122,317,43580,1,0,0:0:0:0:
242,144,43870,5,0,0:0:0:0:
122,317,44015,1,0,0:0:0:0:
242,144,44160,1,0,0:0:0:0:
122,317,44304,2,0,L|88:364,1,42.5
242,144,44594,5,0,0:0:0:0:
122,317,44739,2,0,L|88:364,1,42.5
242,144,45029,5,0,0:0:0:0:
122,317,45174,1,4,0:0:0:0:
256,192,45246,12,0,46333,0:0:0:0:
138,137,46623,5,0,0:0:0:0:
197,293,46913,1,0,0:0:0:0:
353,234,47203,1,8,0:0:0:0:
294,78,47493,1,0,0:0:0:0:
113,182,47783,5,0,0:0:0:0:
235,318,48073,1,0,0:0:0:0:
372,196,48363,1,8,0:0:0:0:
250,59,48653,1,0,0:0:0:0:
105,238,48942,5,0,0:0:0:0:
284,330,49232,1,0,0:0:0:0:
377,151,49522,1,8,0:0:0:0:
197,58,49812,1,0,0:0:0:0:
119,298,50102,5,0,0:0:0:0:
340,323,50392,1,0,0:0:0:0:
364,102,50682,1,8,0:0:0:0:
143,78,50972,1,0,0:0:0:0:
507,300,51261,5,0,0:0:0:0:
262,103,51406,1,0,0:0:0:0:
286,324,51551,1,8,0:0:0:0:
482,79,51696,1,0,0:0:0:0:
503,218,51841,5,0,0:0:0:0:
170,123,51986,1,0,0:0:0:0:
289,337,52131,1,8,0:0:0:0:
382,6,52276,1,0,0:0:0:0:
445,155,52420,5,0,0:0:0:0:
101,198,52565,1,0,0:0:0:0:
293,348,52710,1,8,0:0:0:0:
250,6,52855,1,0,0:0:0:0:
366,98,53000,5,0,0:0:0:0:
36,289,53145,1,0,0:0:0:0:
295,358,53290,1,8,0:0:0:0:
104,30,53435,1,0,0:0:0:0:
344,0,53580,5,8,0:0:0:0:
354,31,53652,1,0,0:0:0:0:
366,63,53724,1,0,0:0:0:0:
378,97,53797,1,0,0:0:0:0:
256,74,53870,5,8,0:0:0:0:
246,105,53942,1,0,0:0:0:0:
234,137,54014,1,0,0:0:0:0:
222,171,54087,1,0,0:0:0:0:
392,127,54160,5,8,0:0:0:0:
402,158,54232,1,0,0:0:0:0:
414,190,54304,1,0,0:0:0:0:
426,224,54377,1,0,0:0:0:0:
209,201,54449,5,8,0:0:0:0:
199,232,54521,1,0,0:0:0:0:
187,264,54593,1,0,0:0:0:0:
175,298,54666,1,0,0:0:0:0:
440,258,54739,1,8,0:0:0:0:
132,86,55899,6,0,B|54:132|54:132|-10:199,1,170,8|0,0:0|0:0,0:0:0:0:
280,380,56189,1,0,0:0:0:0:
438,86,56333,1,0,0:0:0:0:
129,163,56478,6,0,B|72:233|72:233|36:319,1,170,8|0,0:0|0:0,0:0:0:0:
372,384,56768,1,0,0:0:0:0:
414,53,56912,1,0,0:0:0:0:
36,37,57058,5,2,0:0:0:0:
468,0,57203,1,2,0:0:0:0:
49,136,57348,5,10,0:0:0:0:
494,111,57493,1,2,0:0:0:0:
43,240,57638,5,2,0:0:0:0:
512,245,57783,1,2,0:0:0:0:
30,340,57928,5,10,0:0:0:0:
478,370,58073,1,2,0:0:0:0:
264,101,58218,6,0,B|314:74|314:74|444:80,1,170,8|0,0:0|0:0,0:0:0:0:
221,379,58507,1,0,0:0:0:0:
0,104,58652,1,0,0:0:0:0:
309,143,58797,6,0,B|365:137|365:137|482:194,1,170,8|0,0:0|0:0,0:0:0:0:
160,382,59086,1,0,0:0:0:0:
64,42,59231,1,0,0:0:0:0:
103,355,59377,5,2,0:0:0:0:
264,97,59522,2,2,P|343:27|270:129,1,425
337,100,59957,5,2,0:0:0:0:
58,378,60102,1,2,0:0:0:0:
435,220,60246,5,10,0:0:0:0:
3,47,60391,1,2,0:0:0:0:
466,71,60536,6,0,B|457:96|457:96|431:115|431:115|401:196,1,85,8|0,0:0|0:0,0:0:0:0:
329,98,60681,2,0,B|320:123|320:123|294:142|294:142|264:223,1,85
192,125,60826,2,0,B|183:150|183:150|157:169|157:169|127:250,1,85
55,152,60971,2,0,B|46:177|46:177|20:196|20:196|-10:277,1,85
39,328,61116,6,0,B|48:303|48:303|74:284|74:284|83:259,1,85,8|0,0:0|0:0,0:0:0:0:
176,301,61261,2,0,B|185:276|185:276|211:257|211:257|220:232,1,85
312,274,61406,2,0,B|321:249|321:249|347:230|347:230|356:205,1,85
449,247,61551,2,0,B|458:222|458:222|484:203|484:203|493:178,1,85
104,12,61696,5,2,0:0:0:0:
36,348,61841,1,2,0:0:0:0:
192,55,61986,5,10,0:0:0:0:
161,380,62131,1,2,0:0:0:0:
301,47,62275,5,2,0:0:0:0:
327,384,62420,1,2,0:0:0:0:
407,35,62565,5,10,0:0:0:0:
473,350,62710,1,2,0:0:0:0:
86,94,62855,6,0,B|67:131|67:131|17:144,1,85,8|0,0:0|0:0,0:0:0:0:
169,188,63000,2,0,B|181:227|181:227|155:272,1,85
294,195,63145,2,0,B|331:214|331:214|344:264,1,85
387,111,63290,2,0,B|426:98|426:98|471:124,1,85
504,211,63435,6,0,B|468:174|468:174|420:176,1,85,8|0,0:0|0:0,0:0:0:0:
323,324,63580,2,0,B|324:273|324:273|288:240,1,85
115,275,63725,2,0,B|152:239|152:239|151:191,1,85
5,94,63870,2,0,B|55:95|55:95|88:59,1,85
286,11,64015,5,2,0:0:0:0:
512,262,64160,2,2,P|471:359|492:235,1,425
444,290,64595,5,2,0:0:0:0:
68,165,64739,1,2,0:0:0:0:
453,156,64884,5,10,0:0:0:0:
103,380,65029,1,2,0:0:0:0:
325,54,65174,6,0,B|376:66|376:66|454:157,1,170,8|0,0:0|0:0,0:0:0:0:
266,381,65464,1,0,0:0:0:0:
93,121,65609,1,0,0:0:0:0:
407,102,65754,6,0,B|449:132|449:132|485:247,1,170,8|0,0:0|0:0,0:0:0:0:
224,379,66044,1,0,0:0:0:0:
167,73,66189,1,0,0:0:0:0:
509,186,66333,5,2,0:0:0:0:
218,4,66478,1,2,0:0:0:0:
423,224,66623,5,10,0:0:0:0:
89,96,66768,1,2,0:0:0:0:
367,304,66913,5,2,0:0:0:0:
23,213,67058,1,2,0:0:0:0:
341,384,67203,5,10,0:0:0:0:
0,347,67348,1,2,0:0:0:0:
206,80,67493,6,0,B|249:55|249:55|405:151,1,170,8|0,0:0|0:0,0:0:0:0:
396,380,67783,1,0,0:0:0:0:
77,343,67928,1,0,0:0:0:0:
262,34,68073,6,0,B|311:27|311:27|417:177,1,170,8|0,0:0|0:0,0:0:0:0:
319,384,68363,1,0,0:0:0:0:
40,225,68508,1,0,0:0:0:0:
342,38,68652,5,2,0:0:0:0:
76,235,68797,2,2,P|42:335|120:226,1,425
112,303,69232,5,2,0:0:0:0:
511,94,69377,1,2,0:0:0:0:
120,108,69522,1,10,0:0:0:0:
509,309,69667,1,2,0:0:0:0:
331,0,69812,6,0,B|292:61|292:61|259:69,1,85,8|0,0:0|0:0,0:0:0:0:
391,101,69957,2,0,B|352:162|352:162|319:170,1,85
172,36,70102,2,0,B|133:97|133:97|100:105,1,85
232,137,70247,2,0,B|193:198|193:198|160:206,1,85
81,337,70391,6,0,B|93:334|93:334|132:273,1,85,8|0,0:0|0:0,0:0:0:0:
21,236,70536,2,0,B|33:233|33:233|72:172,1,85
239,301,70681,2,0,B|251:298|251:298|290:237,1,85
180,200,70826,2,0,B|192:197|192:197|231:136,1,85
419,8,70971,5,2,0:0:0:0:
40,58,71116,1,2,0:0:0:0:
416,53,71261,5,10,0:0:0:0:
55,221,71406,1,2,0:0:0:0:
433,90,71551,5,2,0:0:0:0:
140,341,71696,1,2,0:0:0:0:
466,115,71841,5,10,0:0:0:0:
296,384,71986,1,2,0:0:0:0:
220,39,72131,6,0,B|194:46|194:46|173:73|173:73|170:118,1,85,8|0,0:0|0:0,0:0:0:0:
274,135,72275,2,0,B|248:142|248:142|227:169|227:169|224:214,1,85
328,231,72420,2,0,B|302:238|302:238|281:265|281:265|278:310,1,85
382,327,72565,2,0,B|356:334|356:334|335:361|335:361|332:406,1,85
177,384,72710,6,0,B|199:398|199:398|233:395|233:395|268:366,1,85,8|0,0:0|0:0,0:0:0:0:
210,279,72855,2,0,B|232:293|232:293|266:290|266:290|301:261,1,85
243,174,73000,2,0,B|265:188|265:188|299:185|299:185|334:156,1,85
277,69,73145,2,0,B|299:83|299:83|333:80|333:80|368:51,1,85
512,0,73290,6,0,L|512:64,1,63.7500024318696,4|0,0:0|0:0,0:0:0:0:
448,32,73725,5,4,0:0:0:0:
384,64,74015,6,0,L|384:96,1,31.8750012159348,4|0,0:0|0:0,0:0:0:0:
384,64,74160,1,8,0:0:0:0:
320,96,74449,5,4,0:0:0:0:
26,273,82565,5,0,0:0:0:0:
18,253,82637,1,8,0:0:0:0:
11,233,82709,1,0,0:0:0:0:
3,213,82782,1,0,0:0:0:0:
113,206,82855,5,8,0:0:0:0:
113,184,82927,1,0,0:0:0:0:
114,163,82999,1,0,0:0:0:0:
115,142,83072,1,0,0:0:0:0:
219,178,83146,5,8,0:0:0:0:
227,158,83218,1,0,0:0:0:0:
236,139,83290,1,0,0:0:0:0:
246,120,83363,1,0,0:0:0:0:
328,194,83435,5,8,0:0:0:0:
343,178,83507,1,0,0:0:0:0:
358,164,83579,1,0,0:0:0:0:
375,151,83652,1,0,0:0:0:0:
422,251,83725,5,8,0:0:0:0:
295,356,83870,5,0,0:0:0:0:
238,115,84160,1,0,0:0:0:0:
145,268,84449,5,0,0:0:0:0:
334,97,84739,1,0,0:0:0:0:
355,281,85029,5,0,0:0:0:0:
107,161,85319,1,0,0:0:0:0:
145,268,85609,5,0,0:0:0:0:
334,97,85899,1,0,0:0:0:0:
210,57,86189,5,0,0:0:0:0:
321,270,86478,1,0,0:0:0:0:
145,268,86768,5,0,0:0:0:0:
334,97,87058,1,0,0:0:0:0:
221,188,87493,5,0,0:0:0:0:
5,233,87638,1,8,0:0:0:0:
321,258,87928,5,0,0:0:0:0:
509,376,88073,1,8,0:0:0:0:
276,82,88507,5,0,0:0:0:0:
96,307,88797,1,0,0:0:0:0:
352,159,89087,5,0,0:0:0:0:
82,57,89377,1,0,0:0:0:0:
192,289,89667,5,0,0:0:0:0:
205,0,89957,1,0,0:0:0:0:
320,96,90246,5,8,0:0:0:0:
64,224,90391,1,8,0:0:0:0:
320,96,90536,1,8,0:0:0:0:
64,224,90681,2,0,L|64:384,1,136,4|0,0:0|0:0,0:0:0:0:
192,160,91116,6,0,L|192:320,1,136,4|0,0:0|0:0,0:0:0:0:
320,96,91551,6,0,L|320:192,1,85,4|0,0:0|0:0,0:0:0:0:
320,96,91841,1,0,0:0:0:0:
78,222,93000,6,0,B|88:290|88:290|197:332,1,170,8|0,0:0|0:0,0:0:0:0:
439,240,93290,1,0,0:0:0:0:
254,60,93435,1,0,0:0:0:0:
76,284,93580,6,0,B|111:342|111:342|228:338,1,170,8|0,0:0|0:0,0:0:0:0:
415,159,93870,1,0,0:0:0:0:
174,66,94015,1,0,0:0:0:0:
0,237,94160,5,2,0:0:0:0:
312,37,94304,1,2,0:0:0:0:
40,277,94449,5,10,0:0:0:0:
402,89,94594,1,2,0:0:0:0:
62,321,94739,5,2,0:0:0:0:
462,170,94884,1,2,0:0:0:0:
71,367,95029,5,10,0:0:0:0:
484,272,95174,1,2,0:0:0:0:
197,68,95319,6,0,B|105:135|105:135|108:204,1,170,8|0,0:0|0:0,0:0:0:0:
268,379,95609,1,0,0:0:0:0:
444,143,95754,1,0,0:0:0:0:
151,74,95899,6,0,B|92:171|92:171|122:233,1,170,8|0,0:0|0:0,0:0:0:0:
337,332,96189,1,0,0:0:0:0:
407,46,96334,1,0,0:0:0:0:
107,125,96478,5,2,0:0:0:0:
437,268,96623,2,2,P|523:181|436:241,1,425
507,252,97058,5,2,0:0:0:0:
119,369,97203,1,2,0:0:0:0:
328,73,97348,5,10,0:0:0:0:
509,383,97493,1,2,0:0:0:0:
263,233,97638,6,0,B|208:210|208:210|156:222,1,85,8|0,0:0|0:0,0:0:0:0:
22,28,97783,2,0,B|29:87|29:87|65:126,1,85
0,334,97928,2,0,B|47:297|47:297|63:246,1,85
230,38,98073,2,0,B|182:74|182:74|166:125,1,85
0,355,98218,6,0,B|47:318|47:318|54:294,1,85,8|0,0:0|0:0,0:0:0:0:
230,59,98363,2,0,B|182:95|182:95|175:119,1,85
263,254,98508,2,0,B|208:231|208:231|183:236,1,85
22,49,98653,2,0,B|29:108|29:108|46:126,1,85
422,383,98797,5,2,0:0:0:0:
44,359,98942,1,2,0:0:0:0:
394,298,99087,5,10,0:0:0:0:
27,225,99232,1,2,0:0:0:0:
417,202,99377,5,2,0:0:0:0:
54,84,99522,1,2,0:0:0:0:
486,135,99667,5,10,0:0:0:0:
175,0,99812,1,2,0:0:0:0:
217,284,99957,6,0,B|237:300|237:300|303:268,1,85,8|0,0:0|0:0,0:0:0:0:
447,281,100102,2,0,B|463:261|463:261|431:195,1,85
444,51,100246,2,0,B|424:35|424:35|358:67,1,85
214,54,100391,2,0,B|198:74|198:74|230:140,1,85
352,343,100536,6,0,B|327:320|327:320|327:291|327:291|287:260,1,85,8|0,0:0|0:0,0:0:0:0:
166,191,100681,2,0,B|188:166|188:166|218:166|218:166|249:126,1,85
318,5,100826,2,0,B|343:27|343:27|343:57|343:57|383:88,1,85
504,157,100971,2,0,B|481:182|481:182|452:182|452:182|421:222,1,85
166,380,101116,5,0,0:0:0:0:
68,139,101261,2,2,P|138:1|112:140,1,425
91,66,101696,5,2,0:0:0:0:
367,383,101841,1,2,0:0:0:0:
49,184,101986,1,10,0:0:0:0:
369,1,102131,1,2,0:0:0:0:
122,290,102275,6,0,B|189:345|189:345|275:359,1,170,8|0,0:0|0:0,0:0:0:0:
459,197,102565,1,0,0:0:0:0:
186,106,102710,1,0,0:0:0:0:
186,357,102855,6,0,B|269:381|269:381|353:360,1,170,8|0,0:0|0:0,0:0:0:0:
459,139,103145,1,0,0:0:0:0:
173,162,103290,1,0,0:0:0:0:
462,374,103435,5,2,0:0:0:0:
62,330,103580,1,2,0:0:0:0:
449,344,103725,5,10,0:0:0:0:
85,210,103870,1,2,0:0:0:0:
442,304,104015,5,2,0:0:0:0:
139,94,104160,1,2,0:0:0:0:
443,262,104304,5,10,0:0:0:0:
233,3,104449,1,2,0:0:0:0:
22,204,104594,6,0,B|39:260|39:260|137:347,1,170,8|0,0:0|0:0,0:0:0:0:
348,283,104884,1,0,0:0:0:0:
214,44,105029,1,0,0:0:0:0:
45,294,105174,6,0,B|82:339|82:339|207:381,1,170,8|0,0:0|0:0,0:0:0:0:
376,239,105464,1,0,0:0:0:0:
159,72,105609,1,0,0:0:0:0:
226,381,105754,5,2,0:0:0:0:
395,117,105899,2,2,P|418:34|352:134,1,425
347,60,106333,5,2,0:0:0:0:
3,197,106478,1,2,0:0:0:0:
325,298,106623,5,10,0:0:0:0:
190,0,106768,1,2,0:0:0:0:
103,193,106913,6,0,B|122:198|122:198|183:157,1,85,8|0,0:0|0:0,0:0:0:0:
241,240,107058,2,0,B|260:245|260:245|321:204,1,85
245,82,107203,2,0,B|264:87|264:87|325:46,1,85
383,129,107348,2,0,B|402:134|402:134|463:93,1,85
159,212,107493,6,0,B|178:217|178:217|239:176,1,85,8|0,0:0|0:0,0:0:0:0:
297,259,107638,2,0,B|316:264|316:264|377:223,1,85
301,101,107783,2,0,B|320:106|320:106|381:65,1,85
439,148,107928,2,0,B|458:153|458:153|519:112,1,85
510,1,108073,5,2,0:0:0:0:
87,57,108218,1,2,0:0:0:0:
479,37,108362,5,10,0:0:0:0:
78,167,108507,1,2,0:0:0:0:
464,87,108652,5,2,0:0:0:0:
120,279,108797,1,2,0:0:0:0:
462,132,108942,5,10,0:0:0:0:
238,352,109087,1,2,0:0:0:0:
348,47,109232,6,0,B|311:40|311:40|249:11,1,85,8|0,0:0|0:0,0:0:0:0:
34,88,109377,2,0,B|77:109|77:109|114:116,1,85
315,185,109522,2,0,B|278:178|278:178|216:149,1,85
1,226,109667,2,0,B|44:247|44:247|81:254,1,85
361,103,109812,6,0,B|324:96|324:96|262:67,1,85,8|0,0:0|0:0,0:0:0:0:
48,144,109957,2,0,B|90:164|90:164|127:171,1,85
328,241,110102,2,0,B|291:234|291:234|229:205,1,85
15,282,110247,2,0,B|57:302|57:302|94:309,1,85
256,192,110391,12,4,111551,0:0:0:0:
512,111,118507,5,0,0:0:0:0:
299,159,118652,1,8,0:0:0:0:
277,195,118724,1,8,0:0:0:0:
256,232,118796,1,8,0:0:0:0:
512,111,118942,1,0,0:0:0:0:
299,159,119087,5,8,0:0:0:0:
277,195,119159,1,8,0:0:0:0:
255,232,119231,1,8,0:0:0:0:
233,268,119304,1,8,0:0:0:0:
212,305,119376,1,8,0:0:0:0:
359,384,119522,5,0,0:0:0:0:
127,196,119667,1,8,0:0:0:0:
359,384,119812,1,0,0:0:0:0:
299,159,119957,5,8,0:0:0:0:
277,195,120029,1,8,0:0:0:0:
255,232,120101,1,8,0:0:0:0:
233,268,120174,1,8,0:0:0:0:
212,305,120246,1,8,0:0:0:0:
431,182,120391,5,8,0:0:0:0:
120,160,120536,1,8,0:0:0:0:
431,182,120681,1,8,0:0:0:0:
199,114,120826,5,0,0:0:0:0:
171,293,120971,1,0,0:0:0:0:
96,189,121116,1,8,0:0:0:0:
274,217,121261,1,0,0:0:0:0:
231,99,121406,5,0,0:0:0:0:
140,256,121551,1,0,0:0:0:0:
107,132,121696,1,8,0:0:0:0:
264,222,121841,1,0,0:0:0:0:
266,96,121986,5,0,0:0:0:0:
125,210,122131,1,0,0:0:0:0:
138,83,122276,1,8,0:0:0:0:
252,223,122421,1,0,0:0:0:0:
299,106,122565,5,0,0:0:0:0:
127,162,122710,1,0,0:0:0:0:
185,48,122855,1,8,0:0:0:0:
241,220,123000,1,0,0:0:0:0:
368,63,123145,5,0,0:0:0:0:
465,246,123290,1,0,0:0:0:0:
508,61,123435,1,8,0:0:0:0:
379,250,123580,1,0,0:0:0:0:
307,92,123725,5,0,0:0:0:0:
463,228,123870,1,0,0:0:0:0:
436,39,124015,1,8,0:0:0:0:
384,262,124160,1,0,0:0:0:0:
263,142,124304,5,0,0:0:0:0:
457,213,124449,1,0,0:0:0:0:
364,46,124594,1,8,0:0:0:0:
395,273,124739,1,0,0:0:0:0:
240,205,124884,5,0,0:0:0:0:
446,201,125029,1,0,0:0:0:0:
299,79,125174,1,8,0:0:0:0:
410,279,125319,1,0,0:0:0:0:
172,273,125464,5,0,0:0:0:0:
355,162,125609,1,0,0:0:0:0:
178,229,125754,1,8,0:0:0:0:
348,205,125899,1,0,0:0:0:0:
118,210,126044,5,0,0:0:0:0:
376,223,126189,1,0,0:0:0:0:
154,171,126334,1,8,0:0:0:0:
340,262,126479,1,0,0:0:0:0:
120,123,126623,5,0,0:0:0:0:
348,293,126768,1,0,0:0:0:0:
176,110,126913,1,8,0:0:0:0:
292,306,127058,1,0,0:0:0:0:
177,45,127203,5,0,0:0:0:0:
280,341,127348,1,0,0:0:0:0:
236,68,127493,1,8,0:0:0:0:
221,318,127638,1,0,0:0:0:0:
384,81,127783,5,0,0:0:0:0:
138,152,127928,1,8,0:0:0:0:
128,193,128000,1,8,0:0:0:0:
119,235,128072,1,8,0:0:0:0:
384,81,128218,1,0,0:0:0:0:
138,152,128362,5,8,0:0:0:0:
129,193,128434,1,8,0:0:0:0:
120,235,128506,1,8,0:0:0:0:
111,276,128579,1,8,0:0:0:0:
102,318,128651,1,8,0:0:0:0:
279,374,128797,1,0,0:0:0:0:
384,81,128942,1,8,0:0:0:0:
117,97,130102,6,0,B|87:112|87:112|48:176,1,85,8|0,0:0|0:0,0:0:0:0:
336,136,130391,1,0,0:0:0:0:
60,155,130536,2,2,B|30:170|30:170|-9:234,1,85,10|2,0:0|0:0,0:0:0:0:
279,194,130826,2,0,B|309:179|309:179|348:115,1,85,10|0,0:0|0:0,0:0:0:0:
60,155,131116,1,0,0:0:0:0:
279,194,131261,5,8,0:0:0:0:
60,155,131406,1,8,0:0:0:0:
335,135,131551,1,8,0:0:0:0:
3,213,131696,1,0,0:0:0:0:
335,135,131841,5,8,0:0:0:0:
110,234,131986,1,8,0:0:0:0:
349,45,132131,1,8,0:0:0:0:
94,322,132276,1,0,0:0:0:0:
428,180,132420,6,0,B|444:208|444:208|442:283,1,85,8|0,0:0|0:0,0:0:0:0:
223,93,132709,1,0,0:0:0:0:
444,259,132855,2,2,B|460:287|460:287|458:362,1,85,10|2,0:0|0:0,0:0:0:0:
239,173,133145,2,0,B|222:144|222:144|224:69,1,85,10|0,0:0|0:0,0:0:0:0:
444,259,133434,1,0,0:0:0:0:
239,173,133579,5,8,0:0:0:0:
444,259,133724,1,8,0:0:0:0:
224,93,133869,1,8,0:0:0:0:
460,339,134014,1,0,0:0:0:0:
224,93,134159,5,8,0:0:0:0:
359,298,134304,1,8,0:0:0:0:
261,10,134449,1,8,0:0:0:0:
324,381,134594,1,0,0:0:0:0:
483,168,134739,6,0,B|489:135|489:135|461:65,1,85,8|0,0:0|0:0,0:0:0:0:
320,319,135028,1,0,0:0:0:0:
471,88,135174,2,2,B|477:55|477:55|449:-14,1,85,10|2,0:0|0:0,0:0:0:0:
307,239,135464,2,0,B|300:271|300:271|328:341,1,85,10|0,0:0|0:0,0:0:0:0:
471,88,135753,1,0,0:0:0:0:
307,239,135898,5,8,0:0:0:0:
471,88,136043,1,8,0:0:0:0:
321,319,136188,1,8,0:0:0:0:
458,7,136333,1,0,0:0:0:0:
321,319,136478,5,8,0:0:0:0:
377,80,136623,1,8,0:0:0:0:
384,384,136768,1,8,0:0:0:0:
316,14,136913,1,0,0:0:0:0:
108,351,137058,5,0,0:0:0:0:
262,235,137203,1,8,0:0:0:0:
304,237,137275,1,8,0:0:0:0:
346,239,137347,1,8,0:0:0:0:
108,351,137493,1,0,0:0:0:0:
262,235,137638,5,8,0:0:0:0:
304,237,137710,1,8,0:0:0:0:
346,239,137782,1,8,0:0:0:0:
389,242,137855,1,8,0:0:0:0:
431,244,137927,1,8,0:0:0:0:
433,100,138073,5,0,0:0:0:0:
363,360,138218,1,8,0:0:0:0:
433,100,138362,1,0,0:0:0:0:
262,235,138507,5,8,0:0:0:0:
304,237,138579,1,8,0:0:0:0:
346,239,138651,1,8,0:0:0:0:
389,242,138724,1,8,0:0:0:0:
431,244,138796,1,8,0:0:0:0:
285,117,138942,5,0,0:0:0:0:
512,247,139087,1,8,0:0:0:0:
285,117,139232,1,0,0:0:0:0:
82,272,139377,6,0,B|101:313|101:313|171:338,1,85,8|0,0:0|0:0,0:0:0:0:
132,74,139667,1,0,0:0:0:0:
138,326,139812,2,2,B|180:341|180:341|247:309,1,85,10|2,0:0|0:0,0:0:0:0:
132,74,140102,2,0,B|89:58|89:58|22:90,1,85,10|0,0:0|0:0,0:0:0:0:
138,326,140391,1,0,0:0:0:0:
132,74,140536,5,8,0:0:0:0:
138,326,140681,1,8,0:0:0:0:
53,75,140826,1,8,0:0:0:0:
216,324,140971,1,0,0:0:0:0:
132,74,141116,5,8,0:0:0:0:
291,299,141261,1,8,0:0:0:0:
60,122,141406,1,8,0:0:0:0:
361,250,141551,1,0,0:0:0:0:
419,13,141696,6,0,B|463:17|463:17|510:75,1,85,8|0,0:0|0:0,0:0:0:0:
248,124,141986,1,0,0:0:0:0:
488,48,142131,2,2,B|516:83|516:83|508:156,1,85,10|2,0:0|0:0,0:0:0:0:
248,124,142421,2,0,B|219:88|219:88|227:15,1,85,10|0,0:0|0:0,0:0:0:0:
488,48,142710,1,0,0:0:0:0:
248,124,142855,5,8,0:0:0:0:
488,48,143000,1,8,0:0:0:0:
223,49,143145,1,8,0:0:0:0:
511,122,143290,1,0,0:0:0:0:
248,124,143435,5,8,0:0:0:0:
512,201,143580,1,8,0:0:0:0:
270,41,143725,1,8,0:0:0:0:
489,283,143870,1,0,0:0:0:0:
104,304,144015,6,0,B|114:348|114:348|177:387,1,85,8|0,0:0|0:0,0:0:0:0:
193,120,144305,1,0,0:0:0:0:
147,368,144450,2,2,B|185:392|185:392|257:374,1,85,10|2,0:0|0:0,0:0:0:0:
193,120,144740,2,0,B|154:95|154:95|82:113,1,85,10|0,0:0|0:0,0:0:0:0:
147,368,145029,1,0,0:0:0:0:
193,120,145174,5,8,0:0:0:0:
147,368,145319,1,8,0:0:0:0:
115,105,145464,1,8,0:0:0:0:
223,382,145609,1,0,0:0:0:0:
193,120,145754,5,8,0:0:0:0:
301,373,145899,1,8,0:0:0:0:
113,152,146044,1,8,0:0:0:0:
380,340,146189,1,0,0:0:0:0:
75,239,146333,5,0,0:0:0:0:
283,86,146478,1,8,0:0:0:0:
324,92,146550,1,8,0:0:0:0:
366,99,146622,1,8,0:0:0:0:
75,239,146768,1,0,0:0:0:0:
283,86,146913,5,8,0:0:0:0:
324,93,146985,1,8,0:0:0:0:
366,100,147057,1,8,0:0:0:0:
408,107,147130,1,8,0:0:0:0:
450,114,147202,1,8,0:0:0:0:
249,79,147348,1,0,0:0:0:0:
473,109,148652,6,0,P|241:123|12:171,1,446.249986381531,4|0,0:0|0:0,0:0:0:0:
17,253,149812,2,0,P|249:267|478:315,1,446.249986381531,4|0,0:0|0:0,0:0:0:0:
508,378,150971,1,8,0:0:0:0:
252,347,151261,6,0,P|200:317|168:285,2,56.6666666666667,8|0|0,0:0|0:0|0:0,0:0:0:0:
327,359,151551,2,0,B|361:292|426:250|426:250|372:207|372:207|407:137|407:137|387:96|404:44|404:44|328:72|273:47,1,510.000019454957,12|0,0:0|0:0,0:0:0:0:
288,52,153000,1,0,0:0:0:0:
84,216,153290,5,0,0:0:0:0:
135,347,153580,2,0,L|216:382,1,56.6666666666667
235,274,153773,2,0,L|316:309,1,56.6666666666667
335,201,154160,6,0,L|416:236,1,56.6666666666667
435,128,154353,2,0,L|516:163,1,56.6666666666667
225,76,154739,6,0,B|161:166|161:166|87:204,2,170
385,113,155609,5,8,0:0:0:0:
359,207,155754,1,0,0:0:0:0:
416,121,155899,5,0,0:0:0:0:
327,198,156044,1,0,0:0:0:0:
441,152,156189,5,8,0:0:0:0:
302,167,156334,1,0,0:0:0:0:
446,198,156478,5,0,0:0:0:0:
297,121,156623,1,0,0:0:0:0:
420,248,156768,5,8,0:0:0:0:
380,262,156840,1,0,0:0:0:0:
339,275,156912,1,0,0:0:0:0:
299,289,156985,1,0,0:0:0:0:
336,344,157058,1,8,0:0:0:0:
295,357,157130,1,0,0:0:0:0:
255,371,157202,1,0,0:0:0:0:
215,384,157275,1,0,0:0:0:0:
128,384,157348,5,8,0:0:0:0:
135,342,157420,1,0,0:0:0:0:
143,300,157492,1,0,0:0:0:0:
151,258,157565,1,0,0:0:0:0:
85,264,157638,1,8,0:0:0:0:
94,221,157710,1,0,0:0:0:0:
101,180,157782,1,0,0:0:0:0:
109,138,157855,1,0,0:0:0:0:
44,95,157928,6,0,P|276:109|505:157,1,446.249986381531,4|0,0:0|0:0,0:0:0:0:
500,239,159088,2,0,P|268:253|39:301,1,446.249986381531,4|0,0:0|0:0,0:0:0:0:
0,384,160247,1,8,0:0:0:0:
186,364,160536,6,0,B|206:362|206:362|218:366|218:366|287:361,2,56.6666666666667,8|0|0,0:0|0:0|0:0,0:0:0:0:
330,349,160826,2,0,B|309:279|271:260|271:260|291:212|291:212|248:196|202:125|202:125|172:165|172:165|105:138|56:194|91:267,1,510.000019454957,8|0,0:0|0:0,0:0:0:0:
88,260,162275,1,0,0:0:0:0:
380,218,162565,5,0,0:0:0:0:
352,346,162856,2,0,L|271:381,1,56.6666666666667
252,273,163049,2,0,L|171:308,1,56.6666666666667
152,200,163436,6,0,L|71:235,1,56.6666666666667
52,127,163629,2,0,L|-29:162,1,56.6666666666667
262,75,164015,6,0,B|341:108|341:108|400:203,2,170
97,164,164884,5,8,0:0:0:0:
177,256,165029,1,0,0:0:0:0:
104,140,165174,5,0,0:0:0:0:
122,286,165319,1,0,0:0:0:0:
124,139,165464,5,8,0:0:0:0:
44,296,165609,1,0,0:0:0:0:
158,174,165754,5,0,0:0:0:0:
0,262,165899,1,0,0:0:0:0:
110,71,166044,5,8,0:0:0:0:
426,246,166189,1,0,0:0:0:0:
356,0,166333,1,0,0:0:0:0:
180,317,166478,1,0,0:0:0:0:
356,0,166623,5,8,0:0:0:0:
180,317,166768,1,0,0:0:0:0:
180,317,166841,1,0,0:0:0:0:
180,317,166913,1,0,0:0:0:0:
356,0,167058,1,0,0:0:0:0:
256,192,167203,12,0,167783,0:0:0:0:
