osu file format v14

[General]
AudioFilename: nice.mp3
AudioLeadIn: 0
PreviewTime: 73050
Countdown: 1
SampleSet: Soft
StackLeniency: 0.7
Mode: 0
LetterboxInBreaks: 0
WidescreenStoryboard: 1

[Editor]
DistanceSpacing: 1
BeatDivisor: 4
GridSize: 4
TimelineZoom: 1

[Metadata]
Title:How Low Can U Go
TitleUnicode:How Low Can μ Go
Artist:Triple-Q
ArtistUnicode:Triple-Q
Creator:CDFA
Version:Normal
Source:
Tags:Love Live School Idol Project Festival Ludacris Reditum Lanturn You
BeatmapID:893519
BeatmapSetID:404982

[Difficulty]
HPDrainRate:4
CircleSize:3.5
OverallDifficulty:4
ApproachRate:5
SliderMultiplier:2.59999990463257
SliderTickRate:2

[Events]
//Background and Video events
0,0,"Love.Live!.full.1805143.jpg",0,0
//Break Periods
//Storyboard Layer 0 (Background)
//Storyboard Layer 1 (Fail)
//Storyboard Layer 2 (Pass)
//Storyboard Layer 3 (Foreground)
//Storyboard Sound Samples

[TimingPoints]
13458.6816566531,833.44909015141,4,3,0,27,1,0
59923,-100,4,2,0,27,0,0
72841,-100,4,3,0,27,0,0
73467,-100,4,3,0,27,0,1
86802,-100,4,3,0,27,0,0

[Colours]
Combo1 : 255,128,128
Combo2 : 128,0,64
Combo3 : 128,64,64
Combo4 : 175,10,34

[HitObjects]
52,40,19709,5,4,0:0:0:0:
180,28,20126,2,0,P|188:96|156:184,1,129.999995231629,4|2,0:0|0:0,0:0:0:0:
144,212,20751,2,0,P|200:256|304:184,1,194.999992847443,4|8,0:0|0:0,0:0:0:0:
332,76,21793,2,0,P|408:64|476:176,2,194.999992847443,0|0|2,0:0|0:0|0:0,0:0:0:0:
256,184,23460,6,0,B|256:256|256:256|300:304|372:256,1,194.999992847443,4|4,0:0|0:0,0:0:0:0:
440,152,24501,1,0,0:0:0:0:
440,152,24710,2,0,P|448:96|400:8,1,129.999995231629,4|2,0:0|0:0,0:0:0:0:
292,28,25543,1,4,0:0:0:0:
164,48,25960,1,8,0:1:0:0:
136,176,26377,1,4,0:0:0:0:
240,252,26793,6,0,P|320:256|360:212,1,129.999995231629,4|0,0:0|0:0,0:0:0:0:
356,160,27418,2,0,P|356:96|476:80,1,194.999992847443,4|4,0:0|0:0,0:0:0:0:
500,196,28460,1,0,0:0:0:0:
476,324,28877,1,4,0:0:0:0:
348,316,29294,6,0,L|304:376,2,64.9999976158143,8|4|0,0:1|0:0|0:0,0:0:0:0:
348,184,30127,2,0,P|328:140|364:48,1,129.999995231629,4|0,0:0|0:0,0:0:0:0:
412,64,30752,2,0,L|200:60,1,194.999992847443,4|4,0:0|0:0,0:0:0:0:
88,52,31794,6,0,P|32:100|24:180,3,129.999995231629,8|8|8|8,0:2|0:2|0:2|0:2,0:0:0:0:
48,280,33461,6,0,P|120:296|196:252,1,129.999995231629,4|0,0:0|0:0,0:0:0:0:
224,240,34086,2,0,P|288:224|392:324,1,194.999992847443,4|4,0:0|0:0,0:0:0:0:
492,372,35128,1,0,0:0:0:0:
504,244,35545,1,4,0:0:0:0:
452,204,35753,2,0,L|416:72,1,129.999995231629
364,44,36378,1,0,0:0:0:0:
236,24,36795,6,0,P|156:36|136:96,1,129.999995231629,4|0,0:0|0:0,0:0:0:0:
156,136,37420,2,0,P|176:200|152:292,1,129.999995231629,4|4,0:0|0:0,0:0:0:0:
56,328,38253,1,0,0:0:0:0:
56,328,38462,1,0,0:0:0:0:
12,212,38878,1,4,0:0:0:0:
24,84,39295,2,0,L|8:16,1,64.9999976158143,8|4,0:1|0:0,0:0:0:0:
132,64,39920,6,0,L|152:140,1,64.9999976158143,0|4,0:0|0:0,0:0:0:0:
256,200,40545,1,0,0:0:0:0:
320,208,40754,2,0,P|404:200|448:108,1,194.999992847443,4|4,0:3|0:0,0:0:0:0:
336,40,41795,2,0,P|272:44|216:108,1,129.999995231629,0|4,0:0|0:0,0:0:0:0:
216,152,42421,2,0,P|192:232|104:248,1,129.999995231629
24,108,43462,5,4,0:0:0:0:
140,48,43879,1,0,0:0:0:0:
200,24,44087,2,0,P|272:24|340:80,1,129.999995231629,4|0,0:0|0:0,0:0:0:0:
320,120,44713,2,0,L|332:208,1,64.9999976158143,4|4,0:0|0:0,0:0:0:0:
424,356,45546,1,4,0:0:0:0:
296,364,45963,2,0,P|224:344|216:252,1,129.999995231629
260,184,46796,5,4,0:0:0:0:
368,256,47213,1,2,0:0:0:0:
416,136,47630,2,0,P|372:88|276:92,1,129.999995231629,8|8,0:1|0:0,0:0:0:0:
264,120,48255,2,0,P|168:152|112:60,1,194.999992847443,0|4,0:0|0:0,0:0:0:0:
216,12,49296,1,8,0:1:0:0:
344,40,49713,1,0,0:0:0:0:
372,168,50130,6,0,B|368:224|368:224|388:312,1,129.999995231629,8|0,0:0|0:0,0:0:0:0:
492,372,50963,2,0,B|360:324|360:324|304:332,1,194.999992847443,8|0,0:1|0:0,0:0:0:0:
244,348,51797,2,0,P|172:344|128:296,2,129.999995231629,0|4|8,0:0|0:0|0:1,0:0:0:0:
296,228,53047,5,0,0:0:0:0:
332,104,53464,2,0,P|272:60|208:96,1,129.999995231629,4|0,0:0|0:0,0:0:0:0:
208,140,54089,2,0,P|180:212|64:176,1,194.999992847443,4|4,0:0|0:0,0:0:0:0:
32,80,55131,6,0,P|100:36|176:44,1,129.999995231629,0|4,0:0|0:0,0:0:0:0:
204,64,55756,2,0,P|272:88|368:16,1,194.999992847443
480,88,56798,5,4,0:0:0:0:
480,217,57214,1,0,0:0:0:0:
436,264,57423,1,4,0:0:0:0:
376,240,57631,2,0,P|304:224|244:268,1,129.999995231629,8|4,0:1|0:0,0:0:0:0:
148,316,58464,1,0,0:0:0:0:
24,272,58881,1,4,0:0:0:0:
132,196,59298,1,8,0:1:0:0:
64,76,60131,6,0,P|136:56|208:112,1,129.999995231629,8|8,0:0|0:0,0:0:0:0:
236,116,60756,2,0,P|308:140|380:100,1,129.999995231629
404,76,61382,1,8,0:0:0:0:
476,184,61798,1,8,0:0:0:0:
428,228,62007,2,0,L|392:360,1,129.999995231629
328,360,62632,1,8,0:0:0:0:
240,264,63048,1,8,0:0:0:0:
112,292,63465,6,0,P|64:248|76:156,1,129.999995231629,8|8,0:0|0:0,0:0:0:0:
104,64,64299,2,0,L|64:0,2,64.9999976158143,8|0|8,0:0|0:0|0:0,0:0:0:0:
236,64,65132,1,8,0:0:0:0:
200,188,65549,2,0,P|220:216|248:224,1,64.9999976158143,8|0,0:0|0:0,0:0:0:0:
312,216,65965,2,0,P|388:208|468:252,2,129.999995231629,8|8|8,0:0|0:0|0:0,0:0:0:0:
200,280,67216,6,0,P|124:252|104:176,1,129.999995231629,8|8,0:0|0:0,0:0:0:0:
128,152,67841,2,0,P|148:80|100:16,1,129.999995231629
60,24,68466,1,8,0:0:0:0:
8,144,68883,2,0,B|0:212|0:212|20:284,1,129.999995231629,8|8,0:0|0:0,0:0:0:0:
112,356,69716,2,0,P|72:384|32:376,2,64.9999976158143,8|0|8,0:0|0:0|0:0,0:0:0:0:
192,256,70549,6,0,P|256:232|336:256,2,129.999995231629,8|8|8,0:0|0:0|0:0,0:0:0:0:
268,360,71800,1,8,0:0:0:0:
332,360,72008,1,0,0:0:0:0:
396,352,72216,2,0,P|508:244|488:152,1,259.999990463257,8|8,0:0|0:0,0:0:0:0:
416,48,73467,6,0,B|336:32|304:64|304:64|304:128|255:102|208:128|208:64|208:64|176:32|96:48,1,389.999985694885,4|8,0:0|0:0,0:0:0:0:
20,156,75133,2,0,L|40:240,1,64.9999976158143
72,272,75550,2,0,B|140:288|140:288|208:340,2,129.999995231629,8|8|4,0:0|0:1|0:0,0:0:0:0:
112,144,76800,6,0,B|224:64|256:192|256:192|288:320|400:240,1,389.999985694885,4|4,0:0|0:0,0:0:0:0:
452,124,78467,2,0,P|460:88|460:40,1,64.9999976158143
416,12,78884,2,0,B|348:12|348:12|288:48,2,129.999995231629,4|8|4,0:0|0:1|0:0,0:0:0:0:
472,128,80134,6,0,P|468:212|216:212,1,389.999985694885,4|4,0:3|0:3,0:0:0:0:
172,112,81801,2,0,P|112:88|48:140,1,129.999995231629,0|4,0:0|0:3,0:0:0:0:
40,180,82426,2,0,L|32:268,1,64.9999976158143,0|8,0:0|0:1,0:0:0:0:
144,316,83051,1,8,0:0:0:0:
252,248,83468,5,4,0:0:0:0:
256,192,83885,12,4,86802,0:0:0:0:
