osu file format v14

[General]
AudioFilename: nice.mp3
AudioLeadIn: 0
PreviewTime: 73050
Countdown: 1
SampleSet: None
StackLeniency: 0.7
Mode: 0
LetterboxInBreaks: 0
WidescreenStoryboard: 1

[Editor]
Bookmarks: 34396
DistanceSpacing: 1
BeatDivisor: 8
GridSize: 4
TimelineZoom: 1

[Metadata]
Title:How Low Can U Go
TitleUnicode:How Low Can μ Go
Artist:Triple-Q
ArtistUnicode:Triple-Q
Creator:CDFA
Version:Hard
Source:
Tags:Love Live School Idol Project Festival Ludacris Reditum Lanturn You
BeatmapID:880431
BeatmapSetID:404982

[Difficulty]
HPDrainRate:7
CircleSize:4
OverallDifficulty:7
ApproachRate:8
SliderMultiplier:3.59999990463257
SliderTickRate:1

[Events]
//Background and Video events
0,0,"Love.Live!.full.1805143.jpg",0,0
//Break Periods
//Storyboard Layer 0 (Background)
//Storyboard Layer 1 (Fail)
//Storyboard Layer 2 (Pass)
//Storyboard Layer 3 (Foreground)
//Storyboard Sound Samples

[TimingPoints]
13458.6816566531,833.44909015141,4,3,0,27,1,0
60131,-100,4,2,0,27,0,0
73050,-100,4,3,0,27,0,0
73467,-100,4,3,0,27,0,1
86802,-100,4,3,0,27,0,0

[Colours]
Combo1 : 255,128,128
Combo2 : 128,0,64
Combo3 : 128,64,64
Combo4 : 175,10,34

[HitObjects]
92,28,19709,6,0,L|60:112,1,89.9999976158143,8|0,0:1|0:0,0:0:0:0:
84,200,20126,2,0,P|180:204|212:116,1,179.999995231629,4|2,0:0|0:0,0:0:0:0:
256,60,20751,1,4,0:0:0:0:
297,138,20959,2,0,P|343:210|428:200,1,179.999995231629,8|2,2:1|0:0,0:0:0:0:
256,252,21793,2,0,L|256:52,2,179.999995231629,0|4|2,0:0|0:0|2:2,0:0:0:0:
108,352,23043,1,0,0:0:0:0:
24,192,23460,6,0,P|24:104|112:56,1,179.999995231629,4|2,0:0|0:0,0:0:0:0:
180,88,24085,2,0,P|268:128|356:68,1,179.999995231629,4|0,0:0|0:0,0:0:0:0:
404,32,24710,1,4,0:0:0:0:
492,40,24918,1,4,0:0:0:0:
492,128,25126,2,0,B|484:240|484:240|496:316,2,179.999995231629,0|4|8,0:0|0:0|0:1,0:0:0:0:
416,76,26168,2,0,B|332:116|332:116|268:104|248:52,1,179.999995231629,4|2,0:0|0:0,0:0:0:0:
184,24,26793,6,0,P|112:20|68:48,1,89.9999976158143,4|0,0:0|0:0,0:0:0:0:
56,104,27210,1,2,0:0:0:0:
72,192,27418,2,0,B|148:216|172:264|172:264|176:320,1,179.999995231629,4|0,0:3|0:0,0:0:0:0:
256,360,28044,1,4,0:0:0:0:
336,317,28252,2,0,B|340:264|340:264|364:216|440:192,1,179.999995231629,4|0,0:0|0:0,0:0:0:0:
432,96,28877,1,4,0:0:0:0:
364,36,29085,1,0,0:0:0:0:
308,108,29294,2,0,P|264:152|200:144,1,89.9999976158143,8|0,0:1|0:0,0:0:0:0:
156,128,29710,2,0,P|116:124|64:160,1,89.9999976158143
28,224,30127,6,0,B|60:304|60:304|132:272|180:316,1,179.999995231629,4|0,0:0|0:0,0:0:0:0:
232,336,30752,2,0,P|328:344|416:292,1,179.999995231629,4|2,0:0|0:0,0:0:0:0:
432,224,31377,1,4,0:0:0:0:
376,152,31586,1,4,0:0:0:0:
340,236,31794,2,0,P|252:228|180:156,3,179.999995231629,8|8|8|8,0:2|0:2|0:2|0:2,0:0:0:0:
320,48,33461,6,0,P|424:56|456:120,1,179.999995231629,4|0,0:0|0:0,0:0:0:0:
420,200,34086,2,0,P|368:252|396:356,1,179.999995231629,4|0,0:0|0:0,0:0:0:0:
476,360,34711,2,0,L|272:332,1,179.999995231629,8|0,0:0|0:0,0:0:0:0:
168,208,35545,1,4,0:0:0:0:
192,120,35753,1,0,0:0:0:0:
280,92,35961,2,0,P|320:112|384:80,1,89.9999976158143,8|0,0:1|0:0,0:0:0:0:
332,16,36378,2,0,L|300:236,1,179.999995231629,0|4,0:0|0:0,0:0:0:0:
188,328,37211,5,0,0:0:0:0:
96,336,37420,1,4,0:0:0:0:
40,268,37628,2,0,P|92:208|104:108,1,179.999995231629,8|4,0:1|0:0,0:0:0:0:
28,64,38253,2,0,P|104:112|212:92,1,179.999995231629,0|2,0:0|0:0,0:0:0:0:
272,68,38878,1,4,0:0:0:0:
332,132,39087,1,0,0:0:0:0:
252,172,39295,1,8,0:1:0:0:
172,212,39503,2,0,P|212:292|324:280,1,179.999995231629
260,216,40129,6,0,L|60:204,1,179.999995231629,4|2,0:0|0:0,0:0:0:0:
20,136,40754,1,4,0:3:0:0:
68,60,40962,2,0,P|128:48|192:68,1,89.9999976158143,8|0,0:1|0:0,0:0:0:0:
232,104,41379,1,4,0:3:0:0:
316,68,41587,1,0,0:0:0:0:
308,156,41795,2,0,B|324:248|324:248|296:336,1,179.999995231629,0|4,0:0|0:3,0:0:0:0:
208,320,42421,2,0,L|404:344,1,179.999995231629,0|4,0:0|0:3,0:0:0:0:
428,168,43254,1,0,0:0:0:0:
388,88,43462,6,0,P|300:88|204:144,1,179.999995231629,4|0,0:0|0:0,0:0:0:0:
160,196,44087,2,0,P|204:284|180:368,1,179.999995231629
96,360,44713,1,4,0:0:0:0:
56,280,44921,1,4,0:0:0:0:
60,192,45129,2,0,B|160:196|160:196|220:132,1,179.999995231629,0|4,0:0|0:0,0:0:0:0:
340,8,45963,6,0,L|160:8,2,179.999995231629,0|0|4,0:0|0:0|0:3,0:0:0:0:
488,112,47213,1,2,0:0:0:0:
500,292,47630,2,0,P|400:332|324:288,1,179.999995231629,8|0,0:0|0:0,0:0:0:0:
336,216,48255,2,0,P|336:128|228:60,1,179.999995231629,4|8,0:3|0:3,0:0:0:0:
184,56,48880,1,4,0:3:0:0:
40,168,49296,1,8,0:0:0:0:
56,256,49505,1,4,0:3:0:0:
144,252,49713,2,0,B|204:256|204:256|328:324,1,179.999995231629,2|4,0:0|0:3,0:0:0:0:
484,276,50547,5,0,0:0:0:0:
488,188,50755,1,4,0:3:0:0:
436,116,50963,2,0,P|328:88|256:148,1,179.999995231629,8|4,0:0|0:3,0:0:0:0:
220,192,51588,1,0,0:0:0:0:
260,272,51797,2,0,B|216:352|216:352|116:360,2,179.999995231629,0|4|8,0:0|0:3|0:0,0:0:0:0:
388,144,53047,5,0,0:0:0:0:
496,288,53464,2,0,P|416:344|332:296,1,179.999995231629,4|2,0:3|0:0,0:0:0:0:
320,232,54089,2,0,P|224:188|160:236,1,179.999995231629,4|0,0:3|0:0,0:0:0:0:
144,312,54714,2,0,L|136:104,1,179.999995231629,4|2,0:3|0:0,0:0:0:0:
284,36,55547,1,4,0:3:0:0:
344,104,55756,2,0,B|440:96|440:96|516:40,2,179.999995231629,0|4|0,0:0|0:3|0:0,0:0:0:0:
280,168,56798,6,0,B|276:264|276:264|248:368,2,179.999995231629,4|2|8,0:3|0:0|0:0,0:0:0:0:
144,48,58048,1,4,0:3:0:0:
80,112,58256,1,4,0:3:0:0:
148,172,58464,2,0,P|172:252|144:356,1,179.999995231629,2|4,0:0|0:3,0:0:0:0:
68,384,59090,1,0,0:0:0:0:
16,312,59298,2,0,L|0:220,1,89.9999976158143,8|4,0:0|0:3,0:0:0:0:
20,136,59715,1,0,0:0:0:0:
108,152,59923,1,0,0:0:0:0:
116,240,60131,6,0,B|160:248|160:248|236:228,1,89.9999976158143,10|0,0:2|0:0,0:0:0:0:
396,144,60548,2,0,B|352:136|352:136|276:156,1,89.9999976158143,8|2,0:2|0:0,0:0:0:0:
140,284,60965,2,0,B|184:277|184:277|249:232,1,89.9999976158143,8|0,0:2|0:0,0:0:0:0:
371,99,61382,2,0,B|327:106|327:106|262:151,1,89.9999976158143,10|0,0:2|0:0,0:0:0:0:
179,318,61798,6,0,B|218:296|218:296|263:232,1,89.9999976158143,8|2,0:2|0:0,0:0:0:0:
332,65,62215,2,0,B|293:87|293:87|248:151,1,89.9999976158143,8|0,0:2|0:0,0:0:0:0:
227,337,62632,2,0,B|256:303|256:303|277:227,1,89.9999976158143,10|0,0:2|0:0,0:0:0:0:
284,46,63048,2,0,B|255:80|255:80|234:156,1,89.9999976158143,10|0,0:2|0:0,0:0:0:0:
268,259,63465,6,0,B|256:303|256:303|227:337,1,89.9999976158143,8|0,0:2|0:0,0:0:0:0:
243,124,63882,2,0,B|255:80|255:80|284:46,1,89.9999976158143,8|2,0:2|0:0,0:0:0:0:
244,259,64299,2,0,B|218:296|218:296|179:318,1,89.9999976158143,8|0,0:2|0:0,0:0:0:0:
267,124,64715,2,0,B|293:87|293:87|332:65,1,89.9999976158143,10|0,0:2|0:0,0:0:0:0:
222,251,65132,6,0,B|184:277|184:277|140:284,1,89.9999976158143,8|2,0:2|0:0,0:0:0:0:
289,132,65549,2,0,B|327:106|327:106|371:99,1,89.9999976158143,8|0,0:2|0:0,0:0:0:0:
203,236,65965,2,0,B|160:248|160:248|116:240,1,89.9999976158143,10|2,0:2|0:0,0:0:0:0:
308,147,66382,2,0,B|352:136|352:136|396:144,1,89.9999976158143,10|0,0:2|0:0,0:0:0:0:
256,336,66799,5,8,0:0:0:0:
256,336,66903,1,0,0:0:0:0:
256,336,67007,2,0,B|184:356|184:356|136:332,1,89.9999976158143,0|8,0:0|0:0,0:0:0:0:
112,280,67424,1,0,0:0:0:0:
124,192,67632,2,0,P|144:160|144:100,1,89.9999976158143,8|0,0:0|0:0,0:0:0:0:
108,28,68049,1,8,0:0:0:0:
196,24,68257,2,0,B|328:24|328:24|384:68,1,179.999995231629
420,124,68883,5,0,0:0:0:0:
420,124,68987,1,0,0:0:0:0:
420,124,69091,2,0,B|412:176|412:176|428:252,1,89.9999976158143,0|8,0:0|0:0,0:0:0:0:
452,296,69508,1,0,0:0:0:0:
364,316,69716,2,0,P|308:308|268:320,1,89.9999976158143,8|0,0:0|0:0,0:0:0:0:
236,332,70029,1,2,0:0:0:0:
196,356,70133,5,2,0:3:0:0:
256,192,70341,12,12,72633,0:3:0:0:
160,176,73467,6,0,B|208:128|208:128|176:64|256:3|336:64|304:128|304:128|352:176,1,359.999990463257,4|8,1:0|0:1,0:0:0:0:
460,324,74717,1,8,0:0:0:0:
372,348,74925,1,0,0:0:0:0:
288,316,75133,2,0,P|244:264|244:212,1,89.9999976158143
328,156,75550,2,0,P|336:204|308:252,1,89.9999976158143,8|0,0:0|0:0,0:0:0:0:
184,320,75967,2,0,P|92:300|72:216,1,179.999995231629,8|2,0:1|0:0,0:0:0:0:
112,48,76800,6,0,B|176:-16|256:98|256:98|336:-16|400:48,1,359.999990463257,8|8,0:0|0:1,0:0:0:0:
448,124,77842,1,0,0:0:0:0:
464,212,78050,1,8,0:0:0:0:
448,300,78259,1,0,0:0:0:0:
364,336,78467,2,0,P|276:336|248:316,1,89.9999976158143,0|2,0:0|0:0,0:0:0:0:
188,196,78884,2,0,P|216:236|232:288,1,89.9999976158143,4|0,0:0|0:0,0:0:0:0:
32,296,79301,2,0,B|88:268|148:304|148:304|164:352|216:348,1,179.999995231629
304,200,80134,6,0,P|328:140|304:20,1,179.999995231629,4|2,0:0|0:0,0:0:0:0:
256,100,80759,1,4,0:0:0:0:
202,28,80968,2,0,P|181:115|208:200,1,179.999995231629,8|4,0:1|0:0,0:0:0:0:
256,276,81593,1,0,0:0:0:0:
344,252,81801,2,0,P|400:244|460:280,1,89.9999976158143,0|8,0:0|0:0,0:0:0:0:
436,384,82218,2,0,P|388:340|400:288,1,89.9999976158143,4|0,0:0|0:0,0:0:0:0:
404,168,82634,2,0,P|404:120|284:60,1,179.999995231629,8|0,0:1|0:0,0:0:0:0:
256,228,83468,5,4,0:0:0:0:
256,192,83885,12,14,86802,0:0:0:0:
