osu file format v14

[General]
AudioFilename: audio.mp3
AudioLeadIn: 0
PreviewTime: 59948
Countdown: 0
SampleSet: Soft
StackLeniency: 0.4
Mode: 0
LetterboxInBreaks: 0
WidescreenStoryboard: 0

[Editor]
DistanceSpacing: 3.1
BeatDivisor: 4
GridSize: 32
TimelineZoom: 4.399997

[Metadata]
Title:Seishun Nonfiction
TitleUnicode:Seishun Nonfiction
Artist:Triple booking
ArtistUnicode:Triple booking
Creator:kjounouchi
Version:Geblek
Source:
Tags:Geblek Anying Sableng
BeatmapID:1582823
BeatmapSetID:751871

[Difficulty]
HPDrainRate:5
CircleSize:4
OverallDifficulty:8.3
ApproachRate:9.4
SliderMultiplier:1.8
SliderTickRate:1

[Events]
//Background and Video events
0,0,"geblek.jpg",0,0
//Break Periods
//Storyboard Layer 0 (Background)
//Storyboard Layer 1 (Fail)
//Storyboard Layer 2 (Pass)
//Storyboard Layer 3 (Foreground)
//Storyboard Sound Samples

[TimingPoints]
714,370.37037037037,4,2,0,79,1,0
3676,-83.3333333333333,4,2,0,79,0,0
9602,-71.4285714285714,4,2,0,79,0,0
15528,-90.9090909090909,4,2,0,79,0,0
30343,-125,4,2,0,79,0,0
34788,-90.9090909090909,4,2,0,79,0,0
36269,-125,4,2,0,79,0,0
39232,-142.857142857143,4,2,0,79,0,0
49602,-90.9090909090909,4,2,0,79,0,1
62936,-71.4285714285714,4,2,0,79,0,1
65899,-55.5555555555556,4,2,0,79,0,1
68862,-83.3333333333333,4,2,0,79,0,0
83676,-90.9090909090909,4,2,0,79,0,0
89602,-90.9090909090909,4,2,0,79,0,0
97010,-90.9090909090909,4,2,0,10,0,0
98121,-90.9090909090909,4,2,0,10,0,0
98491,-125,4,2,0,79,0,0
102936,-90.9090909090909,4,2,0,79,0,0
104417,-125,4,2,0,79,0,0
107380,-142.857142857143,4,2,0,79,0,0
109602,-125,4,2,0,79,0,0
109973,-100,4,2,0,79,0,0
110899,-95.2380952380952,4,2,0,79,0,0
110991,-95.2380952380952,4,2,0,79,0,0
117751,-76.9230769230769,4,2,0,79,0,1
128491,-71.4285714285714,4,2,0,79,0,1
129232,-66.6666666666667,4,2,0,79,0,1
129973,-62.5,4,2,0,79,0,1
131084,-62.5,4,2,0,79,0,1
134047,-52.6315789473684,4,2,0,79,0,1
137010,-76.9230769230769,4,2,0,79,0,0
145899,-100,4,2,0,79,0,0
147380,-83.3333333333333,4,2,0,79,0,0
148862,-66.6666666666667,4,2,0,79,0,0
154788,-58.8235294117647,4,2,0,79,0,0
160713,-76.9230769230769,4,2,0,79,0,0
172565,-142.857142857143,4,2,0,79,0,0
182936,-66.6666666666667,4,2,0,79,0,1
194417,-62.5,4,2,0,79,0,1
195158,-58.8235294117647,4,2,0,79,0,1
196269,-55.5555555555556,4,2,0,79,0,1
199232,-50,4,2,0,79,0,1
202195,-66.6666666666667,4,2,0,79,0,0

[HitObjects]
74,126,714,6,0,P|63:183|116:244,1,135
140,244,1084,2,0,L|236:228,1,90
336,55,1454,1,0,0:0:0:0:
322,76,1547,1,0,0:0:0:0:
147,157,1732,6,0,L|235:138,1,90
296,200,2010,2,0,P|369:190|396:92,1,180
115,72,2565,2,0,L|147:159,1,90
146,156,2936,1,0,0:0:0:0:
260,325,3306,5,0,0:0:0:0:
292,324,3399,1,0,0:0:0:0:
323,325,3491,1,0,0:0:0:0:
355,326,3584,1,0,0:0:0:0:
386,328,3676,6,0,L|408:268,1,53.9999983520508
471,158,3862,2,0,L|448:220,1,53.9999983520508
356,137,4047,2,0,L|356:200,1,53.9999983520508
244,182,4232,2,0,L|272:240,1,53.9999983520508
227,347,4417,6,0,L|190:296,1,53.9999983520508
40,248,4602,2,0,L|100:232,1,53.9999983520508
299,274,4788,2,0,L|262:223,1,53.9999983520508
108,156,4973,2,0,L|168:140,1,53.9999983520508
356,137,5158,6,0,L|280:164,1,53.9999983520508
216,55,5343,2,0,L|164:68,1,53.9999983520508
92,234,5528,2,0,L|144:220,1,53.9999983520508
378,68,5713,6,0,P|487:120|481:162,1,161.999995056153
440,212,6084,2,0,L|404:320,1,107.999996704102
405,314,6454,1,0,0:0:0:0:
324,232,6639,5,0,0:0:0:0:
324,232,6732,1,0,0:0:0:0:
324,232,6825,2,0,L|244:212,1,53.9999983520508
104,156,7010,5,0,0:0:0:0:
104,156,7103,1,0,0:0:0:0:
104,156,7196,2,0,L|184:136,1,53.9999983520508
448,84,7380,6,0,L|336:52,1,107.999996704102
344,54,7751,1,0,0:0:0:0:
459,164,7936,2,0,P|424:232|296:216,1,215.999993408203
240,132,8399,1,0,0:0:0:0:
264,104,8491,2,0,P|240:52|184:40,1,107.999996704102
80,144,8862,6,0,P|48:184|72:228,1,107.999996704102
256,148,9232,2,0,P|216:116|168:136,1,107.999996704102
72,228,9602,6,0,B|102:258|102:258|260:273,1,188.999994232178
439,229,9973,2,0,B|342:229|342:229|301:208,1,125.999996154785
281,72,10251,1,0,0:0:0:0:
242,60,10343,2,0,P|180:82|173:151,1,125.999996154785
32,167,10621,6,0,L|63:306,1,125.999996154785
155,295,10899,2,0,L|175:372,1,62.9999980773926
275,285,11084,2,0,L|244:146,1,125.999996154785
286,126,11362,5,0,0:0:0:0:
332,107,11454,1,0,0:0:0:0:
380,92,11547,1,0,0:0:0:0:
428,78,11639,1,0,0:0:0:0:
494,124,11732,5,0,0:0:0:0:
489,174,11825,1,0,0:0:0:0:
481,223,11917,1,0,0:0:0:0:
475,273,12010,1,0,0:0:0:0:
467,322,12102,1,0,0:0:0:0:
456,371,12195,2,0,B|328:342,1,125.999996154785
96,264,12565,5,0,0:0:0:0:
104,280,12658,1,0,0:0:0:0:
132,196,12843,5,0,0:0:0:0:
148,200,12936,1,0,0:0:0:0:
108,120,13121,5,2,0:0:0:0:
124,120,13214,1,0,0:0:0:0:
48,72,13399,5,0,0:0:0:0:
60,60,13491,1,0,0:0:0:0:
307,143,13676,6,0,L|264:144,1,31.4999990386963
276,168,13769,2,0,L|241:178,1,31.4999990386963
260,196,13862,2,0,L|234:219,1,31.4999990386963
252,232,13954,2,0,L|240:268,1,31.4999990386963
260,276,14047,5,0,0:0:0:0:
416,104,14294,5,0,0:0:0:0:
48,72,14541,5,0,0:0:0:0:
345,298,14788,5,0,0:0:0:0:
161,32,15034,5,0,0:0:0:0:
61,340,15281,5,0,0:0:0:0:
136,193,15528,6,0,L|256:172,1,99.0000030212403
300,100,15806,1,0,0:0:0:0:
280,76,15899,2,0,L|176:96,1,99.0000030212403
32,52,16269,6,0,L|52:152,1,99.0000030212403
136,193,16547,1,0,0:0:0:0:
168,208,16639,2,0,L|188:308,1,99.0000030212403
304,42,17010,6,0,B|280:136|280:136|284:188,1,148.500004531861
352,260,17380,2,0,L|372:152,1,99.0000030212403
460,56,17751,2,0,L|436:160,1,99.0000030212403
472,288,18121,2,0,L|496:180,1,99.0000030212403
283,187,18491,6,0,L|264:292,1,99.0000030212403
144,312,18769,1,0,0:0:0:0:
124,284,18862,2,0,L|143:179,1,99.0000030212403
206,60,19232,6,0,L|310:40,1,99.0000030212403
264,160,19510,1,0,0:0:0:0:
283,187,19602,2,0,L|343:199,1,49.5000015106202
472,264,19788,2,0,L|320:296,1,148.500004531861
191,225,20158,2,0,L|287:185,1,99.0000030212403
288,188,20528,1,0,0:0:0:0:
96,56,20713,6,0,L|120:112,1,49.5000015106202
264,160,20899,2,0,L|240:104,1,49.5000015106202
350,39,21084,5,0,0:0:0:0:
350,39,21176,1,0,0:0:0:0:
350,39,21269,1,0,0:0:0:0:
350,39,21362,1,0,0:0:0:0:
350,39,21454,6,0,L|454:59,1,99.0000030212403
509,111,21732,1,0,0:0:0:0:
512,188,21825,2,0,B|488:181|488:181|391:163,1,99.0000030212403
262,193,22195,2,0,B|286:200|286:200|383:218,1,99.0000030212403
505,303,22565,5,0,0:0:0:0:
505,303,22751,2,0,B|405:331,1,99.0000030212403
324,352,23121,2,0,L|212:340,1,99.0000030212403
55,250,23491,1,0,0:0:0:0:
55,250,23676,2,0,L|167:238,1,99.0000030212403
362,170,24047,2,0,L|250:158,1,99.0000030212403
64,44,24417,6,0,P|64:108|104:136,1,99.0000030212403
172,76,24695,1,0,0:0:0:0:
192,104,24788,2,0,L|192:168,1,49.5000015106202
308,64,24973,6,0,L|424:68,1,99.0000030212403
406,67,25343,1,0,0:0:0:0:
344,152,25528,1,0,0:0:0:0:
340,153,25713,2,0,L|180:153,1,148.50000453186
64,230,26084,6,0,L|196:226,1,99.0000030212403
269,251,26454,1,0,0:0:0:0:
376,234,26639,1,0,0:0:0:0:
433,140,26825,1,0,0:0:0:0:
380,44,27010,2,0,L|264:44,1,99.0000030212403
124,280,27380,6,0,L|244:280,1,99.0000030212403
436,100,27751,6,0,L|316:100,1,99.0000030212403
200,352,28121,6,0,L|300:352,1,99.0000030212403
368,344,28399,1,0,0:0:0:0:
394,338,28491,1,0,0:0:0:0:
180,64,29973,5,0,0:0:0:0:
159,80,30065,5,0,0:0:0:0:
135,105,30158,5,0,0:0:0:0:
111,130,30251,5,0,0:0:0:0:
99,152,30343,6,0,L|115:224,1,72
184,328,30621,1,0,0:0:0:0:
216,300,30713,2,0,L|288:276,1,72
468,328,31084,2,0,L|380:324,1,72
396,324,31454,1,0,0:0:0:0:
444,164,31639,6,0,P|468:128|456:76,1,72
320,28,32010,2,0,L|320:104,1,72
320,100,32380,1,0,0:0:0:0:
240,232,32565,2,0,L|240:156,1,72
176,40,32936,2,0,P|180:80|132:144,1,108
32,144,33306,6,0,P|20:188|28:228,1,72
23,213,33676,1,0,0:0:0:0:
117,275,33862,2,0,P|161:287|201:279,1,72
187,284,34232,1,0,0:0:0:0:
215,144,34417,2,0,P|171:132|131:140,1,72
480,152,34788,6,0,P|476:200|432:200,1,99.0000030212403
364,164,35065,2,0,P|352:220|376:252,1,99.0000030212403
420,316,35343,2,0,B|368:324|368:324|300:312,1,99.0000030212403
280,248,35621,5,0,0:0:0:0:
256,212,35713,2,0,L|207:222,1,49.5000015106202
20,172,35899,2,0,L|68:161,1,49.5000015106202
216,36,36084,2,0,L|167:46,1,49.5000015106202
68,160,36269,6,0,P|55:193|62:228,1,72
192,116,36639,2,0,L|268:128,1,72
368,264,37010,2,0,L|292:252,1,72
296,252,37380,1,0,0:0:0:0:
124,280,37565,2,0,P|80:280|80:208,1,108
252,193,37936,6,0,P|268:141|244:105,1,72
262,126,38306,1,0,0:0:0:0:
60,153,38491,2,0,L|64:233,1,72
252,265,38861,2,0,L|252:189,1,72
128,52,39232,6,0,P|124:136|208:132,1,188.999994232178
264,60,39973,2,0,P|300:84|340:84,1,62.9999980773926
392,24,40343,2,0,L|404:116,1,62.9999980773926
488,224,40713,2,0,L|472:88,1,125.999996154785
473,98,41269,1,0,0:0:0:0:
464,296,41454,6,0,L|392:320,1,62.9999980773926
368,240,41825,2,0,L|292:240,1,62.9999980773926
104,224,42195,5,0,0:0:0:0:
172,160,42380,1,0,0:0:0:0:
196,252,42565,1,0,0:0:0:0:
72,192,42751,5,0,0:0:0:0:
200,136,42936,1,0,0:0:0:0:
180,272,43121,1,0,0:0:0:0:
56,164,43306,5,0,0:0:0:0:
236,136,43491,1,0,0:0:0:0:
164,308,43676,1,0,0:0:0:0:
40,132,43862,5,0,0:0:0:0:
268,148,44047,1,0,0:0:0:0:
144,336,44232,1,0,0:0:0:0:
404,200,44417,5,0,0:0:0:0:
315,226,44602,1,0,0:0:0:0:
383,293,44787,1,0,0:0:0:0:
393,156,44973,5,0,0:0:0:0:
280,239,45158,1,0,0:0:0:0:
408,289,45343,1,0,0:0:0:0:
377,128,45528,5,0,0:0:0:0:
266,272,45713,1,0,0:0:0:0:
447,293,45898,1,0,0:0:0:0:
357,98,46084,5,0,0:0:0:0:
257,304,46269,1,0,0:0:0:0:
481,290,46454,1,0,0:0:0:0:
332,76,46639,5,0,0:0:0:0:
256,192,46732,12,0,47936,0:0:0:0:
446,118,48121,5,0,0:0:0:0:
446,118,48306,5,0,0:0:0:0:
136,48,49602,5,0,0:0:0:0:
172,68,49695,2,0,L|292:56,1,99.0000030212403
420,148,49973,2,0,L|300:164,1,99.0000030212403
64,180,50343,5,0,0:0:0:0:
88,208,50436,2,0,L|212:192,1,99.0000030212403
332,288,50713,2,0,L|208:304,1,99.0000030212403
360,160,51084,5,0,0:0:0:0:
392,132,51177,2,0,L|356:24,1,99.0000030212403
192,68,51454,2,0,L|228:176,1,99.0000030212403
400,328,51825,6,0,P|340:288|340:252,1,99.0000030212403
444,176,52102,1,0,0:0:0:0:
409,157,52195,2,0,L|348:164,1,49.5000015106202
192,68,52380,2,0,L|241:62,1,49.5000015106202
264,272,52565,6,0,L|140:276,1,99.0000030212403
88,232,52843,1,0,0:0:0:0:
168,188,52936,2,0,P|215:190|172:120,1,148.50000453186
108,84,53306,6,0,B|184:44|184:44|296:44,1,198.000006042481
352,44,53769,1,0,0:0:0:0:
396,76,53862,1,0,0:0:0:0:
408,128,53954,1,0,0:0:0:0:
388,180,54047,2,0,P|364:252|420:272,1,148.50000453186
492,328,54417,6,0,B|436:356|436:356|332:340,1,148.50000453186
180,284,54788,2,0,P|220:264|232:248,1,49.5000015106202
388,180,54973,2,0,P|368:140|352:128,1,49.5000015106202
108,256,55158,6,0,P|138:223|144:204,1,49.5000015106202
332,76,55343,2,0,P|299:45|280:39,1,49.5000015106202
48,208,55528,5,0,0:0:0:0:
60,160,55621,2,0,P|116:156|164:140,1,99.0000030212403
198,59,55899,2,0,P|245:45|295:43,1,99.0000030212403
388,180,56269,5,0,0:0:0:0:
420,144,56362,2,0,P|412:84|380:44,1,99.0000030212403
198,59,56639,2,0,P|206:119|238:159,1,99.0000030212403
420,240,57010,5,0,0:0:0:0:
372,256,57103,2,0,P|328:272|260:268,1,99.0000030212403
227,149,57380,2,0,P|271:134|339:137,1,99.0000030212403
480,40,57751,6,0,P|424:56|372:52,1,99.0000030212403
235,39,58028,1,0,0:0:0:0:
198,59,58121,2,0,P|162:71|142:67,1,49.5000015106202
32,200,58306,2,0,P|54:189|78:189,1,49.5000015106202
260,236,58491,6,0,P|216:248|184:296,1,99.0000030212403
252,344,58769,1,0,0:0:0:0:
336,312,58862,2,0,L|336:148,1,148.50000453186
372,32,59232,6,0,B|408:136|408:136|408:232,1,198.000006042481
396,276,59695,1,0,0:0:0:0:
364,320,59788,1,0,0:0:0:0:
320,352,59880,1,0,0:0:0:0:
268,368,59973,2,0,P|212:360|196:276,1,148.50000453186
314,245,60343,6,0,B|378:241|378:241|418:217,1,99.0000030212403
472,148,60621,1,0,0:0:0:0:
408,72,60713,2,0,P|360:84|260:52,1,148.50000453186
104,36,61084,6,0,P|152:56|152:104,1,99.0000030212403
84,168,61362,1,0,0:0:0:0:
136,252,61454,2,0,B|208:256|208:256|288:248,1,148.50000453186
400,128,61825,6,0,B|352:120|352:120|284:124,1,99.0000030212403
216,172,62102,1,0,0:0:0:0:
151,118,62195,2,0,P|119:169|140:257,1,148.50000453186
225,308,62565,6,0,L|304:292,1,49.5000015106202
343,356,62751,2,0,L|381:298,1,49.5000015106202
488,104,62936,5,0,0:0:0:0:
176,296,63121,1,0,0:0:0:0:
484,176,63307,5,0,0:0:0:0:
158,230,63492,1,0,0:0:0:0:
448,240,63677,5,0,0:0:0:0:
172,156,63862,1,0,0:0:0:0:
392,280,64047,5,0,0:0:0:0:
216,100,64232,1,0,0:0:0:0:
329,311,64417,6,0,P|220:304|207:230,1,188.999994232178
281,62,64788,2,0,P|284:165|268:176,1,125.999996154785
117,182,65065,5,0,0:0:0:0:
83,248,65158,2,0,P|187:250|211:236,1,125.999996154785
422,164,65436,5,0,0:0:0:0:
416,92,65528,2,0,P|330:90|277:170,1,188.999994232178
216,352,65899,6,0,P|260:344|280:312,1,80.9999975280763
491,183,66084,2,0,P|454:157|417:166,1,80.9999975280763
145,333,66269,6,0,P|189:325|209:293,1,80.9999975280763
420,164,66454,2,0,P|383:138|346:147,1,80.9999975280763
74,314,66639,6,0,P|118:306|138:274,1,80.9999975280763
349,145,66824,2,0,P|312:119|275:128,1,80.9999975280763
4,294,67010,6,0,P|48:286|68:254,1,80.9999975280763
279,125,67195,2,0,P|242:99|205:108,1,80.9999975280763
116,48,67380,5,0,0:0:0:0:
120,104,67473,1,0,0:0:0:0:
156,148,67565,1,0,0:0:0:0:
208,168,67658,1,0,0:0:0:0:
288,172,67751,5,0,0:0:0:0:
364,140,67843,1,0,0:0:0:0:
440,172,67936,1,0,0:0:0:0:
472,248,68028,1,0,0:0:0:0:
412,336,68121,5,0,0:0:0:0:
308,352,68213,1,0,0:0:0:0:
204,328,68306,1,0,0:0:0:0:
136,248,68399,1,0,0:0:0:0:
156,148,68491,6,0,L|176:64,1,80.9999975280763
428,256,68676,2,0,L|412:335,1,80.9999975280763
49,299,68862,6,0,B|109:330|109:330|220:327,1,161.999995056153
320,232,69232,2,0,P|264:208|212:212,1,107.999996704102
47,133,69602,5,0,0:0:0:0:
56,100,69695,1,0,0:0:0:0:
219,40,69880,6,0,L|334:50,1,107.999996704102
487,141,70158,2,0,L|285:128,1,161.999995056153
277,129,70528,1,0,0:0:0:0:
43,195,70713,6,0,L|106:193,1,53.9999983520508
233,232,70899,2,0,L|287:232,1,53.9999983520508
493,288,71084,2,0,B|471:309|471:309|276:318,1,215.999993408203
224,320,71547,5,0,0:0:0:0:
176,324,71639,1,0,0:0:0:0:
128,328,71732,1,0,0:0:0:0:
80,332,71825,6,0,L|60:264,1,53.9999983520508
152,252,72010,2,0,L|96:212,1,53.9999983520508
180,164,72195,2,0,L|108:148,1,53.9999983520508
176,72,72380,2,0,L|104:80,1,53.9999983520508
64,280,72565,6,0,B|88:312|88:312|120:320,1,53.9999983520508
268,324,72751,2,0,P|296:324|324:308,1,53.9999983520508
108,220,72936,2,0,B|132:252|132:252|164:260,1,53.9999983520508
324,240,73121,2,0,P|352:240|380:224,1,53.9999983520508
127,152,73306,6,0,B|155:168|155:168|191:180,1,53.9999983520508
472,56,73491,2,0,B|448:44|448:44|404:36,1,53.9999983520508
400,148,73676,2,0,B|371:155|371:155|344:156,1,53.9999983520508
160,39,73861,6,0,P|96:99|137:157,1,161.999995056153
108,220,74232,2,0,P|166:232|218:216,1,107.999996704102
212,219,74602,1,0,0:0:0:0:
380,80,74787,5,0,0:0:0:0:
404,152,74880,1,0,0:0:0:0:
432,224,74973,2,0,L|456:296,1,53.9999983520508
244,296,75158,5,0,0:0:0:0:
216,224,75251,1,0,0:0:0:0:
192,152,75343,2,0,L|168:80,1,53.9999983520508
432,224,75528,6,0,P|400:264|336:272,1,107.999996704102
174,100,75899,1,0,0:0:0:0:
244,296,76084,2,0,P|256:224|384:168,1,215.999993408203
444,100,76547,1,0,0:0:0:0:
376,32,76639,2,0,P|328:48|272:36,1,107.999996704102
244,296,77010,6,0,L|348:260,1,107.999996704102
480,191,77380,2,0,L|367:162,1,107.999996704102
72,320,77750,6,0,B|44:268|44:268|51:143,1,161.999995056153
144,32,78121,2,0,L|140:158,1,107.999996704102
200,248,78399,1,0,0:0:0:0:
246,220,78491,2,0,L|250:94,1,107.999996704102
364,31,78769,6,0,L|352:152,1,107.999996704102
374,270,79047,2,0,L|389:207,1,53.9999983520508
244,175,79232,2,0,B|258:313,1,107.999996704102
211,314,79510,5,0,0:0:0:0:
161,293,79602,1,0,0:0:0:0:
142,241,79695,1,0,0:0:0:0:
147,187,79788,1,0,0:0:0:0:
171,98,79880,5,0,0:0:0:0:
105,59,79973,1,0,0:0:0:0:
35,86,80065,1,0,0:0:0:0:
4,155,80158,1,0,0:0:0:0:
14,229,80250,1,0,0:0:0:0:
52,294,80343,6,0,L|108:314,1,53.9999983520508
147,187,80528,2,0,L|207:179,1,53.9999983520508
400,104,80713,5,0,0:0:0:0:
432,104,80806,1,0,0:0:0:0:
260,68,80991,5,0,0:0:0:0:
228,76,81084,1,0,0:0:0:0:
388,140,81269,5,0,0:0:0:0:
408,164,81362,1,0,0:0:0:0:
264,92,81547,5,0,0:0:0:0:
252,124,81640,1,0,0:0:0:0:
436,240,81824,6,0,L|456:264,1,26.9999991760254
404,284,81917,2,0,L|372:252,1,26.9999991760254
356,308,82010,2,0,L|352:344,1,26.9999991760254
304,316,82102,2,0,L|284:272,1,26.9999991760254
244,312,82195,5,0,0:0:0:0:
40,136,82442,5,0,0:0:0:0:
436,240,82689,5,0,0:0:0:0:
120,276,82936,5,0,0:0:0:0:
424,72,83182,5,0,0:0:0:0:
168,28,83429,5,0,0:0:0:0:
216,231,84417,5,0,0:0:0:0:
488,108,84602,1,0,0:0:0:0:
208,120,84788,1,0,0:0:0:0:
488,284,84973,2,0,L|328:300,1,148.50000453186
220,236,85343,6,0,L|392:216,1,148.50000453186
408,216,85713,1,0,0:0:0:0:
492,80,85899,2,0,L|368:92,1,99.0000030212403
152,220,86269,6,0,P|148:256|144:260,6,24.7500007553101
156,176,86639,6,0,P|232:168|252:116,1,99.0000030212403
172,64,86917,1,0,0:0:0:0:
60,72,87010,2,0,L|60:184,1,99.0000030212403
136,312,87288,5,0,0:0:0:0:
207,314,87381,2,0,L|256:314,1,49.5000015106202
288,236,87565,2,0,L|352:236,1,49.5000015106202
452,164,87751,2,0,L|372:168,1,49.5000015106202
252,64,87936,2,0,P|332:48|252:132,1,297.000009063721
252,136,88862,5,0,0:0:0:0:
384,160,89047,1,0,0:0:0:0:
252,136,89232,2,0,L|244:296,1,148.50000453186
36,352,89602,6,0,L|44:240,1,99.0000030212403
55,44,89880,1,0,0:0:0:0:
112,40,89973,2,0,P|132:60|160:64,1,49.5000015106202
252,136,90158,2,0,P|232:156|204:160,1,49.5000015106202
328,313,90343,6,0,P|256:301|240:269,1,99.0000030212403
410,213,90621,1,0,0:0:0:0:
444,248,90713,2,0,L|448:316,1,49.5000015106202
500,108,90899,2,0,P|452:80|408:80,1,99.0000030212403
252,136,91176,5,0,0:0:0:0:
211,160,91269,2,0,P|196:112|152:80,1,99.0000030212403
31,171,91547,1,0,0:0:0:0:
12,216,91639,2,0,L|48:264,1,49.5000015106202
159,82,91825,6,0,P|99:66|71:22,1,99.0000030212403
322,47,92102,1,0,0:0:0:0:
332,96,92195,2,0,L|356:196,1,99.0000030212403
512,308,92473,5,0,0:0:0:0:
482,353,92565,2,0,P|434:337|382:337,1,99.0000030212403
313,218,92843,1,0,0:0:0:0:
355,192,92936,2,0,B|376:176|376:176|416:168,1,49.5000015106202
159,82,93121,2,0,B|180:98|180:98|220:106,1,49.5000015106202
388,32,93306,6,0,P|448:48|452:100,1,99.0000030212403
385,266,93584,1,0,0:0:0:0:
347,300,93676,2,0,P|320:305|279:291,1,49.5000015106202
56,133,93862,2,0,P|112:65|168:93,1,148.50000453186
352,116,94232,6,0,P|280:136|204:136,1,148.50000453186
56,133,94602,2,0,L|60:189,1,49.5000015106202
184,352,94788,2,0,L|196:192,1,148.50000453186
247,46,95158,2,0,P|299:118|363:110,1,148.50000453186
448,40,95528,6,0,L|468:156,1,99.0000030212403
439,293,95806,1,0,0:0:0:0:
388,312,95899,2,0,L|300:292,1,49.5000015106202
244,197,96084,2,0,L|184:205,1,49.5000015106202
72,328,96269,6,0,L|220:288,1,148.50000453186
428,80,96639,2,0,L|280:120,1,148.50000453186
232,184,97010,5,0,0:0:0:0:
260,204,97102,1,0,0:0:0:0:
288,224,97195,1,0,0:0:0:0:
316,244,97288,1,0,0:0:0:0:
412,226,97380,5,0,0:0:0:0:
412,186,97473,1,0,0:0:0:0:
412,150,97565,1,0,0:0:0:0:
392,47,97658,5,0,0:0:0:0:
359,84,97751,1,0,0:0:0:0:
315,107,97843,1,0,0:0:0:0:
265,105,97936,1,0,0:0:0:0:
217,91,98028,1,0,0:0:0:0:
169,76,98121,6,0,L|113:64,1,49.5000015106202
0,228,98306,2,0,L|48:216,1,49.5000015106202
192,356,98491,6,0,P|212:320|211:232,1,108
156,212,98862,2,0,P|100:216|36:216,1,108
0,124,99232,6,0,L|119:119,1,108
148,46,99602,2,0,L|291:54,1,144
288,288,100158,6,0,L|424:280,1,108
448,200,100528,2,0,L|400:196,1,36
192,204,100713,2,0,B|188:148|188:148|196:92,1,108
360,76,101084,2,0,P|399:82|447:26,1,108
456,140,101454,6,0,L|460:224,1,72
322,296,101825,2,0,L|314:208,1,72
176,64,102195,2,0,L|192:192,1,108
104,192,102565,2,0,L|111:263,1,72
322,296,102936,6,0,P|364:268|364:204,1,99.0000030212403
312,112,103213,2,0,P|356:136|416:136,1,99.0000030212403
492,48,103491,2,0,B|439:49|439:49|392:48,1,99.0000030212403
156,37,103769,5,0,0:0:0:0:
112,48,103862,2,0,L|92:116,1,49.5000015106202
232,176,104047,2,0,L|236:232,1,49.5000015106202
376,224,104232,2,0,L|415:261,1,49.5000015106202
126,333,104417,6,0,P|84:302|89:251,1,108
98,95,104788,2,0,P|123:161|105:210,1,108
232,176,105158,2,0,L|357:183,1,108
512,253,105528,2,0,L|362:266,1,144
126,333,106084,6,0,B|211:320,1,72
197,322,106454,1,0,0:0:0:0:
368,265,106639,2,0,L|351:149,1,108
271,91,107010,2,0,L|268:169,1,72
20,28,107380,6,0,B|72:28|72:28|144:48|144:48|216:40,1,188.999994232178
176,120,108121,2,0,L|92:124,1,62.9999980773926
92,204,108491,2,0,L|28:208,1,62.9999980773926
0,284,108862,2,0,B|44:292|44:292|84:284|84:284|124:292,1,125.999996154785
123,291,109417,1,0,0:0:0:0:
392,308,109602,6,0,L|372:232,1,72
248,220,109973,2,0,L|280:128,1,90
277,134,110343,5,0,0:0:0:0:
327,71,110528,1,0,0:0:0:0:
360,144,110713,1,0,0:0:0:0:
216,175,110899,5,0,0:0:0:0:
328,60,111084,1,0,0:0:0:0:
376,213,111269,1,0,0:0:0:0:
168,226,111454,5,0,0:0:0:0:
331,43,111639,1,0,0:0:0:0:
407,277,111825,1,0,0:0:0:0:
126,283,112010,5,0,0:0:0:0:
333,25,112195,1,0,0:0:0:0:
427,341,112380,1,0,0:0:0:0:
203,323,112565,5,0,0:0:0:0:
437,145,112751,1,0,0:0:0:0:
144,126,112936,1,0,0:0:0:0:
273,342,113121,5,0,0:0:0:0:
476,82,113306,1,0,0:0:0:0:
111,198,113491,1,0,0:0:0:0:
349,347,113676,5,0,0:0:0:0:
434,19,113862,1,0,0:0:0:0:
189,64,114047,1,0,0:0:0:0:
424,331,114232,5,0,0:0:0:0:
150,126,114417,1,0,0:0:0:0:
21,337,114602,1,0,0:0:0:0:
302,172,114788,5,0,0:0:0:0:
256,192,114880,12,0,116084,0:0:0:0:
396,140,116269,5,0,0:0:0:0:
396,140,116454,5,0,0:0:0:0:
44,204,117751,6,0,P|40:156|60:84,1,116.999994644165
251,24,118028,1,0,0:0:0:0:
292,84,118121,2,0,P|220:132|132:128,1,175.499991966248
84,268,118491,6,0,P|160:244|196:248,1,116.999994644165
371,341,118769,1,0,0:0:0:0:
436,324,118862,2,0,P|488:272|464:172,1,175.499991966248
328,220,119232,6,0,P|248:184|232:148,1,116.999994644165
123,32,119510,1,0,0:0:0:0:
56,32,119602,2,0,P|72:120|156:132,1,175.499991966248
420,44,119973,6,0,P|400:112|360:112,1,116.999994644165
235,161,120251,1,0,0:0:0:0:
216,208,120344,2,0,B|184:208|184:208|155:215,1,58.4999973220826
12,352,120528,2,0,B|44:352|44:352|73:345,1,58.4999973220826
420,312,120714,6,0,B|360:328|360:328|296:328,1,116.999994644165
216,208,120992,1,0,0:0:0:0:
164,136,121085,2,0,B|136:120|136:120|204:100|300:96,1,175.499991966248
440,179,121455,6,0,B|316:172|316:172|212:207,1,233.999989288331
168,284,121918,1,0,0:0:0:0:
80,268,122011,1,0,0:0:0:0:
36,192,122103,1,0,0:0:0:0:
96,128,122196,2,0,P|192:116|216:40,1,175.499991966248
332,40,122565,6,0,L|340:244,1,175.499991966248
440,296,122936,2,0,L|440:164,1,116.999994644165
372,31,123213,1,0,0:0:0:0:
332,40,123306,2,0,P|288:48|264:40,1,58.4999973220826
20,128,123491,2,0,P|64:136|88:128,1,58.4999973220826
338,215,123676,6,0,P|280:232|220:216,1,116.999994644165
63,66,123954,1,0,0:0:0:0:
20,128,124048,2,0,P|20:192|124:224,1,175.499991966248
332,40,124417,6,0,P|368:100|348:140,1,116.999994644165
175,265,124695,1,0,0:0:0:0:
112,229,124788,2,0,P|112:173|224:141,1,175.499991966248
440,292,125158,6,0,B|390:315|390:315|304:332,1,116.999994644165
175,265,125436,1,0,0:0:0:0:
226,219,125528,2,0,B|312:208|312:208|408:208,1,175.499991966248
504,108,125900,6,0,B|456:92|456:92|380:88,1,116.999994644165
184,56,126177,1,0,0:0:0:0:
132,104,126270,2,0,B|140:136|140:136|136:164,1,58.4999973220826
32,276,126454,2,0,B|24:308|24:308|28:336,1,58.4999973220826
224,333,126639,6,0,B|213:277|213:277|228:205,1,116.999994644165
252,71,126918,1,0,0:0:0:0:
184,56,127011,2,0,B|92:56|92:56|-8:84,1,175.499991966248
196,140,127380,6,0,B|304:160|304:160|436:152,1,233.999989288331
484,224,127844,1,0,0:0:0:0:
508,308,127937,1,0,0:0:0:0:
456,376,128029,1,0,0:0:0:0:
368,372,128122,2,0,B|312:356|312:356|192:352,1,175.499991966248
68,284,128492,6,0,B|104:272|104:272|208:272,1,125.999996154785
374,209,128770,1,0,0:0:0:0:
344,144,128862,2,0,B|296:156|296:156|140:148,1,188.999994232178
32,56,129232,6,0,B|132:56|132:56|172:80,1,135.000005149842
493,126,129511,1,0,0:0:0:0:
492,56,129603,2,0,B|328:48|328:48|280:56,1,202.500007724762
13,155,129973,6,0,B|137:155|137:155|161:147,1,144
400,166,130251,1,0,0:0:0:0:
376,232,130343,2,0,B|324:248|324:248|160:244,1,216
24,288,130714,5,0,0:0:0:0:
124,324,130807,1,0,0:0:0:0:
232,328,130900,2,0,B|252:332|252:332|328:328,1,72
480,340,131085,5,0,0:0:0:0:
292,232,131270,1,0,0:0:0:0:
472,268,131454,5,0,0:0:0:0:
224,224,131639,1,0,0:0:0:0:
464,200,131825,5,0,0:0:0:0:
156,216,132010,1,0,0:0:0:0:
456,132,132195,5,0,0:0:0:0:
88,208,132380,1,0,0:0:0:0:
448,64,132566,6,0,B|352:56|352:56|224:60,1,216
148,143,132936,2,0,P|216:159|224:228,1,144
15,172,133214,5,0,0:0:0:0:
24,108,133307,2,0,B|60:88|60:88|168:64,1,144
404,89,133585,5,0,0:0:0:0:
468,124,133677,2,0,P|460:256|384:280,1,216
212,336,134048,6,0,B|208:284|208:284|220:236,1,85.4999977169037
300,48,134232,2,0,B|304:100|304:100|292:148,1,85.4999977169037
124,308,134417,6,0,B|133:256|133:256|157:213,1,85.4999977169037
388,76,134602,2,0,B|378:127|378:127|354:170,1,85.4999977169037
48,256,134788,6,0,B|70:208|70:208|104:173,1,85.4999977169037
464,128,134973,2,0,B|441:175|441:175|407:210,1,85.4999977169037
0,184,135158,6,0,B|33:144|33:144|76:118,1,85.4999977169037
512,200,135343,2,0,B|478:239|478:239|435:265,1,85.4999977169037
30,48,135529,5,0,0:0:0:0:
115,36,135622,1,0,0:0:0:0:
192,70,135714,1,0,0:0:0:0:
215,152,135807,1,0,0:0:0:0:
148,230,135900,5,0,0:0:0:0:
214,244,135992,1,0,0:0:0:0:
281,257,136085,1,0,0:0:0:0:
347,270,136177,1,0,0:0:0:0:
435,178,136270,5,0,0:0:0:0:
403,174,136362,1,0,0:0:0:0:
367,170,136455,1,0,0:0:0:0:
331,166,136548,1,0,0:0:0:0:
299,162,136640,6,0,L|203:150,1,85.4999977169037
115,36,136825,2,0,L|211:48,1,85.4999977169037
264,260,137010,2,0,B|16:220,1,233.999989288331
0,120,137565,5,0,0:0:0:0:
28,124,137658,1,0,0:0:0:0:
56,128,137751,2,0,L|72:68,1,58.4999973220826
216,40,137936,2,0,L|348:56,1,116.999994644165
472,196,138306,2,0,L|340:180,1,116.999994644165
36,164,138676,6,0,L|32:240,1,58.4999973220826
108,336,138862,2,0,L|120:216,1,116.999994644165
264,140,139139,1,0,0:0:0:0:
228,227,139232,2,0,P|300:251|355:169,1,175.499991966248
424,44,139602,2,0,L|440:164,1,116.999994644165
332,54,139973,6,0,B|272:46|272:46|172:58|172:58|96:42,1,233.999989288331
8,116,140528,1,0,0:0:0:0:
28,128,140621,1,0,0:0:0:0:
48,136,140713,2,0,L|112:160,1,58.4999973220826
128,248,140899,2,0,L|248:240,1,116.999994644165
392,336,141269,2,0,L|276:344,1,116.999994644165
416,248,141639,6,0,L|400:172,1,58.4999973220826
304,64,141825,2,0,L|320:140,1,58.4999973220826
244,240,142010,6,0,L|292:204,1,58.4999973220826
160,145,142195,2,0,L|100:157,1,58.4999973220826
0,44,142380,6,0,L|132:40,1,116.999994644165
204,40,142658,1,0,0:0:0:0:
292,52,142751,1,0,0:0:0:0:
360,108,142843,1,0,0:0:0:0:
389,189,142936,2,0,P|365:269|240:240,1,233.999989288331
40,104,143491,5,0,0:0:0:0:
36,140,143584,1,0,0:0:0:0:
32,176,143677,2,0,L|24:240,1,58.4999973220826
144,264,143862,2,0,L|161:135,1,116.999994644165
216,60,144232,2,0,L|336:52,1,116.999994644165
416,236,144602,2,0,L|296:244,1,116.999994644165
448,48,144973,5,0,0:0:0:0:
464,88,145066,1,0,0:0:0:0:
476,120,145158,2,0,L|408:132,1,58.4999973220826
296,52,145343,5,0,0:0:0:0:
256,56,145436,1,0,0:0:0:0:
216,60,145528,2,0,P|216:132|140:104,1,175.499991966248
60,72,145899,5,0,0:0:0:0:
60,108,145991,1,0,0:0:0:0:
60,144,146084,1,0,0:0:0:0:
60,180,146176,1,0,0:0:0:0:
128,252,146269,5,0,0:0:0:0:
180,232,146362,1,0,0:0:0:0:
232,224,146454,1,0,0:0:0:0:
280,248,146547,1,0,0:0:0:0:
324,336,146639,5,0,0:0:0:0:
392,312,146732,1,0,0:0:0:0:
440,256,146825,1,0,0:0:0:0:
448,184,146917,1,0,0:0:0:0:
436,112,147010,2,0,P|384:128|368:200,1,135
280,248,147380,6,0,L|220:220,1,53.9999983520508
104,88,147565,2,0,L|200:76,1,53.9999983520508
436,112,147751,2,0,L|360:92,1,53.9999983520508
128,252,147936,6,0,L|148:192,1,53.9999983520508
264,44,148121,2,0,L|284:96,1,53.9999983520508
280,248,148306,2,0,B|324:244|324:244|368:228|376:176,1,107.999996704102
380,104,148584,1,0,0:0:0:0:
460,136,148676,1,0,0:0:0:0:
484,220,148769,1,0,0:0:0:0:
476,308,148862,2,0,P|424:332|336:328,1,135.000005149842
79,251,149139,5,0,0:0:0:0:
124,224,149232,2,0,P|156:228|200:204,1,67.5000025749208
283,94,149417,2,0,P|251:98|207:74,1,67.5000025749208
52,24,149602,2,0,P|48:104|100:144,1,135.000005149842
260,169,149880,5,0,0:0:0:0:
314,173,149973,2,0,P|327:207|321:252,1,67.5000025749208
130,354,150158,2,0,P|117:320|132:206,1,135.000005149842
315,329,150436,5,0,0:0:0:0:
364,333,150528,2,0,P|398:336|442:355,1,67.5000025749208
260,251,150713,2,0,P|291:239|325:236,1,67.5000025749208
123,223,150899,2,0,P|182:199|210:136,1,135.000005149842
271,49,151176,5,0,0:0:0:0:
358,42,151269,1,0,0:0:0:0:
442,67,151362,1,0,0:0:0:0:
491,138,151454,1,0,0:0:0:0:
504,225,151547,1,0,0:0:0:0:
507,312,151639,2,0,L|366:333,1,135.000005149842
286,348,151917,5,0,0:0:0:0:
218,354,152010,1,0,0:0:0:0:
151,359,152102,1,0,0:0:0:0:
83,363,152195,6,0,L|71:295,1,67.5000025749208
272,209,152380,2,0,L|292:301,1,67.5000025749208
10,250,152565,6,0,L|21:184,1,67.5000025749208
356,140,152751,2,0,L|345:206,1,67.5000025749208
203,92,152936,5,0,0:0:0:0:
271,50,153028,1,0,0:0:0:0:
351,39,153121,1,0,0:0:0:0:
422,76,153213,1,0,0:0:0:0:
464,145,153306,6,0,P|464:202|452:215,1,67.5000025749208
198,154,153491,2,0,P|198:97|210:84,1,67.5000025749208
383,211,153676,6,0,P|383:268|371:281,1,67.5000025749208
117,220,153861,2,0,P|117:163|129:150,1,67.5000025749208
319,352,154047,6,0,P|262:352|249:340,1,67.5000025749208
310,86,154232,2,0,P|367:86|380:98,1,67.5000025749208
508,250,154417,6,0,P|509:291|479:336,1,67.5000025749208
256,347,154602,2,0,P|255:306|285:261,1,67.5000025749208
117,220,154788,6,0,B|153:208|153:208|280:205,1,153.000002918243
233,86,155065,2,0,B|261:82|261:82|320:86,1,76.5000014591217
470,38,155251,2,0,B|442:34|442:34|383:38,1,76.5000014591217
62,45,155436,6,0,P|92:129|151:121,1,153.000002918243
412,170,155713,2,0,P|427:214|404:250,1,76.5000014591217
237,155,155899,2,0,P|221:110|245:75,1,76.5000014591217
470,38,156084,2,0,L|471:121,1,76.5000014591217
472,352,156269,6,0,B|384:352|384:352|300:328,1,153.000002918243
133,294,156547,2,0,B|154:285|154:285|222:286,1,76.5000014591217
415,239,156732,2,0,B|394:230|394:230|326:231,1,76.5000014591217
87,361,156917,6,0,P|26:341|54:257,1,153.000002918243
62,45,157195,2,0,P|109:42|154:62,1,76.5000014591217
311,161,157380,2,0,P|264:164|219:144,1,76.5000014591217
133,294,157565,2,0,L|152:211,1,76.5000014591217
458,47,157751,6,0,B|449:174|449:174|433:201,1,153.000002918243
245,336,158028,2,0,B|280:341|280:341|325:333,1,76.5000014591217
512,270,158213,2,0,B|477:265|477:265|432:273,1,76.5000014591217
120,288,158399,6,0,P|58:294|28:203,1,153.000002918243
220,215,158676,2,0,L|308:206,1,76.5000014591217
381,48,158862,2,0,L|304:55,1,76.5000014591217
58,75,159047,2,0,L|65:151,1,76.5000014591217
120,288,159232,6,0,P|196:280|216:200,1,153.000002918243
145,40,159510,6,0,P|65:120|69:164,1,153.000002918243
204,132,159788,6,0,P|240:144|296:128,1,76.5000014591217
486,72,159973,6,0,P|364:40|253:62,1,229.500004377365
145,40,160343,6,0,L|81:28,6,38.2500007295609
174,87,160713,6,0,P|191:117|212:144,1,58.4999973220826
224,296,160899,2,0,P|255:279|281:258,1,58.4999973220826
348,84,161084,6,0,P|332:120|332:156,1,58.4999973220826
432,256,161269,2,0,P|396:240|360:240,1,58.4999973220826
72,208,161454,6,0,B|96:216|96:216|140:212,1,58.4999973220826
231,91,161639,2,0,B|207:83|207:83|163:87,1,58.4999973220826
136,280,161825,6,0,B|160:274|160:274|196:249,1,58.4999973220826
100,88,162010,2,0,B|75:93|75:93|39:118,1,58.4999973220826
224,312,162195,6,0,B|242:295|242:295|261:255,1,58.4999973220826
32,176,162380,2,0,B|13:192|13:192|-5:232,1,58.4999973220826
276,184,162565,2,0,L|272:124,1,58.4999973220826
336,32,162751,6,0,L|352:280,1,233.999989288331
224,312,163213,1,0,0:0:0:0:
136,280,163306,2,0,L|68:284,1,58.4999973220826
0,192,163491,2,0,L|72:188,1,58.4999973220826
196,80,163676,5,0,0:0:0:0:
236,76,163769,1,0,0:0:0:0:
276,72,163862,2,0,L|344:68,1,58.4999973220826
488,168,164047,5,0,0:0:0:0:
448,172,164139,1,0,0:0:0:0:
408,176,164232,2,0,L|336:184,1,58.4999973220826
180,284,164417,6,0,L|256:280,1,58.4999973220826
268,348,164602,2,0,L|340:344,1,58.4999973220826
472,284,164788,1,0,0:0:0:0:
56,180,164973,2,0,P|48:84|184:52,1,233.999989288331
248,108,165436,1,0,0:0:0:0:
280,196,165528,2,0,P|232:224|172:208,1,116.999994644165
348,72,165899,6,0,P|396:44|456:60,1,116.999994644165
500,164,166176,1,0,0:0:0:0:
468,244,166269,2,0,P|452:280|380:312,1,116.999994644165
68,284,166639,6,0,L|196:264,1,116.999994644165
288,224,166917,1,0,0:0:0:0:
320,148,167010,2,0,L|204:140,1,116.999994644165
92,152,167288,1,0,0:0:0:0:
20,116,167380,2,0,L|12:48,1,58.4999973220826
187,24,167565,6,0,L|205:155,1,116.999994644165
288,282,167843,2,0,L|288:210,1,58.4999973220826
408,32,168028,2,0,L|396:148,1,116.999994644165
392,188,168306,5,0,0:0:0:0:
388,228,168399,1,0,0:0:0:0:
384,268,168491,1,0,0:0:0:0:
380,308,168584,1,0,0:0:0:0:
376,348,168677,1,0,0:0:0:0:
280,352,168769,5,0,0:0:0:0:
208,328,168862,1,0,0:0:0:0:
168,264,168954,1,0,0:0:0:0:
180,188,169047,1,0,0:0:0:0:
236,136,169139,1,0,0:0:0:0:
280,72,169232,6,0,L|212:56,1,58.4999973220826
408,32,169417,2,0,L|488:44,1,58.4999973220826
136,164,169602,5,0,0:0:0:0:
88,168,169695,1,0,0:0:0:0:
176,260,169880,5,0,0:0:0:0:
136,284,169972,1,0,0:0:0:0:
272,292,170158,5,0,0:0:0:0:
276,340,170250,1,0,0:0:0:0:
376,260,170435,5,0,0:0:0:0:
408,296,170528,1,0,0:0:0:0:
460,180,170713,6,0,L|464:220,1,29.2499986610413
436,168,170806,2,0,L|428:124,1,29.2499986610413
400,152,170899,2,0,L|396:200,1,29.2499986610413
376,140,170991,2,0,L|372:104,1,29.2499986610413
340,136,171084,5,0,0:0:0:0:
316,136,171176,1,0,0:0:0:0:
296,40,171362,5,0,0:0:0:0:
256,40,171454,1,0,0:0:0:0:
240,144,171639,5,0,0:0:0:0:
200,144,171732,1,0,0:0:0:0:
172,48,171917,5,0,0:0:0:0:
132,48,172010,1,0,0:0:0:0:
48,200,172195,6,0,L|32:232,1,29.2499986610413
56,224,172288,2,0,L|60:256,1,29.2499986610413
76,244,172380,2,0,L|104:264,1,29.2499986610413
116,248,172473,2,0,L|160:248,1,29.2499986610413
164,240,172565,6,0,P|188:328|260:292,1,188.999994232178
332,248,173306,2,0,L|392:228,1,62.9999980773926
381,139,173676,2,0,L|440:96,1,62.9999980773926
372,40,174047,2,0,L|236:56,1,125.999996154785
246,54,174602,1,0,0:0:0:0:
68,156,174788,6,0,L|140:160,1,62.9999980773926
225,227,175158,2,0,L|163:239,1,62.9999980773926
163,239,175528,5,0,0:0:0:0:
196,92,175713,1,0,0:0:0:0:
320,200,175899,1,0,0:0:0:0:
112,220,176084,5,0,0:0:0:0:
240,56,176269,1,0,0:0:0:0:
336,256,176454,1,0,0:0:0:0:
68,184,176639,5,0,0:0:0:0:
292,44,176825,1,0,0:0:0:0:
348,312,177010,1,0,0:0:0:0:
28,140,177195,5,0,0:0:0:0:
344,40,177380,1,0,0:0:0:0:
360,368,177565,1,0,0:0:0:0:
28,140,177751,5,0,0:0:0:0:
360,368,177936,1,0,0:0:0:0:
344,40,178121,1,0,0:0:0:0:
68,184,178306,5,0,0:0:0:0:
348,312,178491,1,0,0:0:0:0:
292,44,178676,1,0,0:0:0:0:
112,220,178862,5,0,0:0:0:0:
400,252,179047,1,0,0:0:0:0:
240,56,179232,1,0,0:0:0:0:
164,248,179417,5,0,0:0:0:0:
432,180,179602,1,0,0:0:0:0:
140,48,179788,1,0,0:0:0:0:
260,200,179973,5,0,0:0:0:0:
256,192,180065,12,0,181269,0:0:0:0:
288,84,181454,5,0,0:0:0:0:
288,84,181639,5,0,0:0:0:0:
7,85,182010,5,0,0:0:0:0:
11,125,182102,1,0,0:0:0:0:
15,165,182195,1,0,0:0:0:0:
84,228,182288,5,0,0:0:0:0:
140,248,182380,1,0,0:0:0:0:
200,248,182473,1,0,0:0:0:0:
248,216,182565,1,0,0:0:0:0:
292,176,182658,1,0,0:0:0:0:
316,120,182751,1,0,0:0:0:0:
324,60,182843,1,0,0:0:0:0:
368,36,182936,6,0,P|444:64|464:120,1,135.000005149842
472,260,183213,1,0,0:0:0:0:
397,307,183306,2,0,P|365:267|397:123,1,202.500007724762
232,32,183676,6,0,P|256:108|228:160,1,135.000005149842
61,126,183954,1,0,0:0:0:0:
19,203,184047,2,0,B|23:243|23:243|107:259|179:211,1,202.500007724762
360,220,184417,6,0,P|280:236|256:280,1,135.000005149842
436,321,184695,1,0,0:0:0:0:
496,258,184787,2,0,P|472:166|368:150,1,202.500007724762
324,28,185158,6,0,P|304:96|248:96,1,135.000005149842
72,116,185436,1,0,0:0:0:0:
19,203,185529,2,0,B|44:209|44:209|87:203,1,67.5000025749208
189,285,185713,2,0,B|221:285|221:285|257:277,1,67.5000025749208
376,146,185899,6,0,B|328:166|328:166|228:172,1,135.000005149842
88,264,186177,1,0,0:0:0:0:
21,322,186270,2,0,P|154:331|193:278,1,202.500007724762
139,95,186640,6,0,B|103:51|103:51|87:267,1,270.000010299683
172,236,187103,1,0,0:0:0:0:
260,216,187196,1,0,0:0:0:0:
344,192,187288,1,0,0:0:0:0:
428,168,187381,6,0,P|460:168|440:128,1,67.5000025749208
174,65,187565,2,0,P|142:65|162:105,1,67.5000025749208
344,192,187750,6,0,P|348:272|308:316,1,135.000005149842
172,236,188028,1,0,0:0:0:0:
87,263,188121,2,0,B|55:255|55:255|7:259,1,67.5000025749208
138,94,188306,1,0,0:0:0:0:
224,116,188399,1,0,0:0:0:0:
304,84,188491,2,0,B|335:76|335:76|371:84,1,67.5000025749208
512,212,188676,2,0,B|480:219|480:219|444:211,1,67.5000025749208
319,303,188861,6,0,P|288:260|304:180,1,135.000005149842
220,48,189139,1,0,0:0:0:0:
138,94,189233,2,0,P|106:185|186:225,1,202.500007724762
447,329,189602,6,0,P|383:301|311:305,1,135.000005149842
149,347,189880,1,0,0:0:0:0:
58,329,189973,2,0,P|82:245|194:229,1,202.500007724762
446,211,190343,6,0,P|366:211|350:155,1,135.000005149842
219,44,190621,1,0,0:0:0:0:
127,24,190713,2,0,B|98:58|98:58|58:222,1,202.500007724762
128,344,191085,6,0,B|160:248|160:248|192:216,1,135.000005149842
358,177,191362,1,0,0:0:0:0:
445,210,191454,2,0,B|477:206|477:206|513:214,1,67.5000025749208
276,80,191639,2,0,B|308:76|308:76|344:84,1,67.5000025749208
451,302,191824,6,0,B|391:291|391:291|315:302,1,135.000005149842
251,146,192103,1,0,0:0:0:0:
156,140,192196,2,0,P|128:232|228:244,1,202.500007724762
342,83,192565,6,0,B|289:63|289:63|66:67,1,270.000010299683
32,144,193029,1,0,0:0:0:0:
22,231,193122,1,0,0:0:0:0:
58,310,193214,1,0,0:0:0:0:
139,339,193307,2,0,P|239:319|195:251,1,202.500007724762
333,84,193677,6,0,P|376:160|416:156,1,135.000005149842
396,24,193955,1,0,0:0:0:0:
253,7,194047,2,0,P|161:51|201:167,1,202.500007724762
330,208,194417,6,0,P|266:200|226:260,1,144
352,344,194696,1,0,0:0:0:0:
453,325,194788,2,0,P|477:205|413:157,1,216
167,139,195158,6,0,P|267:115|287:55,1,153.000002918243
100,60,195436,1,0,0:0:0:0:
66,153,195528,2,0,P|98:241|222:233,1,229.500004377365
304,196,195899,5,0,0:0:0:0:
396,200,195992,1,0,0:0:0:0:
451,271,196085,2,0,P|419:303|367:307,1,76.5000014591217
164,120,196270,5,0,0:0:0:0:
390,311,196455,1,0,0:0:0:0:
216,68,196639,5,0,0:0:0:0:
390,311,196825,1,0,0:0:0:0:
280,32,197011,5,0,0:0:0:0:
390,311,197196,1,0,0:0:0:0:
348,16,197381,5,0,0:0:0:0:
390,311,197566,1,0,0:0:0:0:
420,16,197751,6,0,P|460:112|348:120,1,242.999992584229
280,32,198121,2,0,P|184:64|168:120,1,161.999995056153
163,319,198399,1,0,0:0:0:0:
68,340,198492,2,0,P|40:304|88:208,1,161.999995056153
309,321,198770,5,0,0:0:0:0:
412,324,198862,2,0,P|448:240|328:208,1,242.999992584229
164,212,199232,6,0,P|151:254|163:297,1,90
370,163,199417,2,0,P|382:120|370:77,1,90
220,256,199602,6,0,P|226:299|255:333,1,90
315,119,199787,2,0,P|308:75|279:41,1,90
292,276,199973,6,0,P|316:312|357:331,1,90
243,99,200158,2,0,P|218:62|177:43,1,90
368,260,200343,6,0,P|406:282|450:282,1,90
171,115,200528,2,0,P|132:92|88:92,1,90
424,216,200714,5,0,0:0:0:0:
452,169,200807,1,0,0:0:0:0:
456,115,200899,1,0,0:0:0:0:
446,61,200992,1,0,0:0:0:0:
338,50,201085,5,0,0:0:0:0:
257,46,201177,1,0,0:0:0:0:
175,41,201270,1,0,0:0:0:0:
94,38,201362,1,0,0:0:0:0:
68,143,201455,5,0,0:0:0:0:
88,248,201547,1,0,0:0:0:0:
179,305,201640,1,0,0:0:0:0:
287,308,201733,1,0,0:0:0:0:
393,295,201825,6,0,P|421:255|421:203,1,90
76,57,202010,2,0,P|60:101|76:157,1,90
284,316,202195,6,0,P|200:276|216:164,1,202.500007724762
264,92,202565,2,0,B|272:172|272:172|260:244,1,135.000005149842
103,289,202936,5,0,0:0:0:0:
56,291,203028,1,0,0:0:0:0:
76,57,203213,6,0,P|80:145|131:156,1,135.000005149842
356,184,203491,6,0,P|326:87|231:72,1,202.500007724762
191,81,203862,1,0,0:0:0:0:
103,289,204047,6,0,L|175:268,1,67.5000025749208
243,340,204232,2,0,L|315:314,1,67.5000025749208
512,252,204417,2,0,B|312:236,1,202.500007724762
25,212,204788,6,0,L|176:179,1,135.000005149842
