osu file format v14

[General]
AudioFilename: Shots Fiyerd - The Remix.mp3
AudioLeadIn: 0
PreviewTime: 32914
Countdown: 0
SampleSet: None
StackLeniency: 0.7
Mode: 3
LetterboxInBreaks: 0
SpecialStyle: 0
WidescreenStoryboard: 1

[Editor]
DistanceSpacing: 0.8
BeatDivisor: 4
GridSize: 32
TimelineZoom: 1.9

[Metadata]
Title:Shots Fiyerd - The Remix
TitleUnicode:Shots Fiyerd - The Remix
Artist:Triple Plr
ArtistUnicode:Triple Plr
Creator:LuigiClaren
Version:Blooen Up!
Source:Shots Fiyerd
Tags:lost pause noble triple plr shots fiyerd remix youtube
BeatmapID:1176507
BeatmapSetID:555911

[Difficulty]
HPDrainRate:8.5
CircleSize:4
OverallDifficulty:8.5
ApproachRate:5
SliderMultiplier:1.4
SliderTickRate:1

[Events]
//Background and Video events
0,0,"SHOTS FIYERD.jpg",0,0
//Break Periods
//Storyboard Layer 0 (Background)
//Storyboard Layer 1 (Fail)
//Storyboard Layer 2 (Pass)
//Storyboard Layer 3 (Foreground)
//Storyboard Sound Samples

[TimingPoints]
0,342.857142857143,4,3,0,50,1,0
32914,-100,4,3,0,50,0,1
54857,-100,4,3,0,50,0,0
78171,-100,4,3,0,50,0,1
100114,-100,4,3,0,50,0,0

[HitObjects]
64,192,0,5,0,0:0:0:0:
448,192,0,1,0,0:0:0:0:
192,192,171,1,0,0:0:0:0:
320,192,342,1,0,0:0:0:0:
448,192,514,1,0,0:0:0:0:
192,192,514,1,0,0:0:0:0:
320,192,685,1,0,0:0:0:0:
192,192,857,1,0,0:0:0:0:
64,192,1028,1,0,0:0:0:0:
320,192,1028,1,0,0:0:0:0:
192,192,1200,1,0,0:0:0:0:
64,192,1371,1,0,0:0:0:0:
320,192,1371,1,0,0:0:0:0:
448,192,1542,1,0,0:0:0:0:
320,192,1714,1,0,0:0:0:0:
192,192,1885,1,0,0:0:0:0:
448,192,1885,1,0,0:0:0:0:
64,192,2057,128,0,2228:0:0:0:0:
192,192,2228,128,0,2400:0:0:0:0:
320,192,2400,128,0,2571:0:0:0:0:
448,192,2571,128,0,2742:0:0:0:0:
64,192,2742,1,0,0:0:0:0:
320,192,2742,1,0,0:0:0:0:
448,192,2914,1,0,0:0:0:0:
192,192,3085,1,0,0:0:0:0:
320,192,3257,1,0,0:0:0:0:
448,192,3257,1,0,0:0:0:0:
192,192,3428,1,0,0:0:0:0:
64,192,3600,1,0,0:0:0:0:
448,192,3771,1,0,0:0:0:0:
192,192,3771,1,0,0:0:0:0:
320,192,3942,1,0,0:0:0:0:
64,192,4114,1,0,0:0:0:0:
448,192,4114,1,0,0:0:0:0:
192,192,4285,1,0,0:0:0:0:
320,192,4457,1,0,0:0:0:0:
448,192,4628,1,0,0:0:0:0:
64,192,4628,1,0,0:0:0:0:
448,192,4800,128,0,4971:0:0:0:0:
320,192,4971,128,0,5142:0:0:0:0:
192,192,5142,128,0,5314:0:0:0:0:
64,192,5314,128,0,5485:0:0:0:0:
320,192,5485,1,0,0:0:0:0:
448,192,5485,1,0,0:0:0:0:
192,192,5657,1,0,0:0:0:0:
320,192,5828,1,0,0:0:0:0:
448,192,6000,1,0,0:0:0:0:
192,192,6000,1,0,0:0:0:0:
320,192,6171,1,0,0:0:0:0:
64,192,6342,1,0,0:0:0:0:
448,192,6514,1,0,0:0:0:0:
192,192,6514,1,0,0:0:0:0:
320,192,6685,1,0,0:0:0:0:
448,192,6857,1,0,0:0:0:0:
64,192,6857,1,0,0:0:0:0:
192,192,7028,1,0,0:0:0:0:
64,192,7200,1,0,0:0:0:0:
448,192,7371,1,0,0:0:0:0:
320,192,7371,1,0,0:0:0:0:
64,192,7542,128,0,7714:0:0:0:0:
320,192,7714,128,0,7885:0:0:0:0:
192,192,7885,128,0,8057:0:0:0:0:
448,192,8057,128,0,8228:0:0:0:0:
64,192,8228,1,0,0:0:0:0:
320,192,8228,1,0,0:0:0:0:
192,192,8400,1,0,0:0:0:0:
320,192,8571,1,0,0:0:0:0:
64,192,8742,1,0,0:0:0:0:
448,192,8742,1,0,0:0:0:0:
192,192,8914,1,0,0:0:0:0:
448,192,9085,1,0,0:0:0:0:
320,192,9257,1,0,0:0:0:0:
64,192,9257,1,0,0:0:0:0:
192,192,9428,1,0,0:0:0:0:
320,192,9600,1,0,0:0:0:0:
448,192,9600,1,0,0:0:0:0:
64,192,9771,1,0,0:0:0:0:
192,192,9942,1,0,0:0:0:0:
320,192,10114,1,0,0:0:0:0:
64,192,10114,1,0,0:0:0:0:
64,192,10285,128,0,10457:0:0:0:0:
448,192,10457,128,0,10628:0:0:0:0:
192,192,10628,128,0,10800:0:0:0:0:
320,192,10800,128,0,10971:0:0:0:0:
64,192,10971,1,0,0:0:0:0:
448,192,11142,1,0,0:0:0:0:
192,192,11314,1,0,0:0:0:0:
320,192,11485,1,0,0:0:0:0:
192,192,11657,1,0,0:0:0:0:
448,192,11657,1,0,0:0:0:0:
64,192,11828,1,0,0:0:0:0:
192,192,12000,1,0,0:0:0:0:
320,192,12000,1,0,0:0:0:0:
448,192,12171,1,0,0:0:0:0:
64,192,12342,1,0,0:0:0:0:
320,192,12342,128,0,12685:0:0:0:0:
448,192,12685,1,0,0:0:0:0:
192,192,12685,128,0,13028:0:0:0:0:
320,192,13028,1,0,0:0:0:0:
448,192,13028,1,0,0:0:0:0:
192,192,13200,1,0,0:0:0:0:
64,192,13200,1,0,0:0:0:0:
192,192,13371,1,0,0:0:0:0:
448,192,13371,1,0,0:0:0:0:
320,192,13542,1,0,0:0:0:0:
448,192,13714,1,0,0:0:0:0:
64,192,13714,128,0,14057:0:0:0:0:
320,192,13885,1,0,0:0:0:0:
448,192,14057,128,0,14400:0:0:0:0:
192,192,14057,1,0,0:0:0:0:
192,192,14400,1,0,0:0:0:0:
320,192,14400,1,0,0:0:0:0:
64,192,14571,1,0,0:0:0:0:
192,192,14742,1,0,0:0:0:0:
448,192,14742,1,0,0:0:0:0:
320,192,14914,1,0,0:0:0:0:
64,192,15085,1,0,0:0:0:0:
192,192,15085,1,0,0:0:0:0:
320,192,15257,1,0,0:0:0:0:
448,192,15428,1,0,0:0:0:0:
64,192,15428,1,0,0:0:0:0:
192,192,15600,1,0,0:0:0:0:
64,192,15771,1,0,0:0:0:0:
448,192,15771,128,0,16114:0:0:0:0:
64,192,16114,128,0,16457:0:0:0:0:
320,192,16114,1,0,0:0:0:0:
192,192,16457,1,0,0:0:0:0:
320,192,16457,128,0,16800:0:0:0:0:
192,192,16800,1,0,0:0:0:0:
448,192,16800,128,0,17142:0:0:0:0:
320,192,17142,1,0,0:0:0:0:
192,192,17142,128,0,17485:0:0:0:0:
320,192,17485,1,0,0:0:0:0:
64,192,17485,1,0,0:0:0:0:
192,192,17657,1,0,0:0:0:0:
448,192,17657,1,0,0:0:0:0:
320,192,17828,1,0,0:0:0:0:
64,192,17828,1,0,0:0:0:0:
192,192,17828,128,0,18171:0:0:0:0:
448,192,18171,1,0,0:0:0:0:
320,192,18342,1,0,0:0:0:0:
64,192,18342,1,0,0:0:0:0:
192,192,18685,1,0,0:0:0:0:
448,192,18685,128,0,19200:0:0:0:0:
320,192,19200,128,0,19542:0:0:0:0:
64,192,19200,1,0,0:0:0:0:
64,192,19542,128,0,19885:0:0:0:0:
192,192,19542,1,0,0:0:0:0:
192,192,19885,1,0,0:0:0:0:
448,192,19885,128,0,20228:0:0:0:0:
192,192,20228,1,0,0:0:0:0:
64,192,20228,1,0,0:0:0:0:
64,192,20400,1,0,0:0:0:0:
448,192,20400,1,0,0:0:0:0:
320,192,20571,128,0,20914:0:0:0:0:
192,192,20571,1,0,0:0:0:0:
448,192,20571,1,0,0:0:0:0:
64,192,20914,1,0,0:0:0:0:
448,192,21085,128,0,21428:0:0:0:0:
192,192,21085,1,0,0:0:0:0:
320,192,21428,1,0,0:0:0:0:
192,192,21428,128,0,21942:0:0:0:0:
448,192,21600,1,0,0:0:0:0:
64,192,21600,1,0,0:0:0:0:
320,192,21942,1,0,0:0:0:0:
64,192,21942,1,0,0:0:0:0:
192,192,22285,1,0,0:0:0:0:
448,192,22285,1,0,0:0:0:0:
64,192,22628,1,0,0:0:0:0:
192,192,22628,1,0,0:0:0:0:
320,192,22628,1,0,0:0:0:0:
448,192,22628,1,0,0:0:0:0:
448,192,22971,1,0,0:0:0:0:
320,192,22971,128,0,23314:0:0:0:0:
192,192,23314,1,0,0:0:0:0:
64,192,23314,1,0,0:0:0:0:
448,192,23485,1,0,0:0:0:0:
64,192,23657,1,0,0:0:0:0:
320,192,23657,1,0,0:0:0:0:
192,192,23828,1,0,0:0:0:0:
448,192,23828,128,0,24342:0:0:0:0:
320,192,24342,1,0,0:0:0:0:
64,192,24342,1,0,0:0:0:0:
192,192,24514,1,0,0:0:0:0:
448,192,24514,1,0,0:0:0:0:
64,192,24685,128,0,25028:0:0:0:0:
320,192,25028,1,0,0:0:0:0:
192,192,25028,1,0,0:0:0:0:
448,192,25028,128,0,25371:0:0:0:0:
64,192,25371,1,0,0:0:0:0:
320,192,25371,1,0,0:0:0:0:
192,192,25542,1,0,0:0:0:0:
320,192,25542,1,0,0:0:0:0:
448,192,25542,1,0,0:0:0:0:
192,192,25714,1,0,0:0:0:0:
64,192,25714,1,0,0:0:0:0:
320,192,25885,1,0,0:0:0:0:
448,192,25885,1,0,0:0:0:0:
64,192,26057,1,0,0:0:0:0:
448,192,26057,1,0,0:0:0:0:
192,192,26228,1,0,0:0:0:0:
320,192,26228,1,0,0:0:0:0:
320,192,26400,1,0,0:0:0:0:
64,192,26400,1,0,0:0:0:0:
192,192,26571,1,0,0:0:0:0:
448,192,26571,1,0,0:0:0:0:
448,192,26742,1,0,0:0:0:0:
64,192,26742,1,0,0:0:0:0:
192,192,26742,1,0,0:0:0:0:
320,192,26742,1,0,0:0:0:0:
448,192,26914,1,0,0:0:0:0:
320,192,27085,1,0,0:0:0:0:
192,192,27085,1,0,0:0:0:0:
64,192,27257,1,0,0:0:0:0:
192,192,27428,1,0,0:0:0:0:
448,192,27428,1,0,0:0:0:0:
320,192,27600,1,0,0:0:0:0:
448,192,27771,1,0,0:0:0:0:
64,192,27771,1,0,0:0:0:0:
320,192,27942,128,0,28285:0:0:0:0:
64,192,28285,1,0,0:0:0:0:
448,192,28371,1,0,0:0:0:0:
320,192,28457,1,0,0:0:0:0:
64,192,28628,1,0,0:0:0:0:
192,192,28628,1,0,0:0:0:0:
320,192,28800,1,0,0:0:0:0:
192,192,28971,1,0,0:0:0:0:
448,192,28971,1,0,0:0:0:0:
320,192,29142,1,0,0:0:0:0:
192,192,29314,1,0,0:0:0:0:
64,192,29314,128,0,29657:0:0:0:0:
192,192,29657,1,0,0:0:0:0:
320,192,29657,1,0,0:0:0:0:
64,192,29828,1,0,0:0:0:0:
448,192,29828,1,0,0:0:0:0:
192,192,30171,1,0,0:0:0:0:
320,192,30171,1,0,0:0:0:0:
64,192,30342,1,0,0:0:0:0:
192,192,30514,1,0,0:0:0:0:
448,192,30514,1,0,0:0:0:0:
320,192,30514,1,0,0:0:0:0:
320,192,30685,1,0,0:0:0:0:
64,192,30685,1,0,0:0:0:0:
192,192,30685,1,0,0:0:0:0:
192,192,30857,1,0,0:0:0:0:
448,192,30857,128,0,31028:0:0:0:0:
320,192,31028,128,0,31200:0:0:0:0:
192,192,31200,1,0,0:0:0:0:
64,192,31200,1,0,0:0:0:0:
320,192,31371,1,0,0:0:0:0:
448,192,31371,1,0,0:0:0:0:
64,192,31542,1,0,0:0:0:0:
192,192,31542,1,0,0:0:0:0:
320,192,31542,1,0,0:0:0:0:
448,192,31714,1,0,0:0:0:0:
320,192,31714,1,0,0:0:0:0:
192,192,31714,1,0,0:0:0:0:
64,192,31885,1,0,0:0:0:0:
192,192,31885,1,0,0:0:0:0:
448,192,31885,1,0,0:0:0:0:
448,192,32057,1,0,0:0:0:0:
64,192,32057,1,0,0:0:0:0:
320,192,32057,1,0,0:0:0:0:
64,192,32228,1,0,0:0:0:0:
448,192,32228,1,0,0:0:0:0:
192,192,32228,1,0,0:0:0:0:
320,192,32400,1,0,0:0:0:0:
448,192,32400,1,0,0:0:0:0:
64,192,32400,1,0,0:0:0:0:
320,192,32571,1,0,0:0:0:0:
192,192,32571,1,0,0:0:0:0:
64,192,32571,1,0,0:0:0:0:
448,192,32742,1,0,0:0:0:0:
192,192,32742,1,0,0:0:0:0:
320,192,32742,1,0,0:0:0:0:
64,192,32914,128,0,35657:0:0:0:0:
320,192,32914,1,0,0:0:0:0:
192,192,33085,1,0,0:0:0:0:
448,192,33085,1,0,0:0:0:0:
320,192,33257,1,0,0:0:0:0:
192,192,33257,1,0,0:0:0:0:
448,192,33428,1,0,0:0:0:0:
320,192,33428,1,0,0:0:0:0:
448,192,33600,128,0,33685:0:0:0:0:
320,192,33600,128,0,33685:0:0:0:0:
192,192,33600,128,0,33685:0:0:0:0:
448,192,33771,1,0,0:0:0:0:
192,192,33771,1,0,0:0:0:0:
448,192,33942,1,0,0:0:0:0:
320,192,33942,1,0,0:0:0:0:
192,192,33942,1,0,0:0:0:0:
448,192,34114,1,0,0:0:0:0:
192,192,34285,1,0,0:0:0:0:
320,192,34285,1,0,0:0:0:0:
448,192,34457,1,0,0:0:0:0:
320,192,34457,1,0,0:0:0:0:
192,192,34628,1,0,0:0:0:0:
192,192,34800,1,0,0:0:0:0:
320,192,34800,1,0,0:0:0:0:
448,192,34800,1,0,0:0:0:0:
448,192,34971,1,0,0:0:0:0:
320,192,34971,1,0,0:0:0:0:
448,192,35142,1,0,0:0:0:0:
320,192,35142,1,0,0:0:0:0:
192,192,35314,1,0,0:0:0:0:
320,192,35485,1,0,0:0:0:0:
192,192,35485,1,0,0:0:0:0:
448,192,35485,1,0,0:0:0:0:
192,192,35657,128,0,38400:0:0:0:0:
448,192,35657,1,0,0:0:0:0:
320,192,35828,1,0,0:0:0:0:
64,192,35828,1,0,0:0:0:0:
320,192,36000,1,0,0:0:0:0:
448,192,36000,1,0,0:0:0:0:
64,192,36171,1,0,0:0:0:0:
448,192,36171,1,0,0:0:0:0:
64,192,36342,128,0,36428:0:0:0:0:
320,192,36342,128,0,36428:0:0:0:0:
448,192,36342,128,0,36428:0:0:0:0:
320,192,36514,1,0,0:0:0:0:
448,192,36514,1,0,0:0:0:0:
448,192,36685,1,0,0:0:0:0:
320,192,36685,1,0,0:0:0:0:
64,192,36685,1,0,0:0:0:0:
64,192,36857,1,0,0:0:0:0:
320,192,37028,1,0,0:0:0:0:
64,192,37028,1,0,0:0:0:0:
448,192,37200,1,0,0:0:0:0:
320,192,37200,1,0,0:0:0:0:
64,192,37371,1,0,0:0:0:0:
448,192,37542,1,0,0:0:0:0:
320,192,37542,1,0,0:0:0:0:
64,192,37542,1,0,0:0:0:0:
448,192,37714,1,0,0:0:0:0:
320,192,37714,1,0,0:0:0:0:
448,192,37885,1,0,0:0:0:0:
320,192,37885,1,0,0:0:0:0:
64,192,38057,1,0,0:0:0:0:
448,192,38228,1,0,0:0:0:0:
320,192,38228,1,0,0:0:0:0:
64,192,38228,1,0,0:0:0:0:
448,192,38400,128,0,43885:0:0:0:0:
64,192,38400,1,0,0:0:0:0:
64,192,38571,1,0,0:0:0:0:
320,192,38742,1,0,0:0:0:0:
64,192,38742,1,0,0:0:0:0:
64,192,38914,1,0,0:0:0:0:
320,192,38914,1,0,0:0:0:0:
192,192,39085,1,0,0:0:0:0:
320,192,39085,1,0,0:0:0:0:
192,192,39257,1,0,0:0:0:0:
320,192,39257,1,0,0:0:0:0:
64,192,39428,1,0,0:0:0:0:
192,192,39428,1,0,0:0:0:0:
192,192,39600,1,0,0:0:0:0:
64,192,39600,1,0,0:0:0:0:
64,192,39771,128,0,39857:0:0:0:0:
192,192,39771,128,0,39857:0:0:0:0:
320,192,39771,128,0,39857:0:0:0:0:
320,192,39942,128,0,40028:0:0:0:0:
192,192,39942,128,0,40028:0:0:0:0:
64,192,39942,128,0,40028:0:0:0:0:
320,192,40114,1,0,0:0:0:0:
64,192,40114,1,0,0:0:0:0:
320,192,40285,1,0,0:0:0:0:
64,192,40285,1,0,0:0:0:0:
64,192,40457,1,0,0:0:0:0:
192,192,40457,1,0,0:0:0:0:
320,192,40457,1,0,0:0:0:0:
320,192,40628,1,0,0:0:0:0:
192,192,40628,1,0,0:0:0:0:
64,192,40628,1,0,0:0:0:0:
64,192,40800,1,0,0:0:0:0:
64,192,40971,1,0,0:0:0:0:
320,192,41142,1,0,0:0:0:0:
192,192,41142,1,0,0:0:0:0:
320,192,41314,1,0,0:0:0:0:
192,192,41314,1,0,0:0:0:0:
320,192,41485,1,0,0:0:0:0:
64,192,41485,1,0,0:0:0:0:
64,192,41657,1,0,0:0:0:0:
320,192,41657,1,0,0:0:0:0:
192,192,41828,1,0,0:0:0:0:
192,192,42000,1,0,0:0:0:0:
320,192,42171,1,0,0:0:0:0:
192,192,42171,1,0,0:0:0:0:
64,192,42171,1,0,0:0:0:0:
64,192,42342,1,0,0:0:0:0:
192,192,42342,1,0,0:0:0:0:
320,192,42342,1,0,0:0:0:0:
320,192,42514,1,0,0:0:0:0:
64,192,42514,1,0,0:0:0:0:
320,192,42685,1,0,0:0:0:0:
64,192,42685,1,0,0:0:0:0:
320,192,42857,1,0,0:0:0:0:
64,192,42857,1,0,0:0:0:0:
64,192,43028,1,0,0:0:0:0:
320,192,43028,1,0,0:0:0:0:
192,192,43200,1,0,0:0:0:0:
192,192,43371,1,0,0:0:0:0:
320,192,43542,1,0,0:0:0:0:
192,192,43542,1,0,0:0:0:0:
64,192,43542,1,0,0:0:0:0:
64,192,43692,1,0,0:0:0:0:
192,192,43692,1,0,0:0:0:0:
320,192,43692,1,0,0:0:0:0:
192,192,43885,128,0,46628:0:0:0:0:
64,192,43885,1,0,0:0:0:0:
320,192,44057,1,0,0:0:0:0:
448,192,44057,1,0,0:0:0:0:
320,192,44228,1,0,0:0:0:0:
64,192,44228,1,0,0:0:0:0:
64,192,44400,1,0,0:0:0:0:
448,192,44400,1,0,0:0:0:0:
448,192,44571,128,0,44657:0:0:0:0:
320,192,44571,128,0,44657:0:0:0:0:
64,192,44571,128,0,44657:0:0:0:0:
320,192,44742,1,0,0:0:0:0:
64,192,44742,1,0,0:0:0:0:
448,192,44914,1,0,0:0:0:0:
320,192,44914,1,0,0:0:0:0:
64,192,44914,1,0,0:0:0:0:
448,192,45085,1,0,0:0:0:0:
64,192,45257,1,0,0:0:0:0:
320,192,45257,1,0,0:0:0:0:
448,192,45428,1,0,0:0:0:0:
64,192,45428,1,0,0:0:0:0:
320,192,45600,1,0,0:0:0:0:
64,192,45771,1,0,0:0:0:0:
320,192,45771,1,0,0:0:0:0:
448,192,45771,1,0,0:0:0:0:
64,192,45942,1,0,0:0:0:0:
448,192,45942,1,0,0:0:0:0:
64,192,46114,1,0,0:0:0:0:
448,192,46114,1,0,0:0:0:0:
320,192,46285,1,0,0:0:0:0:
320,192,46457,1,0,0:0:0:0:
448,192,46457,1,0,0:0:0:0:
64,192,46457,1,0,0:0:0:0:
320,192,46628,128,0,49371:0:0:0:0:
448,192,46628,1,0,0:0:0:0:
192,192,46800,1,0,0:0:0:0:
64,192,46800,1,0,0:0:0:0:
448,192,46971,1,0,0:0:0:0:
64,192,46971,1,0,0:0:0:0:
192,192,47142,1,0,0:0:0:0:
448,192,47142,1,0,0:0:0:0:
64,192,47314,128,0,47400:0:0:0:0:
192,192,47314,128,0,47400:0:0:0:0:
448,192,47314,128,0,47400:0:0:0:0:
192,192,47485,1,0,0:0:0:0:
448,192,47485,1,0,0:0:0:0:
192,192,47657,1,0,0:0:0:0:
64,192,47657,1,0,0:0:0:0:
448,192,47657,1,0,0:0:0:0:
448,192,47828,1,0,0:0:0:0:
192,192,48000,1,0,0:0:0:0:
64,192,48000,1,0,0:0:0:0:
448,192,48171,1,0,0:0:0:0:
192,192,48171,1,0,0:0:0:0:
64,192,48342,1,0,0:0:0:0:
192,192,48514,1,0,0:0:0:0:
64,192,48514,1,0,0:0:0:0:
448,192,48514,1,0,0:0:0:0:
448,192,48685,1,0,0:0:0:0:
192,192,48685,1,0,0:0:0:0:
448,192,48857,1,0,0:0:0:0:
192,192,48857,1,0,0:0:0:0:
64,192,49028,1,0,0:0:0:0:
192,192,49200,1,0,0:0:0:0:
448,192,49200,1,0,0:0:0:0:
64,192,49200,1,0,0:0:0:0:
64,192,49371,128,0,54857:0:0:0:0:
448,192,49371,1,0,0:0:0:0:
448,192,49542,1,0,0:0:0:0:
320,192,49714,1,0,0:0:0:0:
192,192,49714,1,0,0:0:0:0:
320,192,49885,1,0,0:0:0:0:
192,192,49885,1,0,0:0:0:0:
448,192,50057,1,0,0:0:0:0:
192,192,50057,1,0,0:0:0:0:
192,192,50228,1,0,0:0:0:0:
448,192,50228,1,0,0:0:0:0:
320,192,50400,1,0,0:0:0:0:
448,192,50400,1,0,0:0:0:0:
448,192,50571,1,0,0:0:0:0:
320,192,50571,1,0,0:0:0:0:
320,192,50742,128,0,50828:0:0:0:0:
192,192,50742,128,0,50828:0:0:0:0:
448,192,50742,128,0,50828:0:0:0:0:
448,192,50914,128,0,51000:0:0:0:0:
320,192,50914,128,0,51000:0:0:0:0:
192,192,50914,128,0,51000:0:0:0:0:
320,192,51085,1,0,0:0:0:0:
448,192,51085,1,0,0:0:0:0:
320,192,51257,1,0,0:0:0:0:
448,192,51257,1,0,0:0:0:0:
192,192,51407,1,0,0:0:0:0:
320,192,51407,1,0,0:0:0:0:
448,192,51407,1,0,0:0:0:0:
448,192,51578,1,0,0:0:0:0:
320,192,51578,1,0,0:0:0:0:
192,192,51578,1,0,0:0:0:0:
448,192,51771,1,0,0:0:0:0:
448,192,51942,1,0,0:0:0:0:
320,192,52114,1,0,0:0:0:0:
192,192,52114,1,0,0:0:0:0:
320,192,52285,1,0,0:0:0:0:
192,192,52285,1,0,0:0:0:0:
448,192,52457,1,0,0:0:0:0:
192,192,52457,1,0,0:0:0:0:
448,192,52628,1,0,0:0:0:0:
192,192,52628,1,0,0:0:0:0:
320,192,52800,1,0,0:0:0:0:
320,192,52971,1,0,0:0:0:0:
320,192,53142,1,0,0:0:0:0:
448,192,53142,1,0,0:0:0:0:
192,192,53142,1,0,0:0:0:0:
448,192,53314,1,0,0:0:0:0:
320,192,53314,1,0,0:0:0:0:
192,192,53314,1,0,0:0:0:0:
192,192,53485,1,0,0:0:0:0:
448,192,53485,1,0,0:0:0:0:
448,192,53657,1,0,0:0:0:0:
192,192,53657,1,0,0:0:0:0:
448,192,53828,1,0,0:0:0:0:
192,192,53828,1,0,0:0:0:0:
192,192,54000,1,0,0:0:0:0:
448,192,54000,1,0,0:0:0:0:
320,192,54171,1,0,0:0:0:0:
320,192,54342,1,0,0:0:0:0:
448,192,54514,1,0,0:0:0:0:
320,192,54514,1,0,0:0:0:0:
192,192,54514,1,0,0:0:0:0:
448,192,54685,1,0,0:0:0:0:
320,192,54685,1,0,0:0:0:0:
192,192,54685,1,0,0:0:0:0:
192,192,54857,1,0,0:0:0:0:
320,192,54857,1,0,0:0:0:0:
192,192,55200,1,0,0:0:0:0:
320,192,55200,1,0,0:0:0:0:
192,192,55542,1,0,0:0:0:0:
320,192,55542,1,0,0:0:0:0:
320,192,55885,1,0,0:0:0:0:
192,192,55885,1,0,0:0:0:0:
192,192,56228,1,0,0:0:0:0:
320,192,56228,1,0,0:0:0:0:
64,192,56400,1,0,0:0:0:0:
448,192,56400,1,0,0:0:0:0:
192,192,56571,1,0,0:0:0:0:
320,192,56571,1,0,0:0:0:0:
64,192,56742,1,0,0:0:0:0:
448,192,56742,1,0,0:0:0:0:
64,192,57085,1,0,0:0:0:0:
320,192,57085,1,0,0:0:0:0:
448,192,57257,1,0,0:0:0:0:
192,192,57257,1,0,0:0:0:0:
64,192,57428,128,0,57600:0:0:0:0:
448,192,57428,1,0,0:0:0:0:
192,192,57600,128,0,57771:0:0:0:0:
320,192,57600,1,0,0:0:0:0:
64,192,57771,128,0,57942:0:0:0:0:
320,192,57771,1,0,0:0:0:0:
448,192,57771,1,0,0:0:0:0:
192,192,57942,128,0,58114:0:0:0:0:
448,192,57942,1,0,0:0:0:0:
64,192,58114,128,0,58285:0:0:0:0:
320,192,58114,1,0,0:0:0:0:
448,192,58114,1,0,0:0:0:0:
320,192,58457,1,0,0:0:0:0:
192,192,58457,1,0,0:0:0:0:
64,192,58628,128,0,58971:0:0:0:0:
448,192,58628,128,0,58971:0:0:0:0:
192,192,58971,1,0,0:0:0:0:
320,192,58971,1,0,0:0:0:0:
448,192,59142,1,0,0:0:0:0:
64,192,59142,1,0,0:0:0:0:
320,192,59314,1,0,0:0:0:0:
448,192,59314,1,0,0:0:0:0:
192,192,59485,1,0,0:0:0:0:
64,192,59485,1,0,0:0:0:0:
448,192,59657,1,0,0:0:0:0:
320,192,59657,1,0,0:0:0:0:
192,192,59657,1,0,0:0:0:0:
64,192,59828,1,0,0:0:0:0:
320,192,59828,1,0,0:0:0:0:
448,192,60000,1,0,0:0:0:0:
320,192,60000,1,0,0:0:0:0:
320,192,60171,1,0,0:0:0:0:
192,192,60171,1,0,0:0:0:0:
64,192,60342,1,0,0:0:0:0:
192,192,60342,1,0,0:0:0:0:
320,192,60342,1,0,0:0:0:0:
448,192,60342,1,0,0:0:0:0:
448,192,60514,1,0,0:0:0:0:
192,192,60514,1,0,0:0:0:0:
192,192,60685,1,0,0:0:0:0:
64,192,60685,1,0,0:0:0:0:
320,192,60857,1,0,0:0:0:0:
320,192,61028,1,0,0:0:0:0:
448,192,61028,1,0,0:0:0:0:
64,192,61028,1,0,0:0:0:0:
448,192,61200,1,0,0:0:0:0:
192,192,61200,1,0,0:0:0:0:
320,192,61371,1,0,0:0:0:0:
64,192,61371,1,0,0:0:0:0:
448,192,61542,1,0,0:0:0:0:
320,192,61628,1,0,0:0:0:0:
192,192,61714,1,0,0:0:0:0:
64,192,61714,1,0,0:0:0:0:
320,192,61885,1,0,0:0:0:0:
448,192,61885,1,0,0:0:0:0:
320,192,62057,1,0,0:0:0:0:
64,192,62057,1,0,0:0:0:0:
192,192,62228,1,0,0:0:0:0:
320,192,62228,1,0,0:0:0:0:
448,192,62400,1,0,0:0:0:0:
64,192,62400,1,0,0:0:0:0:
192,192,62485,1,0,0:0:0:0:
320,192,62485,1,0,0:0:0:0:
64,192,62571,1,0,0:0:0:0:
448,192,62571,1,0,0:0:0:0:
64,192,62742,128,0,62828:0:0:0:0:
192,192,62742,128,0,62828:0:0:0:0:
320,192,62742,128,0,62828:0:0:0:0:
448,192,62742,128,0,62828:0:0:0:0:
64,192,62914,1,0,0:0:0:0:
320,192,63085,1,0,0:0:0:0:
192,192,63085,1,0,0:0:0:0:
448,192,63257,1,0,0:0:0:0:
320,192,63428,1,0,0:0:0:0:
64,192,63428,1,0,0:0:0:0:
192,192,63600,1,0,0:0:0:0:
320,192,63771,1,0,0:0:0:0:
64,192,63771,128,0,64114:0:0:0:0:
448,192,64114,1,0,0:0:0:0:
192,192,64114,1,0,0:0:0:0:
320,192,64114,128,0,64457:0:0:0:0:
64,192,64457,1,0,0:0:0:0:
448,192,64457,1,0,0:0:0:0:
192,192,64628,1,0,0:0:0:0:
320,192,64800,1,0,0:0:0:0:
448,192,64800,1,0,0:0:0:0:
192,192,64971,1,0,0:0:0:0:
448,192,64971,1,0,0:0:0:0:
64,192,65142,1,0,0:0:0:0:
320,192,65142,1,0,0:0:0:0:
192,192,65314,1,0,0:0:0:0:
320,192,65314,1,0,0:0:0:0:
64,192,65485,128,0,65828:0:0:0:0:
448,192,65485,128,0,65828:0:0:0:0:
192,192,65828,1,0,0:0:0:0:
320,192,65828,1,0,0:0:0:0:
64,192,66171,128,0,66514:0:0:0:0:
320,192,66171,128,0,66514:0:0:0:0:
192,192,66514,128,0,67028:0:0:0:0:
448,192,66514,128,0,67028:0:0:0:0:
64,192,66857,1,0,0:0:0:0:
320,192,66857,1,0,0:0:0:0:
64,192,67028,1,0,0:0:0:0:
320,192,67200,1,0,0:0:0:0:
192,192,67371,1,0,0:0:0:0:
64,192,67542,1,0,0:0:0:0:
448,192,67542,1,0,0:0:0:0:
320,192,67714,1,0,0:0:0:0:
192,192,67885,1,0,0:0:0:0:
64,192,67885,1,0,0:0:0:0:
448,192,68057,1,0,0:0:0:0:
192,192,68057,1,0,0:0:0:0:
448,192,68228,1,0,0:0:0:0:
320,192,68228,1,0,0:0:0:0:
64,192,68228,1,0,0:0:0:0:
192,192,68400,1,0,0:0:0:0:
320,192,68485,1,0,0:0:0:0:
448,192,68571,1,0,0:0:0:0:
64,192,68571,1,0,0:0:0:0:
320,192,68742,1,0,0:0:0:0:
192,192,68914,1,0,0:0:0:0:
448,192,68914,1,0,0:0:0:0:
320,192,69085,1,0,0:0:0:0:
64,192,69085,1,0,0:0:0:0:
448,192,69085,1,0,0:0:0:0:
64,192,69257,1,0,0:0:0:0:
192,192,69257,1,0,0:0:0:0:
448,192,69257,1,0,0:0:0:0:
320,192,69428,1,0,0:0:0:0:
64,192,69428,1,0,0:0:0:0:
64,192,69600,1,0,0:0:0:0:
320,192,69600,1,0,0:0:0:0:
192,192,69600,1,0,0:0:0:0:
192,192,69771,1,0,0:0:0:0:
448,192,69771,1,0,0:0:0:0:
448,192,69942,1,0,0:0:0:0:
320,192,69942,1,0,0:0:0:0:
192,192,69942,1,0,0:0:0:0:
64,192,69942,1,0,0:0:0:0:
448,192,70114,1,0,0:0:0:0:
192,192,70285,1,0,0:0:0:0:
64,192,70457,1,0,0:0:0:0:
320,192,70457,1,0,0:0:0:0:
64,192,70628,1,0,0:0:0:0:
192,192,70628,1,0,0:0:0:0:
448,192,70628,128,0,70971:0:0:0:0:
320,192,70971,1,0,0:0:0:0:
192,192,70971,1,0,0:0:0:0:
64,192,70971,1,0,0:0:0:0:
448,192,71142,1,0,0:0:0:0:
192,192,71142,1,0,0:0:0:0:
320,192,71314,1,0,0:0:0:0:
448,192,71314,1,0,0:0:0:0:
320,192,71485,1,0,0:0:0:0:
64,192,71485,1,0,0:0:0:0:
192,192,71657,1,0,0:0:0:0:
320,192,71657,1,0,0:0:0:0:
448,192,71828,1,0,0:0:0:0:
320,192,71828,1,0,0:0:0:0:
64,192,71828,1,0,0:0:0:0:
192,192,72000,1,0,0:0:0:0:
448,192,72000,1,0,0:0:0:0:
64,192,72171,1,0,0:0:0:0:
448,192,72171,1,0,0:0:0:0:
320,192,72342,1,0,0:0:0:0:
192,192,72342,1,0,0:0:0:0:
320,192,72514,1,0,0:0:0:0:
192,192,72514,1,0,0:0:0:0:
64,192,72514,1,0,0:0:0:0:
448,192,72514,1,0,0:0:0:0:
448,192,72857,1,0,0:0:0:0:
64,192,73028,1,0,0:0:0:0:
320,192,73028,1,0,0:0:0:0:
448,192,73200,1,0,0:0:0:0:
320,192,73200,1,0,0:0:0:0:
320,192,73371,1,0,0:0:0:0:
192,192,73371,128,0,73714:0:0:0:0:
64,192,73714,1,0,0:0:0:0:
448,192,73714,1,0,0:0:0:0:
320,192,73885,1,0,0:0:0:0:
448,192,74057,1,0,0:0:0:0:
192,192,74057,1,0,0:0:0:0:
64,192,74228,1,0,0:0:0:0:
192,192,74400,1,0,0:0:0:0:
320,192,74400,1,0,0:0:0:0:
448,192,74571,1,0,0:0:0:0:
192,192,74571,1,0,0:0:0:0:
448,192,74742,1,0,0:0:0:0:
320,192,74742,1,0,0:0:0:0:
64,192,74742,1,0,0:0:0:0:
192,192,74914,1,0,0:0:0:0:
320,192,74914,1,0,0:0:0:0:
64,192,75085,1,0,0:0:0:0:
448,192,75085,1,0,0:0:0:0:
192,192,75257,1,0,0:0:0:0:
448,192,75257,1,0,0:0:0:0:
192,192,75428,1,0,0:0:0:0:
320,192,75428,1,0,0:0:0:0:
320,192,75600,1,0,0:0:0:0:
192,192,75600,1,0,0:0:0:0:
320,192,75771,1,0,0:0:0:0:
192,192,75771,1,0,0:0:0:0:
64,192,75942,1,0,0:0:0:0:
448,192,75942,1,0,0:0:0:0:
64,192,76114,1,0,0:0:0:0:
192,192,76114,1,0,0:0:0:0:
320,192,76114,1,0,0:0:0:0:
448,192,76114,1,0,0:0:0:0:
192,192,76457,1,0,0:0:0:0:
320,192,76457,1,0,0:0:0:0:
448,192,76628,1,0,0:0:0:0:
64,192,76628,1,0,0:0:0:0:
64,192,76800,1,0,0:0:0:0:
192,192,76800,1,0,0:0:0:0:
320,192,76800,1,0,0:0:0:0:
448,192,76800,1,0,0:0:0:0:
320,192,76971,1,0,0:0:0:0:
192,192,76971,1,0,0:0:0:0:
64,192,77142,1,0,0:0:0:0:
448,192,77142,1,0,0:0:0:0:
448,192,77314,1,0,0:0:0:0:
320,192,77314,1,0,0:0:0:0:
192,192,77314,1,0,0:0:0:0:
64,192,77314,1,0,0:0:0:0:
192,192,77485,1,0,0:0:0:0:
320,192,77485,1,0,0:0:0:0:
448,192,77657,1,0,0:0:0:0:
64,192,77657,1,0,0:0:0:0:
64,192,77828,128,0,78171:0:0:0:0:
448,192,77828,128,0,78171:0:0:0:0:
320,192,77828,1,0,0:0:0:0:
192,192,77828,1,0,0:0:0:0:
320,192,78171,1,0,0:0:0:0:
192,192,78171,128,0,80914:0:0:0:0:
320,192,78342,1,0,0:0:0:0:
448,192,78342,1,0,0:0:0:0:
64,192,78514,1,0,0:0:0:0:
320,192,78514,1,0,0:0:0:0:
448,192,78685,1,0,0:0:0:0:
64,192,78685,1,0,0:0:0:0:
64,192,78857,128,0,78942:0:0:0:0:
320,192,78857,128,0,78942:0:0:0:0:
448,192,78857,128,0,78942:0:0:0:0:
320,192,79028,1,0,0:0:0:0:
448,192,79028,1,0,0:0:0:0:
64,192,79200,1,0,0:0:0:0:
320,192,79200,1,0,0:0:0:0:
448,192,79200,1,0,0:0:0:0:
448,192,79371,1,0,0:0:0:0:
320,192,79542,1,0,0:0:0:0:
64,192,79542,1,0,0:0:0:0:
448,192,79714,1,0,0:0:0:0:
64,192,79714,1,0,0:0:0:0:
320,192,79885,1,0,0:0:0:0:
448,192,80057,1,0,0:0:0:0:
320,192,80057,1,0,0:0:0:0:
64,192,80057,1,0,0:0:0:0:
448,192,80228,1,0,0:0:0:0:
64,192,80228,1,0,0:0:0:0:
64,192,80400,1,0,0:0:0:0:
448,192,80400,1,0,0:0:0:0:
320,192,80571,1,0,0:0:0:0:
448,192,80742,1,0,0:0:0:0:
320,192,80742,1,0,0:0:0:0:
64,192,80742,1,0,0:0:0:0:
320,192,80914,128,0,83657:0:0:0:0:
448,192,80914,1,0,0:0:0:0:
448,192,81085,1,0,0:0:0:0:
64,192,81085,1,0,0:0:0:0:
192,192,81257,1,0,0:0:0:0:
448,192,81257,1,0,0:0:0:0:
448,192,81428,1,0,0:0:0:0:
64,192,81428,1,0,0:0:0:0:
64,192,81600,128,0,81685:0:0:0:0:
192,192,81600,128,0,81685:0:0:0:0:
448,192,81600,128,0,81685:0:0:0:0:
192,192,81771,1,0,0:0:0:0:
64,192,81771,1,0,0:0:0:0:
64,192,81942,1,0,0:0:0:0:
192,192,81942,1,0,0:0:0:0:
448,192,81942,1,0,0:0:0:0:
448,192,82114,1,0,0:0:0:0:
448,192,82285,1,0,0:0:0:0:
64,192,82285,1,0,0:0:0:0:
192,192,82457,1,0,0:0:0:0:
448,192,82457,1,0,0:0:0:0:
64,192,82628,1,0,0:0:0:0:
192,192,82800,1,0,0:0:0:0:
64,192,82800,1,0,0:0:0:0:
448,192,82800,1,0,0:0:0:0:
192,192,82971,1,0,0:0:0:0:
448,192,82971,1,0,0:0:0:0:
192,192,83142,1,0,0:0:0:0:
448,192,83142,1,0,0:0:0:0:
64,192,83314,1,0,0:0:0:0:
192,192,83485,1,0,0:0:0:0:
64,192,83485,1,0,0:0:0:0:
448,192,83485,1,0,0:0:0:0:
64,192,83657,128,0,89142:0:0:0:0:
448,192,83657,1,0,0:0:0:0:
448,192,83828,1,0,0:0:0:0:
320,192,84000,1,0,0:0:0:0:
448,192,84000,1,0,0:0:0:0:
448,192,84171,1,0,0:0:0:0:
320,192,84171,1,0,0:0:0:0:
192,192,84342,1,0,0:0:0:0:
320,192,84342,1,0,0:0:0:0:
320,192,84514,1,0,0:0:0:0:
192,192,84514,1,0,0:0:0:0:
192,192,84685,1,0,0:0:0:0:
448,192,84685,1,0,0:0:0:0:
448,192,84857,1,0,0:0:0:0:
192,192,84857,1,0,0:0:0:0:
192,192,85028,128,0,85114:0:0:0:0:
320,192,85028,128,0,85114:0:0:0:0:
448,192,85028,128,0,85114:0:0:0:0:
192,192,85200,128,0,85285:0:0:0:0:
448,192,85200,128,0,85285:0:0:0:0:
320,192,85200,128,0,85285:0:0:0:0:
320,192,85371,1,0,0:0:0:0:
448,192,85371,1,0,0:0:0:0:
448,192,85542,1,0,0:0:0:0:
320,192,85542,1,0,0:0:0:0:
320,192,85714,1,0,0:0:0:0:
192,192,85714,1,0,0:0:0:0:
448,192,85714,1,0,0:0:0:0:
448,192,85864,1,0,0:0:0:0:
320,192,85864,1,0,0:0:0:0:
192,192,85864,1,0,0:0:0:0:
448,192,86057,1,0,0:0:0:0:
448,192,86228,1,0,0:0:0:0:
192,192,86400,1,0,0:0:0:0:
320,192,86400,1,0,0:0:0:0:
320,192,86571,1,0,0:0:0:0:
192,192,86571,1,0,0:0:0:0:
192,192,86742,1,0,0:0:0:0:
448,192,86742,1,0,0:0:0:0:
192,192,86914,1,0,0:0:0:0:
448,192,86914,1,0,0:0:0:0:
320,192,87085,1,0,0:0:0:0:
320,192,87257,1,0,0:0:0:0:
448,192,87428,1,0,0:0:0:0:
320,192,87428,1,0,0:0:0:0:
192,192,87428,1,0,0:0:0:0:
192,192,87600,1,0,0:0:0:0:
448,192,87600,1,0,0:0:0:0:
320,192,87600,1,0,0:0:0:0:
448,192,87771,1,0,0:0:0:0:
192,192,87771,1,0,0:0:0:0:
448,192,87942,1,0,0:0:0:0:
192,192,87942,1,0,0:0:0:0:
192,192,88114,1,0,0:0:0:0:
448,192,88114,1,0,0:0:0:0:
448,192,88285,1,0,0:0:0:0:
192,192,88285,1,0,0:0:0:0:
320,192,88457,1,0,0:0:0:0:
320,192,88628,1,0,0:0:0:0:
320,192,88800,1,0,0:0:0:0:
448,192,88800,1,0,0:0:0:0:
192,192,88800,1,0,0:0:0:0:
448,192,88971,1,0,0:0:0:0:
320,192,88971,1,0,0:0:0:0:
192,192,88971,1,0,0:0:0:0:
448,192,89142,128,0,91885:0:0:0:0:
192,192,89142,1,0,0:0:0:0:
320,192,89314,1,0,0:0:0:0:
64,192,89314,1,0,0:0:0:0:
192,192,89485,1,0,0:0:0:0:
64,192,89485,1,0,0:0:0:0:
320,192,89657,1,0,0:0:0:0:
192,192,89657,1,0,0:0:0:0:
64,192,89828,128,0,89914:0:0:0:0:
192,192,89828,128,0,89914:0:0:0:0:
320,192,89828,128,0,89914:0:0:0:0:
192,192,90000,1,0,0:0:0:0:
64,192,90000,1,0,0:0:0:0:
64,192,90171,1,0,0:0:0:0:
320,192,90171,1,0,0:0:0:0:
192,192,90171,1,0,0:0:0:0:
320,192,90342,1,0,0:0:0:0:
192,192,90514,1,0,0:0:0:0:
320,192,90514,1,0,0:0:0:0:
64,192,90685,1,0,0:0:0:0:
192,192,90685,1,0,0:0:0:0:
320,192,90857,1,0,0:0:0:0:
192,192,91028,1,0,0:0:0:0:
64,192,91028,1,0,0:0:0:0:
320,192,91028,1,0,0:0:0:0:
192,192,91200,1,0,0:0:0:0:
64,192,91200,1,0,0:0:0:0:
64,192,91371,1,0,0:0:0:0:
192,192,91371,1,0,0:0:0:0:
320,192,91542,1,0,0:0:0:0:
64,192,91714,1,0,0:0:0:0:
192,192,91714,1,0,0:0:0:0:
320,192,91714,1,0,0:0:0:0:
192,192,91885,128,0,94628:0:0:0:0:
64,192,91885,1,0,0:0:0:0:
320,192,92057,1,0,0:0:0:0:
448,192,92057,1,0,0:0:0:0:
448,192,92228,1,0,0:0:0:0:
64,192,92228,1,0,0:0:0:0:
64,192,92400,1,0,0:0:0:0:
320,192,92400,1,0,0:0:0:0:
448,192,92571,128,0,92657:0:0:0:0:
320,192,92571,128,0,92657:0:0:0:0:
64,192,92571,128,0,92657:0:0:0:0:
448,192,92742,1,0,0:0:0:0:
64,192,92742,1,0,0:0:0:0:
64,192,92914,1,0,0:0:0:0:
320,192,92914,1,0,0:0:0:0:
448,192,92914,1,0,0:0:0:0:
64,192,93085,1,0,0:0:0:0:
448,192,93257,1,0,0:0:0:0:
320,192,93257,1,0,0:0:0:0:
448,192,93428,1,0,0:0:0:0:
64,192,93428,1,0,0:0:0:0:
320,192,93600,1,0,0:0:0:0:
448,192,93771,1,0,0:0:0:0:
320,192,93771,1,0,0:0:0:0:
64,192,93771,1,0,0:0:0:0:
448,192,93942,1,0,0:0:0:0:
64,192,93942,1,0,0:0:0:0:
448,192,94114,1,0,0:0:0:0:
64,192,94114,1,0,0:0:0:0:
320,192,94285,1,0,0:0:0:0:
64,192,94457,1,0,0:0:0:0:
448,192,94457,1,0,0:0:0:0:
320,192,94457,1,0,0:0:0:0:
320,192,94628,128,0,100114:0:0:0:0:
64,192,94628,1,0,0:0:0:0:
64,192,94800,1,0,0:0:0:0:
448,192,94971,1,0,0:0:0:0:
192,192,94971,1,0,0:0:0:0:
192,192,95142,1,0,0:0:0:0:
448,192,95142,1,0,0:0:0:0:
64,192,95314,1,0,0:0:0:0:
192,192,95314,1,0,0:0:0:0:
192,192,95485,1,0,0:0:0:0:
64,192,95485,1,0,0:0:0:0:
64,192,95657,1,0,0:0:0:0:
448,192,95657,1,0,0:0:0:0:
448,192,95828,1,0,0:0:0:0:
64,192,95828,1,0,0:0:0:0:
64,192,96000,128,0,96085:0:0:0:0:
192,192,96000,128,0,96085:0:0:0:0:
448,192,96000,128,0,96085:0:0:0:0:
448,192,96171,128,0,96257:0:0:0:0:
192,192,96171,128,0,96257:0:0:0:0:
64,192,96171,128,0,96257:0:0:0:0:
192,192,96342,1,0,0:0:0:0:
448,192,96342,1,0,0:0:0:0:
192,192,96514,1,0,0:0:0:0:
448,192,96514,1,0,0:0:0:0:
64,192,96685,1,0,0:0:0:0:
192,192,96685,1,0,0:0:0:0:
448,192,96685,1,0,0:0:0:0:
448,192,96857,1,0,0:0:0:0:
192,192,96857,1,0,0:0:0:0:
64,192,96857,1,0,0:0:0:0:
448,192,97028,1,0,0:0:0:0:
448,192,97200,1,0,0:0:0:0:
192,192,97371,1,0,0:0:0:0:
64,192,97371,1,0,0:0:0:0:
192,192,97542,1,0,0:0:0:0:
64,192,97542,1,0,0:0:0:0:
192,192,97714,1,0,0:0:0:0:
448,192,97714,1,0,0:0:0:0:
192,192,97885,1,0,0:0:0:0:
448,192,97885,1,0,0:0:0:0:
64,192,98057,1,0,0:0:0:0:
64,192,98228,1,0,0:0:0:0:
64,192,98400,1,0,0:0:0:0:
192,192,98400,1,0,0:0:0:0:
448,192,98400,1,0,0:0:0:0:
448,192,98571,1,0,0:0:0:0:
192,192,98571,1,0,0:0:0:0:
64,192,98571,1,0,0:0:0:0:
192,192,98742,1,0,0:0:0:0:
448,192,98742,1,0,0:0:0:0:
448,192,98914,1,0,0:0:0:0:
192,192,98914,1,0,0:0:0:0:
448,192,99085,1,0,0:0:0:0:
192,192,99085,1,0,0:0:0:0:
448,192,99257,1,0,0:0:0:0:
192,192,99257,1,0,0:0:0:0:
64,192,99428,1,0,0:0:0:0:
64,192,99600,1,0,0:0:0:0:
64,192,99771,1,0,0:0:0:0:
192,192,99771,1,0,0:0:0:0:
448,192,99771,1,0,0:0:0:0:
192,192,99942,1,0,0:0:0:0:
64,192,99942,1,0,0:0:0:0:
448,192,99942,1,0,0:0:0:0:
448,192,100114,1,0,0:0:0:0:
64,192,100114,1,0,0:0:0:0:
64,192,100457,1,0,0:0:0:0:
448,192,100457,1,0,0:0:0:0:
64,192,100800,1,0,0:0:0:0:
448,192,100800,1,0,0:0:0:0:
64,192,101142,1,0,0:0:0:0:
448,192,101142,1,0,0:0:0:0:
448,192,101485,1,0,0:0:0:0:
64,192,101485,1,0,0:0:0:0:
192,192,101657,1,0,0:0:0:0:
320,192,101657,1,0,0:0:0:0:
448,192,101828,1,0,0:0:0:0:
64,192,101828,1,0,0:0:0:0:
192,192,102000,1,0,0:0:0:0:
320,192,102000,1,0,0:0:0:0:
448,192,102342,1,0,0:0:0:0:
192,192,102342,1,0,0:0:0:0:
320,192,102514,1,0,0:0:0:0:
64,192,102514,1,0,0:0:0:0:
192,192,102685,1,0,0:0:0:0:
320,192,102685,128,0,102857:0:0:0:0:
64,192,102857,1,0,0:0:0:0:
192,192,102857,128,0,103200:0:0:0:0:
448,192,103200,128,0,103542:0:0:0:0:
64,192,103200,1,0,0:0:0:0:
192,192,103542,1,0,0:0:0:0:
320,192,103542,1,0,0:0:0:0:
64,192,103714,1,0,0:0:0:0:
320,192,103714,1,0,0:0:0:0:
320,192,103885,1,0,0:0:0:0:
448,192,103885,1,0,0:0:0:0:
192,192,104057,1,0,0:0:0:0:
64,192,104057,1,0,0:0:0:0:
448,192,104228,1,0,0:0:0:0:
320,192,104228,1,0,0:0:0:0:
192,192,104228,1,0,0:0:0:0:
64,192,104400,1,0,0:0:0:0:
192,192,104400,1,0,0:0:0:0:
320,192,104400,1,0,0:0:0:0:
448,192,104400,1,0,0:0:0:0:
448,192,104571,1,0,0:0:0:0:
320,192,104571,1,0,0:0:0:0:
192,192,104571,1,0,0:0:0:0:
64,192,104571,1,0,0:0:0:0:
64,192,104742,128,0,105085:0:0:0:0:
448,192,104742,128,0,105085:0:0:0:0:
192,192,104742,128,0,105085:0:0:0:0:
320,192,104742,128,0,105085:0:0:0:0:
192,192,105257,1,0,0:0:0:0:
320,192,105257,1,0,0:0:0:0:
448,192,105428,1,0,0:0:0:0:
64,192,105428,1,0,0:0:0:0:
64,192,105600,1,0,0:0:0:0:
320,192,105600,1,0,0:0:0:0:
192,192,105600,1,0,0:0:0:0:
448,192,105771,1,0,0:0:0:0:
320,192,105942,1,0,0:0:0:0:
64,192,105942,1,0,0:0:0:0:
192,192,105942,128,0,106285:0:0:0:0:
320,192,106285,1,0,0:0:0:0:
448,192,106285,128,0,106628:0:0:0:0:
64,192,106628,1,0,0:0:0:0:
192,192,106800,1,0,0:0:0:0:
320,192,106971,1,0,0:0:0:0:
448,192,106971,1,0,0:0:0:0:
192,192,107142,1,0,0:0:0:0:
448,192,107142,1,0,0:0:0:0:
64,192,107142,128,0,107314:0:0:0:0:
192,192,107314,1,0,0:0:0:0:
320,192,107314,1,0,0:0:0:0:
448,192,107314,1,0,0:0:0:0:
64,192,107485,1,0,0:0:0:0:
320,192,107485,1,0,0:0:0:0:
448,192,107485,128,0,107828:0:0:0:0:
64,192,107828,1,0,0:0:0:0:
192,192,107828,1,0,0:0:0:0:
192,192,108000,1,0,0:0:0:0:
320,192,108000,1,0,0:0:0:0:
320,192,108171,1,0,0:0:0:0:
448,192,108171,1,0,0:0:0:0:
64,192,108342,1,0,0:0:0:0:
320,192,108342,1,0,0:0:0:0:
192,192,108514,1,0,0:0:0:0:
64,192,108685,1,0,0:0:0:0:
320,192,108685,1,0,0:0:0:0:
448,192,108685,128,0,109028:0:0:0:0:
64,192,109028,1,0,0:0:0:0:
192,192,109028,1,0,0:0:0:0:
320,192,109028,128,0,109371:0:0:0:0:
192,192,109371,1,0,0:0:0:0:
448,192,109371,128,0,109714:0:0:0:0:
192,192,109714,1,0,0:0:0:0:
64,192,109714,128,0,110057:0:0:0:0:
320,192,110057,1,0,0:0:0:0:
448,192,110057,1,0,0:0:0:0:
192,192,110057,128,0,110400:0:0:0:0:
448,192,110400,1,0,0:0:0:0:
320,192,110571,1,0,0:0:0:0:
192,192,110742,1,0,0:0:0:0:
64,192,111085,128,0,117942:0:0:0:0:
448,192,112457,128,0,117942:0:0:0:0:
