osu file format v14

[General]
AudioFilename: audio.mp3
AudioLeadIn: 0
PreviewTime: 51991
Countdown: 1
SampleSet: Normal
StackLeniency: 0.7
Mode: 0
LetterboxInBreaks: 0
CountdownOffset: 2
WidescreenStoryboard: 1

[Editor]
DistanceSpacing: 0.8
BeatDivisor: 4
GridSize: 4
TimelineZoom: 1

[Metadata]
Title:Clover Kakume-tion
TitleUnicode:クローバー♧かくめーしょん
Artist:Triple Feeling(Wakui Yu/Kanazawa Mai/Imamura Ayaka)
ArtistUnicode:とりぷるふぃーりんぐ(和久井優/金澤まい/今村彩夏)
Creator:jashintonki
Version:Normal
Source:三者三葉
Tags:sansya sanyo clover kakume-tion triple feeling wakui yu kanazawa mai imamura ayaka
BeatmapID:989984
BeatmapSetID:462249

[Difficulty]
HPDrainRate:4
CircleSize:3
OverallDifficulty:5
ApproachRate:5
SliderMultiplier:1.20000000596046
SliderTickRate:1

[Events]
//Background and Video events
0,0,"三者三葉.jpg",0,0
//Break Periods
//Storyboard Layer 0 (Background)
//Storyboard Layer 1 (Fail)
//Storyboard Layer 2 (Pass)
//Storyboard Layer 3 (Foreground)
//Storyboard Sound Samples

[TimingPoints]
1301.35271687749,413.793103448276,4,1,0,50,1,0

[HitObjects]
164,144,1301,5,2,0:0:0:0:
164,144,1508,1,2,0:0:0:0:
368,192,2128,1,2,0:0:0:0:
368,192,2335,1,2,0:0:0:0:
336,132,2956,5,2,0:0:0:0:
296,244,3370,1,2,0:0:0:0:
160,144,3784,1,2,0:0:0:0:
168,100,4611,6,0,B|144:132|136:152|136:192|144:208|160:232,1,120.000000596046
304,264,5439,2,0,B|328:228|336:176|320:144|312:144,1,120.000000596046
376,92,6266,2,0,B|428:152|424:148,7,60.000000298023
256,192,7922,5,0,0:0:0:0:
148,136,8335,1,0,0:0:0:0:
352,168,8749,1,0,0:0:0:0:
156,264,9163,1,0,0:0:0:0:
328,152,9577,5,2,0:0:0:0:
328,152,9784,1,2,0:0:0:0:
328,152,9990,1,2,0:0:0:0:
328,152,10197,1,2,0:0:0:0:
328,152,10404,1,2,0:0:0:0:
172,168,11232,5,0,0:0:0:0:
172,168,11542,1,0,0:0:0:0:
368,124,12887,5,0,0:0:0:0:
368,124,13197,1,0,0:0:0:0:
156,128,14542,6,0,L|224:128,1,60.000000298023
224,220,14956,2,0,L|284:220,1,60.000000298023
368,112,15370,2,0,L|368:176,1,60.000000298023
256,176,15784,2,0,L|256:240,1,60.000000298023
140,184,16197,6,0,L|168:120,7,60.000000298023
312,240,17852,1,0,0:0:0:0:
312,240,18059,1,0,0:0:0:0:
312,240,18266,1,0,0:0:0:0:
160,148,19094,1,0,0:0:0:0:
344,136,19508,6,0,B|332:184|304:220|256:248|216:264|168:260|156:260,2,240.000001192092
164,148,21991,1,0,0:0:0:0:
328,244,22818,1,2,0:0:0:0:
328,244,23025,1,2,0:0:0:0:
328,244,23232,1,2,0:0:0:0:
328,244,23439,1,2,0:0:0:0:
328,244,23646,1,2,0:0:0:0:
132,268,24473,6,0,B|116:196|152:164|200:160|228:168|248:188|272:212|292:224|320:224|352:212|368:196|384:180|392:128|372:96|260:88,1,480.000002384184
144,152,26956,1,0,0:0:0:0:
144,152,27784,5,0,0:0:0:0:
344,132,28198,1,0,0:0:0:0:
312,272,28611,1,0,0:0:0:0:
136,180,29025,1,0,0:0:0:0:
136,180,29232,1,0,0:0:0:0:
272,128,29439,5,0,0:0:0:0:
228,244,29853,1,0,0:0:0:0:
124,288,30267,1,0,0:0:0:0:
152,176,31094,6,2,P|160:104|220:88,2,120.000000596046
340,192,32749,2,2,P|352:120|320:96,2,120.000000596046
168,248,34404,2,0,L|232:248,7,60.000000298023
336,144,36059,1,0,0:0:0:0:
184,148,37508,5,0,0:0:0:0:
276,96,37715,1,0,0:0:0:0:
348,128,39370,5,2,0:0:0:0:
348,128,39577,2,2,L|308:184,1,60.000000298023
200,192,39991,1,2,0:0:0:0:
200,192,40197,2,2,L|160:240,1,60.000000298023
124,104,40611,2,2,L|184:104,1,60.000000298023
184,104,41025,1,2,0:0:0:0:
184,128,42680,5,0,0:0:0:0:
184,128,42887,1,0,0:0:0:0:
184,128,43094,1,0,0:0:0:0:
172,256,43301,5,0,0:0:0:0:
172,256,43508,1,0,0:0:0:0:
172,256,43715,1,0,0:0:0:0:
324,192,43922,5,0,0:0:0:0:
324,192,44128,1,0,0:0:0:0:
324,192,44335,1,0,0:0:0:0:
156,124,45991,6,2,L|276:124,1,120.000000596046
208,248,46818,2,2,L|328:248,1,120.000000596046
344,120,47646,6,2,L|320:176,1,60.000000298023
200,160,48059,2,2,L|168:108,1,60.000000298023
172,256,48473,2,2,L|112:276,1,60.000000298023
284,268,48887,2,2,L|352:284,1,60.000000298023
164,136,49301,5,0,0:0:0:0:
164,136,49508,1,0,0:0:0:0:
164,136,49715,1,0,0:0:0:0:
164,136,49922,1,0,0:0:0:0:
348,188,50128,5,0,0:0:0:0:
348,188,50335,1,0,0:0:0:0:
348,188,50542,1,0,0:0:0:0:
348,188,50749,1,0,0:0:0:0:
264,276,50956,1,0,0:0:0:0:
144,192,51991,6,0,L|224:192,1,60.000000298023
252,192,52404,1,0,0:0:0:0:
360,120,52611,5,2,0:0:0:0:
356,216,53025,1,2,0:0:0:0:
352,312,53439,1,2,0:0:0:0:
216,136,54266,5,2,0:0:0:0:
92,244,54680,1,2,0:0:0:0:
216,136,55094,1,2,0:0:0:0:
140,132,55922,5,2,0:0:0:0:
140,132,56128,1,2,0:0:0:0:
140,132,56335,1,2,0:0:0:0:
120,268,56749,5,2,0:0:0:0:
120,268,56956,1,2,0:0:0:0:
120,268,57163,1,2,0:0:0:0:
364,180,57577,5,2,0:0:0:0:
228,180,57991,1,2,0:0:0:0:
108,212,58404,1,2,0:0:0:0:
96,196,59232,6,0,B|144:108|176:200|284:196|280:140|328:124,1,240.000001192092
400,232,60887,2,0,B|302:256|348:170|271:94|233:135|189:111,1,240.000001192092
256,80,62542,5,0,0:0:0:0:
368,168,62956,1,0,0:0:0:0:
328,288,63370,1,0,0:0:0:0:
188,288,63784,1,0,0:0:0:0:
144,164,64197,1,0,0:0:0:0:
144,164,65025,1,0,0:0:0:0:
132,252,65853,5,2,0:0:0:0:
228,112,66266,1,2,0:0:0:0:
336,260,66680,2,2,L|368:200,3,60.000000298023
344,104,67508,5,2,0:0:0:0:
136,120,67922,1,2,0:0:0:0:
244,248,68335,2,2,L|168:248,3,60.000000298023
256,80,69163,5,0,0:0:0:0:
144,168,69577,1,0,0:0:0:0:
184,288,69991,1,0,0:0:0:0:
324,288,70405,1,0,0:0:0:0:
368,164,70818,1,0,0:0:0:0:
368,164,71232,1,0,0:0:0:0:
368,164,71646,1,0,0:0:0:0:
200,116,72473,6,0,P|144:164|136:232,1,120.000000596046
204,280,73301,1,0,0:0:0:0:
312,268,74128,6,0,P|368:220|376:152,1,120.000000596046
308,104,74956,1,0,0:0:0:0:
308,104,75163,1,0,0:0:0:0:
308,104,75370,1,0,0:0:0:0:
132,144,75784,6,2,B|168:212|200:248|264:276|316:256|344:240,1,240.000001192092
320,248,77439,2,0,L|256:212,4,60.000000298023
132,240,79094,6,2,B|168:172|200:136|264:108|316:128|344:144,1,240.000001192092
320,136,80749,2,0,L|256:172,3,60.000000298023
388,208,81577,1,0,0:0:0:0:
388,208,81784,1,0,0:0:0:0:
388,208,81991,1,0,0:0:0:0:
388,208,82197,1,0,0:0:0:0:
388,208,82404,6,2,L|144:124,2,240.000001192092
304,96,84473,1,2,0:0:0:0:
120,192,84887,1,2,0:0:0:0:
304,96,85301,1,2,0:0:0:0:
256,192,85715,12,4,88197,0:0:0:0:
