osu file format v14

[General]
AudioFilename: audio.mp3
AudioLeadIn: 0
PreviewTime: 51991
Countdown: 1
SampleSet: Normal
StackLeniency: 0.7
Mode: 0
LetterboxInBreaks: 0
CountdownOffset: 2
WidescreenStoryboard: 0

[Editor]
DistanceSpacing: 0.8
BeatDivisor: 4
GridSize: 4
TimelineZoom: 1

[Metadata]
Title:Clover Kakume-tion
TitleUnicode:クローバー♧かくめーしょん
Artist:Triple Feeling(Wakui Yu/Kanazawa Mai/Imamura Ayaka)
ArtistUnicode:とりぷるふぃーりんぐ(和久井優/金澤まい/今村彩夏)
Creator:jashintonki
Version:Easy
Source:三者三葉
Tags:sansya sanyo clover kakume-tion triple feeling wakui yu kanazawa mai imamura ayaka
BeatmapID:989981
BeatmapSetID:462249

[Difficulty]
HPDrainRate:3
CircleSize:3
OverallDifficulty:4
ApproachRate:3
SliderMultiplier:1.00000000596046
SliderTickRate:1

[Events]
//Background and Video events
0,0,"三者三葉.jpg",0,0
//Break Periods
2,24673,29654
//Storyboard Layer 0 (Background)
//Storyboard Layer 1 (Fail)
//Storyboard Layer 2 (Pass)
//Storyboard Layer 3 (Foreground)
//Storyboard Sound Samples

[TimingPoints]
1301.35271687749,413.793103448276,4,1,0,50,1,0

[HitObjects]
216,152,1301,5,0,0:0:0:0:
336,256,2956,1,0,0:0:0:0:
144,228,4611,1,2,0:0:0:0:
252,152,5439,1,2,0:0:0:0:
376,248,6266,1,2,0:0:0:0:
160,152,7922,6,2,P|256:124|352:152,2,200.000001192092
372,104,11232,5,0,0:0:0:0:
280,220,12887,1,0,0:0:0:0:
176,184,14542,6,2,B|268:156|316:76|368:160,1,200.000001192092
188,76,16197,2,2,B|228:163|314:199|238:262,2,200.000001192092
132,232,19508,5,0,0:0:0:0:
352,84,20335,2,0,B|308:105|304:169|252:172|191:193,1,200.000001192092
280,252,22818,5,2,0:0:0:0:
168,128,23646,1,2,0:0:0:0:
352,212,24473,1,2,0:0:0:0:
188,152,31094,5,0,0:0:0:0:
336,232,32749,1,0,0:0:0:0:
304,120,34404,5,2,0:0:0:0:
280,236,35232,1,2,0:0:0:0:
256,192,36059,12,0,37715,0:0:0:0:
288,260,39370,5,0,0:0:0:0:
172,112,41025,1,0,0:0:0:0:
284,104,42680,5,0,0:0:0:0:
164,304,44335,1,0,0:0:0:0:
172,140,45991,6,2,P|237:120|256:82,1,100.000000596046
340,248,46818,2,2,P|274:267|255:305,1,100.000000596046
188,272,47646,2,2,P|168:206|130:187,1,100.000000596046
320,112,48473,2,2,P|339:177|377:196,1,100.000000596046
256,192,49301,12,0,50956,0:0:0:0:
116,152,52611,5,2,0:0:0:0:
256,96,53439,1,2,0:0:0:0:
392,192,54266,1,2,0:0:0:0:
392,192,55922,5,0,0:0:0:0:
256,288,56749,1,0,0:0:0:0:
120,192,57577,1,0,0:0:0:0:
184,212,59232,6,2,B|100:60|136:180|244:156|244:100,2,200.000001192092
332,100,62542,2,2,B|220:100|420:192|328:260,2,200.000001192092
348,152,65853,5,0,0:0:0:0:
156,232,67508,1,0,0:0:0:0:
176,192,69163,6,2,B|224:128|284:100|372:116,1,200.000001192092
336,192,70818,2,2,B|288:256|228:284|140:268,1,200.000001192092
172,140,72473,6,0,L|288:112,6,100.000000596046,12|12|12|12|12|12|12,0:0|0:0|0:0|0:0|0:0|0:0|0:0,0:0:0:0:
340,136,75784,5,0,0:0:0:0:
284,244,76611,1,0,0:0:0:0:
148,248,77439,1,2,0:0:0:0:
148,248,77853,1,2,0:0:0:0:
148,248,78266,1,2,0:0:0:0:
256,124,79094,5,0,0:0:0:0:
224,280,79922,1,0,0:0:0:0:
152,124,80749,1,2,0:0:0:0:
152,124,81163,1,2,0:0:0:0:
152,124,81577,1,2,0:0:0:0:
192,140,82404,6,0,L|164:240,2,100.000000596046
404,248,84059,2,2,L|300:220,3,100.000000596046
256,192,85715,12,4,88197,0:0:0:0:
