osu file format v14

[General]
AudioFilename: School Hightouch!.mp3
AudioLeadIn: 0
PreviewTime: 60877
Countdown: 0
SampleSet: Normal
StackLeniency: 0.7
Mode: 1
LetterboxInBreaks: 0
WidescreenStoryboard: 0

[Editor]
DistanceSpacing: 1
BeatDivisor: 2
GridSize: 32
TimelineZoom: 0.6999998

[Metadata]
Title:School Hightouch!
TitleUnicode:スクールはいたっち!
Artist:Triple Feeling
ArtistUnicode:とりぷる♧ふぃーりんぐ
Creator:komasy
Version:Kantan
Source:三者三葉
Tags:anime sansya sanyou nishikawa youko odagiri futaba hayama teru wakui yuu kanazawa mai imamura ayaka
BeatmapID:1048325
BeatmapSetID:492059

[Difficulty]
HPDrainRate:7
CircleSize:2
OverallDifficulty:3
ApproachRate:6
SliderMultiplier:1.2
SliderTickRate:1

[Events]
//Background and Video events
0,0,"maxresdefault-1.jpg",0,0
//Break Periods
//Storyboard Layer 0 (Background)
//Storyboard Layer 1 (Fail)
//Storyboard Layer 2 (Pass)
//Storyboard Layer 3 (Foreground)
//Storyboard Sound Samples

[TimingPoints]
11015,329.67032967033,4,1,0,70,1,0
61124,-100,4,1,0,85,0,1
80905,-100,4,1,0,70,0,0

[HitObjects]
448,160,11014,5,4,0:0:0:0:
288,160,12333,1,0,0:0:0:0:
320,224,12993,1,8,0:0:0:0:
256,0,13652,1,0,0:0:0:0:
352,160,14971,1,0,0:0:0:0:
320,224,15630,1,2,0:0:0:0:
288,192,16289,1,0,0:0:0:0:
416,192,17443,1,4,0:0:0:0:
256,192,18762,1,4,0:0:0:0:
512,64,19586,1,0,0:0:0:0:
480,192,20245,1,0,0:0:0:0:
256,192,21399,1,4,0:0:0:0:
320,224,22223,1,0,0:0:0:0:
320,224,22718,1,2,0:0:0:0:
256,192,24036,1,4,0:0:0:0:
288,192,24861,1,0,0:0:0:0:
288,192,25520,1,0,0:0:0:0:
320,192,26674,1,6,0:0:0:0:
384,192,27498,1,8,0:0:0:0:
256,256,28157,1,12,0:0:0:0:
192,288,29476,1,4,0:0:0:0:
384,224,30135,1,0,0:0:0:0:
128,128,30795,1,0,0:0:0:0:
416,160,32113,1,2,0:0:0:0:
160,128,32773,1,8,0:0:0:0:
416,128,33432,1,2,0:0:0:0:
192,224,34751,1,0,0:0:0:0:
480,32,35740,1,0,0:0:0:0:
352,96,36069,1,0,0:0:0:0:
384,192,37388,1,2,0:0:0:0:
192,64,38377,1,8,0:0:0:0:
288,64,38707,1,2,0:0:0:0:
288,192,40025,1,4,0:0:0:0:
512,256,40685,1,0,0:0:0:0:
416,224,41015,1,0,0:0:0:0:
416,192,41344,1,0,0:0:0:0:
416,160,42004,1,0,0:0:0:0:
192,64,42663,1,2,0:0:0:0:
352,224,43322,1,8,0:0:0:0:
352,224,43652,1,8,0:0:0:0:
352,224,43982,1,8,0:0:0:0:
480,32,44641,1,8,0:0:0:0:
288,192,45300,1,0,0:0:0:0:
128,32,45960,1,2,0:0:0:0:
288,224,46619,1,0,0:0:0:0:
384,224,46949,1,0,0:0:0:0:
288,192,47278,1,0,0:0:0:0:
288,192,47938,1,2,0:0:0:0:
448,224,48597,1,8,0:0:0:0:
288,192,49256,1,0,0:0:0:0:
256,128,50575,1,0,0:0:0:0:
448,224,51894,1,8,0:0:0:0:
288,192,53212,1,0,0:0:0:0:
320,160,54531,1,0,0:0:0:0:
416,192,54861,1,0,0:0:0:0:
416,160,55190,1,8,0:0:0:0:
416,192,55850,1,0,0:0:0:0:
352,192,56839,1,8,0:0:0:0:
288,192,57168,1,0,0:0:0:0:
352,192,57828,1,8,0:0:0:0:
192,224,58487,1,0,0:0:0:0:
416,160,59146,1,0,0:0:0:0:
288,128,59806,1,6,0:0:0:0:
128,224,61124,1,4,0:0:0:0:
352,320,61784,1,2,0:0:0:0:
256,128,62443,1,0,0:0:0:0:
384,256,62773,1,0,0:0:0:0:
256,128,63102,1,8,0:0:0:0:
512,128,63762,1,0,0:0:0:0:
288,160,64421,1,8,0:0:0:0:
448,128,65080,1,8,0:0:0:0:
416,160,65410,1,8,0:0:0:0:
352,96,65740,1,0,0:0:0:0:
288,160,66399,1,0,0:0:0:0:
448,128,67058,1,8,0:0:0:0:
448,128,67718,1,0,0:0:0:0:
448,128,68047,1,0,0:0:0:0:
352,160,68377,1,8,0:0:0:0:
128,192,69036,1,0,0:0:0:0:
352,224,69696,1,8,0:0:0:0:
256,32,70355,1,12,0:0:0:0:
320,224,71674,1,4,0:0:0:0:
128,352,72333,1,2,0:0:0:0:
256,160,72993,1,0,0:0:0:0:
320,64,73322,1,0,0:0:0:0:
320,32,73652,1,8,0:0:0:0:
288,192,74311,1,0,0:0:0:0:
480,352,74971,1,2,0:0:0:0:
288,192,75630,1,8,0:0:0:0:
352,64,75960,1,8,0:0:0:0:
352,64,76289,1,0,0:0:0:0:
224,256,76949,1,0,0:0:0:0:
352,64,77608,1,8,0:0:0:0:
288,192,78267,1,0,0:0:0:0:
352,64,78597,1,0,0:0:0:0:
480,192,78927,1,2,0:0:0:0:
288,160,79586,1,0,0:0:0:0:
512,96,80245,1,8,0:0:0:0:
352,256,80905,1,12,0:0:0:0:
416,224,82058,1,4,0:0:0:0:
128,192,82883,1,8,0:0:0:0:
288,192,83542,1,0,0:0:0:0:
352,224,83872,1,0,0:0:0:0:
352,224,84201,1,8,0:0:0:0:
416,224,84531,1,2,0:0:0:0:
288,224,84861,1,0,0:0:0:0:
384,160,85520,1,2,0:0:0:0:
224,320,86179,1,0,0:0:0:0:
288,256,86509,1,8,0:0:0:0:
384,160,86839,1,0,0:0:0:0:
288,224,87168,1,8,0:0:0:0:
288,224,87498,1,0,0:0:0:0:
480,64,88157,1,2,0:0:0:0:
384,320,88817,1,0,0:0:0:0:
384,224,89146,1,0,0:0:0:0:
416,128,89476,1,8,0:0:0:0:
96,32,89806,1,2,0:0:0:0:
288,192,90135,1,0,0:0:0:0:
352,224,90795,1,8,0:0:0:0:
384,32,91454,1,0,0:0:0:0:
384,160,92113,1,0,0:0:0:0:
288,128,92443,1,8,0:0:0:0:
416,192,93927,1,6,0:0:0:0:
