osu file format v14

[General]
AudioFilename: audio.mp3
AudioLeadIn: 0
PreviewTime: 58074
Countdown: 0
SampleSet: Normal
StackLeniency: 0.7
Mode: 1
LetterboxInBreaks: 0
WidescreenStoryboard: 1

[Editor]
DistanceSpacing: 1
BeatDivisor: 4
GridSize: 16
TimelineZoom: 1.9

[Metadata]
Title:Clover Kakumation
TitleUnicode:クローバー♣かくめーしょん
Artist:Triple Feeling
ArtistUnicode:とりぷる♣ふぃーりんぐ
Creator:I am graduated
Version:Oni
Source:三者三葉
Tags:
BeatmapID:1356398
BeatmapSetID:639560

[Difficulty]
HPDrainRate:5
CircleSize:2
OverallDifficulty:6
ApproachRate:5
SliderMultiplier:1.4
SliderTickRate:1

[Events]
//Background and Video events
0,0,"bg.jpg",0,0
//Break Periods
//Storyboard Layer 0 (Background)
//Storyboard Layer 1 (Fail)
//Storyboard Layer 2 (Pass)
//Storyboard Layer 3 (Foreground)
//Storyboard Sound Samples

[TimingPoints]
764,413.793103448276,4,1,1,70,1,0
764,-100,4,1,1,70,0,0
3660,-33.3333333333333,4,1,1,70,0,0
4074,-66.6666666666667,4,1,1,70,0,1
16901,-125,4,1,1,70,0,0
20626,-66.6666666666667,4,1,1,70,0,0
30557,-125,4,1,1,70,0,0
36970,-100,4,1,1,70,0,0
45453,-66.6666666666667,4,1,1,70,0,0
52074,-100,4,1,1,70,0,0
58695,-66.6666666666667,4,1,1,70,0,1
70281,-100,4,1,1,70,0,1
71522,-50,4,1,1,70,0,1
71729,-33.3333333333333,4,1,1,70,0,1
71936,-66.6666666666667,4,1,1,70,0,1
72970,-33.3333333333333,4,1,1,70,0,1
73177,-66.6666666666667,4,1,1,70,0,1
73384,-33.3333333333333,4,1,1,70,0,1
73591,-66.6666666666667,4,1,1,70,0,1
74626,-33.3333333333333,4,1,1,70,0,1
74832,-66.6666666666667,4,1,1,70,0,1
75039,-33.3333333333333,4,1,1,70,0,1
75246,-66.6666666666667,4,1,1,70,0,1
85177,-100,4,1,1,70,0,0

[Colours]
Combo1 : 182,109,109
Combo2 : 128,128,255
Combo3 : 0,128,255
Combo4 : 255,128,192

[HitObjects]
256,192,764,5,4,0:0:0:0:
256,192,1591,1,12,0:0:0:0:
256,192,2419,1,4,0:0:0:0:
256,192,2832,1,4,0:0:0:0:
256,192,3246,1,12,0:0:0:0:
128,80,3660,2,12,L|384:80,1,210.000008010865
256,192,4074,1,0,0:0:0:0:
256,192,4281,1,8,0:0:0:0:
256,192,4488,1,0,0:0:0:0:
256,192,4591,1,0,0:0:0:0:
256,192,4695,1,8,0:0:0:0:
256,192,4798,1,0,0:0:0:0:
256,192,5005,1,0,0:0:0:0:
256,192,5108,1,8,0:0:0:0:
256,192,5212,1,0,0:0:0:0:
256,192,5315,1,0,0:0:0:0:
256,192,5522,1,8,0:0:0:0:
256,192,5729,1,0,0:0:0:0:
256,192,5936,1,8,0:0:0:0:
256,192,6143,1,0,0:0:0:0:
256,192,6247,1,0,0:0:0:0:
256,192,6350,1,0,0:0:0:0:
256,192,6454,1,8,0:0:0:0:
256,192,6660,1,0,0:0:0:0:
256,192,6764,1,8,0:0:0:0:
256,192,6867,1,8,0:0:0:0:
256,192,6970,1,0,0:0:0:0:
256,192,7074,1,8,0:0:0:0:
256,192,7177,1,0,0:0:0:0:
256,192,7281,1,0,0:0:0:0:
256,192,7384,1,8,0:0:0:0:
256,192,7591,1,0,0:0:0:0:
256,192,7798,1,0,0:0:0:0:
256,192,7901,1,0,0:0:0:0:
256,192,8005,1,8,0:0:0:0:
256,192,8108,1,0,0:0:0:0:
256,192,8315,1,0,0:0:0:0:
256,192,8419,1,8,0:0:0:0:
256,192,8522,1,0,0:0:0:0:
256,192,8626,1,0,0:0:0:0:
256,192,8832,1,8,0:0:0:0:
256,192,9039,1,0,0:0:0:0:
256,192,9246,1,8,0:0:0:0:
256,192,9453,1,0,0:0:0:0:
256,192,9557,1,0,0:0:0:0:
256,192,9660,1,0,0:0:0:0:
256,192,9764,1,8,0:0:0:0:
256,192,9971,1,8,0:0:0:0:
256,192,10074,1,0,0:0:0:0:
256,192,10177,1,0,0:0:0:0:
256,192,10280,1,8,0:0:0:0:
256,192,10384,1,8,0:0:0:0:
256,192,10487,1,0,0:0:0:0:
256,192,10591,1,0,0:0:0:0:
256,192,10694,1,8,0:0:0:0:
256,192,10901,1,0,0:0:0:0:
256,192,11005,1,8,0:0:0:0:
256,192,11108,1,8,0:0:0:0:
256,192,11315,1,8,0:0:0:0:
256,192,11522,1,0,0:0:0:0:
256,192,11729,1,0,0:0:0:0:
256,192,11832,1,0,0:0:0:0:
256,192,11936,1,8,0:0:0:0:
256,192,12143,1,8,0:0:0:0:
256,192,12350,1,8,0:0:0:0:
256,192,12453,1,0,0:0:0:0:
256,192,12557,1,8,0:0:0:0:
256,192,12660,1,8,0:0:0:0:
256,192,12764,1,0,0:0:0:0:
256,192,12867,1,0,0:0:0:0:
256,192,12970,1,0,0:0:0:0:
256,192,13074,1,8,0:0:0:0:
256,192,13281,1,0,0:0:0:0:
256,192,13384,1,8,0:0:0:0:
256,192,13488,1,8,0:0:0:0:
256,192,13591,1,0,0:0:0:0:
256,192,13695,1,8,0:0:0:0:
256,192,13798,1,0,0:0:0:0:
256,192,13901,1,0,0:0:0:0:
256,192,14005,1,8,0:0:0:0:
256,192,14212,1,0,0:0:0:0:
256,192,14316,1,8,0:0:0:0:
256,192,14419,1,8,0:0:0:0:
256,192,14626,1,8,0:0:0:0:
256,192,14833,1,0,0:0:0:0:
256,192,15040,1,0,0:0:0:0:
256,192,15143,1,0,0:0:0:0:
256,192,15247,1,8,0:0:0:0:
256,192,15454,1,8,0:0:0:0:
256,192,15661,1,4,0:0:0:0:
256,192,15868,1,4,0:0:0:0:
256,192,16075,1,12,0:0:0:0:
256,192,16281,1,0,0:0:0:0:
256,192,16385,1,0,0:0:0:0:
256,192,16488,1,8,0:0:0:0:
256,192,16901,1,2,0:0:0:0:
256,192,17315,1,4,0:0:0:0:
256,192,17626,1,4,0:0:0:0:
256,192,18970,1,4,0:0:0:0:
256,192,19281,1,4,0:0:0:0:
256,192,19798,1,8,0:0:0:0:
256,192,19901,1,0,0:0:0:0:
256,192,20108,1,0,0:0:0:0:
256,192,20315,1,0,0:0:0:0:
256,192,20419,1,8,0:0:0:0:
256,192,20626,1,8,0:0:0:0:
256,192,20729,1,8,0:0:0:0:
256,192,20832,1,0,0:0:0:0:
256,192,20936,1,8,0:0:0:0:
256,192,21039,1,0,0:0:0:0:
256,192,21246,1,8,0:0:0:0:
256,192,21453,1,8,0:0:0:0:
256,192,21557,1,8,0:0:0:0:
256,192,21659,1,0,0:0:0:0:
256,192,21764,1,8,0:0:0:0:
256,192,21867,1,8,0:0:0:0:
256,192,22074,1,8,0:0:0:0:
256,192,22281,1,0,0:0:0:0:
256,192,22384,1,8,0:0:0:0:
256,192,22488,1,0,0:0:0:0:
256,192,22591,1,8,0:0:0:0:
256,192,22695,1,0,0:0:0:0:
256,192,22798,1,8,0:0:0:0:
256,192,22901,1,0,0:0:0:0:
256,192,23005,1,8,0:0:0:0:
256,192,23108,1,0,0:0:0:0:
256,192,23212,1,0,0:0:0:0:
256,192,23315,1,8,0:0:0:0:
256,192,23419,1,0,0:0:0:0:
256,192,23522,1,8,0:0:0:0:
256,192,23729,1,0,0:0:0:0:
256,192,23832,1,0,0:0:0:0:
256,192,23936,1,0,0:0:0:0:
256,192,24143,1,0,0:0:0:0:
256,192,24246,1,0,0:0:0:0:
256,192,24350,1,8,0:0:0:0:
256,192,24557,1,0,0:0:0:0:
256,192,24764,1,8,0:0:0:0:
256,192,24970,1,8,0:0:0:0:
256,192,25074,1,8,0:0:0:0:
256,192,25177,1,0,0:0:0:0:
256,192,25384,1,8,0:0:0:0:
256,192,25591,1,0,0:0:0:0:
256,192,25798,1,8,0:0:0:0:
256,192,25901,1,8,0:0:0:0:
256,192,26005,1,0,0:0:0:0:
256,192,26212,1,8,0:0:0:0:
256,192,26419,1,0,0:0:0:0:
256,192,26625,1,0,0:0:0:0:
256,192,26729,1,0,0:0:0:0:
256,192,26832,1,8,0:0:0:0:
256,192,27039,1,0,0:0:0:0:
256,192,27246,1,8,0:0:0:0:
256,192,27350,1,8,0:0:0:0:
256,192,27453,1,0,0:0:0:0:
256,192,27557,1,0,0:0:0:0:
256,192,27660,1,8,0:0:0:0:
256,192,27867,1,8,0:0:0:0:
256,192,28074,1,8,0:0:0:0:
256,192,28178,1,8,0:0:0:0:
256,192,28281,1,0,0:0:0:0:
256,192,28384,1,8,0:0:0:0:
256,192,28488,1,8,0:0:0:0:
256,192,28695,1,8,0:0:0:0:
256,192,28901,1,4,0:0:0:0:
256,192,29108,1,4,0:0:0:0:
256,192,29315,1,4,0:0:0:0:
256,192,29522,1,12,0:0:0:0:
256,192,29729,1,4,0:0:0:0:
256,192,30557,1,8,0:0:0:0:
256,192,30867,1,0,0:0:0:0:
256,192,31177,1,0,0:0:0:0:
256,192,31384,1,8,0:0:0:0:
256,192,31798,1,8,0:0:0:0:
256,192,32005,1,0,0:0:0:0:
256,192,32212,1,0,0:0:0:0:
256,192,32419,1,0,0:0:0:0:
256,192,32522,1,0,0:0:0:0:
256,192,32832,1,0,0:0:0:0:
256,192,33039,1,8,0:0:0:0:
256,192,33453,1,8,0:0:0:0:
256,192,33660,1,0,0:0:0:0:
256,192,33867,1,0,0:0:0:0:
256,192,34281,1,8,0:0:0:0:
256,192,34695,1,8,0:0:0:0:
256,192,35108,1,8,0:0:0:0:
256,192,35315,1,0,0:0:0:0:
256,192,35522,1,0,0:0:0:0:
256,192,35936,1,8,0:0:0:0:
256,192,36350,1,8,0:0:0:0:
256,192,36557,1,0,0:0:0:0:
256,192,36660,1,0,0:0:0:0:
256,192,36764,1,0,0:0:0:0:
256,192,36970,1,0,0:0:0:0:
256,192,37074,1,0,0:0:0:0:
256,192,37177,1,8,0:0:0:0:
256,192,37488,1,0,0:0:0:0:
256,192,37591,1,8,0:0:0:0:
256,192,37798,1,0,0:0:0:0:
256,192,38005,1,8,0:0:0:0:
256,192,38212,1,0,0:0:0:0:
256,192,38315,1,0,0:0:0:0:
256,192,38419,1,8,0:0:0:0:
256,192,38626,1,8,0:0:0:0:
256,192,38730,1,8,0:0:0:0:
256,192,38833,1,8,0:0:0:0:
256,192,39144,1,0,0:0:0:0:
256,192,39247,1,8,0:0:0:0:
256,192,39454,1,0,0:0:0:0:
256,192,39661,1,8,0:0:0:0:
256,192,39868,1,0,0:0:0:0:
256,192,39971,1,0,0:0:0:0:
256,192,40075,1,8,0:0:0:0:
256,192,40281,1,0,0:0:0:0:
256,192,40384,1,0,0:0:0:0:
256,192,40488,1,8,0:0:0:0:
256,192,40591,1,0,0:0:0:0:
256,192,40695,1,0,0:0:0:0:
256,192,40798,1,0,0:0:0:0:
256,192,40901,1,8,0:0:0:0:
256,192,41108,1,8,0:0:0:0:
256,192,41212,1,8,0:0:0:0:
256,192,41315,1,0,0:0:0:0:
256,192,41419,1,8,0:0:0:0:
256,192,41522,1,8,0:0:0:0:
256,192,41728,1,0,0:0:0:0:
256,192,41832,1,8,0:0:0:0:
256,192,41936,1,0,0:0:0:0:
256,192,42039,1,0,0:0:0:0:
256,192,42143,1,8,0:0:0:0:
176,80,42350,2,0,L|384:80,2,175,8|8|8,0:0|0:0|0:0,0:0:0:0:
256,192,43591,1,0,0:0:0:0:
256,192,43695,1,0,0:0:0:0:
256,192,43798,1,0,0:0:0:0:
256,192,45453,1,8,0:0:0:0:
256,192,45557,1,8,0:0:0:0:
256,192,45660,1,8,0:0:0:0:
256,192,45764,1,8,0:0:0:0:
256,192,45867,1,0,0:0:0:0:
256,192,46074,1,0,0:0:0:0:
256,192,46178,1,0,0:0:0:0:
256,192,46281,1,0,0:0:0:0:
256,192,46385,1,0,0:0:0:0:
256,192,46488,1,8,0:0:0:0:
256,192,46695,1,8,0:0:0:0:
256,192,46799,1,0,0:0:0:0:
256,192,46902,1,0,0:0:0:0:
256,192,47006,1,0,0:0:0:0:
256,192,47109,1,0,0:0:0:0:
256,192,47315,1,8,0:0:0:0:
256,192,47522,1,0,0:0:0:0:
256,192,47729,1,0,0:0:0:0:
256,192,47936,1,8,0:0:0:0:
256,192,48143,1,0,0:0:0:0:
256,192,48246,1,0,0:0:0:0:
256,192,48350,1,0,0:0:0:0:
256,192,48557,1,8,0:0:0:0:
256,192,48764,1,8,0:0:0:0:
256,192,48868,1,8,0:0:0:0:
256,192,48971,1,8,0:0:0:0:
256,192,49075,1,8,0:0:0:0:
256,192,49177,1,0,0:0:0:0:
256,192,49385,1,0,0:0:0:0:
256,192,49489,1,0,0:0:0:0:
256,192,49592,1,0,0:0:0:0:
256,192,49696,1,8,0:0:0:0:
256,192,49799,1,0,0:0:0:0:
256,192,50006,1,0,0:0:0:0:
256,192,50110,1,8,0:0:0:0:
256,192,50213,1,0,0:0:0:0:
256,192,50317,1,0,0:0:0:0:
256,192,50420,1,0,0:0:0:0:
256,192,50626,1,8,0:0:0:0:
256,192,50833,1,0,0:0:0:0:
256,192,51040,1,0,0:0:0:0:
256,192,51247,1,8,0:0:0:0:
256,192,51454,1,0,0:0:0:0:
256,192,51557,1,0,0:0:0:0:
256,192,51661,1,0,0:0:0:0:
256,192,51868,1,8,0:0:0:0:
256,192,52074,1,4,0:0:0:0:
256,192,52488,1,8,0:0:0:0:
256,192,52798,1,0,0:0:0:0:
256,192,52901,1,0,0:0:0:0:
256,192,53315,1,8,0:0:0:0:
256,192,53729,1,4,0:0:0:0:
256,192,54143,1,8,0:0:0:0:
256,192,54453,1,0,0:0:0:0:
256,192,54556,1,0,0:0:0:0:
256,192,54970,1,8,0:0:0:0:
256,192,55177,1,0,0:0:0:0:
256,192,55281,1,0,0:0:0:0:
256,192,55384,1,0,0:0:0:0:
256,192,55798,1,8,0:0:0:0:
256,192,56108,1,0,0:0:0:0:
256,192,56211,1,0,0:0:0:0:
256,192,56625,1,8,0:0:0:0:
256,192,56832,1,0,0:0:0:0:
256,192,57039,1,12,0:0:0:0:
256,192,57350,1,4,0:0:0:0:
256,192,57660,1,4,0:0:0:0:
256,192,57867,1,12,0:0:0:0:
256,192,58074,12,0,58488,0:0:0:0:
256,192,58695,5,0,0:0:0:0:
256,192,58901,1,8,0:0:0:0:
256,192,59005,1,8,0:0:0:0:
256,192,59108,1,0,0:0:0:0:
256,192,59315,1,8,0:0:0:0:
256,192,59522,1,0,0:0:0:0:
256,192,59729,1,8,0:0:0:0:
256,192,59832,1,8,0:0:0:0:
256,192,59936,1,0,0:0:0:0:
256,192,60143,1,8,0:0:0:0:
256,192,60246,1,8,0:0:0:0:
256,192,60350,1,0,0:0:0:0:
256,192,60453,1,0,0:0:0:0:
256,192,60557,1,8,0:0:0:0:
256,192,60660,1,8,0:0:0:0:
256,192,60764,1,0,0:0:0:0:
256,192,60970,1,8,0:0:0:0:
256,192,61177,1,0,0:0:0:0:
256,192,61384,1,8,0:0:0:0:
256,192,61488,1,8,0:0:0:0:
256,192,61591,1,0,0:0:0:0:
256,192,61798,1,8,0:0:0:0:
256,192,61901,1,8,0:0:0:0:
256,192,62005,1,0,0:0:0:0:
256,192,62108,1,8,0:0:0:0:
256,192,62212,1,8,0:0:0:0:
256,192,62315,1,8,0:0:0:0:
256,192,62419,1,0,0:0:0:0:
256,192,62626,1,8,0:0:0:0:
256,192,62832,1,8,0:0:0:0:
256,192,62936,1,0,0:0:0:0:
256,192,63039,1,0,0:0:0:0:
256,192,63143,1,0,0:0:0:0:
256,192,63246,1,8,0:0:0:0:
256,192,63453,1,8,0:0:0:0:
256,192,63660,1,0,0:0:0:0:
256,192,63867,1,0,0:0:0:0:
256,192,63970,1,0,0:0:0:0:
256,192,64074,1,8,0:0:0:0:
256,192,64281,1,8,0:0:0:0:
256,192,64384,1,8,0:0:0:0:
256,192,64488,1,0,0:0:0:0:
256,192,64695,1,0,0:0:0:0:
256,192,64798,1,0,0:0:0:0:
256,192,64901,1,8,0:0:0:0:
256,192,65005,1,8,0:0:0:0:
256,192,65108,1,0,0:0:0:0:
256,192,65212,1,0,0:0:0:0:
256,192,65315,1,0,0:0:0:0:
256,192,65522,1,0,0:0:0:0:
256,192,65626,1,0,0:0:0:0:
256,192,65729,1,0,0:0:0:0:
256,192,65936,1,8,0:0:0:0:
256,192,66143,1,0,0:0:0:0:
256,192,66350,1,8,0:0:0:0:
256,192,66557,1,12,0:0:0:0:
256,192,66764,1,0,0:0:0:0:
256,192,66867,1,8,0:0:0:0:
256,192,66970,1,0,0:0:0:0:
256,192,67177,1,0,0:0:0:0:
256,192,67281,1,0,0:0:0:0:
256,192,67384,1,8,0:0:0:0:
256,192,67591,1,0,0:0:0:0:
256,192,67798,1,8,0:0:0:0:
256,192,68005,1,8,0:0:0:0:
256,192,68212,1,8,0:0:0:0:
256,192,68419,1,0,0:0:0:0:
256,192,68522,1,0,0:0:0:0:
256,192,68626,1,8,0:0:0:0:
256,192,68729,1,0,0:0:0:0:
256,192,68832,1,0,0:0:0:0:
256,192,68936,1,0,0:0:0:0:
256,192,69039,1,8,0:0:0:0:
256,192,69246,1,0,0:0:0:0:
256,192,69350,1,8,0:0:0:0:
256,192,69453,1,0,0:0:0:0:
256,192,69557,1,0,0:0:0:0:
256,192,69660,1,8,0:0:0:0:
256,192,69867,12,0,70074,0:0:0:0:
256,192,70281,5,12,0:0:0:0:
256,192,70591,1,12,0:0:0:0:
256,192,70901,1,0,0:0:0:0:
256,192,71005,1,0,0:0:0:0:
256,192,71108,1,8,0:0:0:0:
256,192,71315,1,0,0:0:0:0:
256,192,71522,1,8,0:0:0:0:
256,192,71729,1,0,0:0:0:0:
256,192,71936,1,0,0:0:0:0:
256,192,72142,1,8,0:0:0:0:
256,192,72246,1,8,0:0:0:0:
256,192,72349,1,0,0:0:0:0:
256,192,72557,1,8,0:0:0:0:
256,192,72661,1,8,0:0:0:0:
256,192,72764,1,0,0:0:0:0:
256,192,72970,1,12,0:0:0:0:
256,192,73177,1,0,0:0:0:0:
256,192,73384,1,12,0:0:0:0:
256,192,73591,1,0,0:0:0:0:
256,192,73798,1,8,0:0:0:0:
256,192,73901,1,8,0:0:0:0:
256,192,74005,1,0,0:0:0:0:
256,192,74211,1,8,0:0:0:0:
256,192,74315,1,8,0:0:0:0:
256,192,74418,1,0,0:0:0:0:
256,192,74626,1,12,0:0:0:0:
256,192,74832,1,0,0:0:0:0:
256,192,75039,1,12,0:0:0:0:
256,192,75246,1,0,0:0:0:0:
256,192,75453,1,8,0:0:0:0:
256,192,75556,1,8,0:0:0:0:
256,192,75660,1,0,0:0:0:0:
256,192,75867,1,8,0:0:0:0:
256,192,76073,1,8,0:0:0:0:
256,192,76177,1,8,0:0:0:0:
256,192,76280,1,0,0:0:0:0:
256,192,76384,1,0,0:0:0:0:
256,192,76487,1,8,0:0:0:0:
256,192,76694,1,8,0:0:0:0:
256,192,76901,1,0,0:0:0:0:
256,192,77108,1,0,0:0:0:0:
256,192,77211,1,8,0:0:0:0:
256,192,77315,1,0,0:0:0:0:
256,192,77522,1,8,0:0:0:0:
256,192,77626,1,0,0:0:0:0:
256,192,77729,1,8,0:0:0:0:
256,192,77936,1,0,0:0:0:0:
256,192,78039,1,0,0:0:0:0:
256,192,78142,1,8,0:0:0:0:
256,192,78246,1,8,0:0:0:0:
256,192,78349,1,0,0:0:0:0:
256,192,78453,1,0,0:0:0:0:
256,192,78556,1,0,0:0:0:0:
256,192,78763,1,0,0:0:0:0:
256,192,78867,1,0,0:0:0:0:
256,192,78970,1,0,0:0:0:0:
256,192,79177,1,8,0:0:0:0:
256,192,79384,1,0,0:0:0:0:
256,192,79591,1,8,0:0:0:0:
256,192,79798,1,12,0:0:0:0:
256,192,80005,1,0,0:0:0:0:
256,192,80108,1,8,0:0:0:0:
256,192,80211,1,0,0:0:0:0:
256,192,80418,1,0,0:0:0:0:
256,192,80522,1,8,0:0:0:0:
256,192,80729,1,0,0:0:0:0:
256,192,80832,1,0,0:0:0:0:
256,192,80936,1,0,0:0:0:0:
256,192,81039,1,8,0:0:0:0:
256,192,81246,1,0,0:0:0:0:
256,192,81453,1,12,0:0:0:0:
256,192,81867,1,4,0:0:0:0:
256,192,82695,1,12,0:0:0:0:
256,192,83522,1,4,0:0:0:0:
256,192,83936,1,4,0:0:0:0:
256,192,84350,1,12,0:0:0:0:
