osu file format v14

[General]
AudioFilename: audio.mp3
AudioLeadIn: 0
PreviewTime: 58074
Countdown: 0
SampleSet: Normal
StackLeniency: 0.7
Mode: 0
LetterboxInBreaks: 0
WidescreenStoryboard: 0

[Editor]
DistanceSpacing: 1
BeatDivisor: 4
GridSize: 16
TimelineZoom: 1.9

[Metadata]
Title:Clover Kakumation
TitleUnicode:クローバー♣かくめーしょん
Artist:Triple Feeling
ArtistUnicode:とりぷる♣ふぃーりんぐ
Creator:I am graduated
Version:Insane
Source:三者三葉
Tags:
BeatmapID:1356397
BeatmapSetID:639560

[Difficulty]
HPDrainRate:5
CircleSize:4
OverallDifficulty:8
ApproachRate:9.3
SliderMultiplier:1.7
SliderTickRate:1

[Events]
//Background and Video events
0,0,"bg.jpg",0,0
//Break Periods
//Storyboard Layer 0 (Background)
//Storyboard Layer 1 (Fail)
//Storyboard Layer 2 (Pass)
//Storyboard Layer 3 (Foreground)
//Storyboard Sound Samples

[TimingPoints]
764,206.896551724138,4,1,1,70,1,0
764,-133.333333333333,4,1,1,70,0,0
3246,-200,4,1,1,70,0,0
4074,-100,4,1,1,70,0,1
16488,-200,4,1,1,70,0,0
17315,-133.333333333333,4,1,1,70,0,0
20419,-100,4,1,1,70,0,0
29729,-200,4,1,1,70,0,0
37177,-133.333333333333,4,1,1,70,0,0
57039,-100,4,1,1,70,0,0
58074,-200,4,1,1,70,0,0
58281,-133.333333333333,4,1,1,70,0,0
58488,-100,4,1,1,70,0,1
70281,-100,4,1,1,70,0,0
71315,-200,4,1,1,70,0,0
71522,-133.333333333333,4,1,1,70,0,0
71729,-100,4,1,1,70,0,0
71936,-100,4,1,1,70,0,1
81039,-200,4,1,1,70,0,1
81867,-133.333333333333,4,1,1,70,0,1
84350,-200,4,1,1,70,0,1
85177,-100,4,1,1,70,0,0
98419,-133.333333333333,4,1,1,70,0,0
101522,-100,4,1,1,70,0,0
110832,-200,4,1,1,70,0,0
118074,-133.333333333333,4,1,1,70,0,0

[Colours]
Combo1 : 182,109,109
Combo2 : 128,128,255
Combo3 : 0,128,255
Combo4 : 255,128,192

[HitObjects]
157,50,764,6,0,L|166:189,1,127.500004863739,4|2,0:2|0:2,0:0:0:0:
170,257,1074,1,0,0:0:0:0:
86,220,1177,2,0,P|76:191|84:149,1,63.7500024318696,0|0,0:2|0:0,0:0:0:0:
170,257,1384,2,0,L|125:304,1,63.7500024318696,8|0,0:2|0:0,0:0:0:0:
235,351,1591,6,0,P|268:341|318:339,1,63.7500024318696,4|0,0:2|0:0,0:0:0:0:
436,300,1798,2,0,P|404:296|373:287,1,63.7500024318696,2|0,0:2|0:0,0:0:0:0:
242,212,2005,2,0,P|274:233|297:271,1,63.7500024318696
413,158,2212,2,0,P|375:183|355:218,1,63.7500024318696,8|0,0:2|0:0,0:0:0:0:
297,338,2419,5,4,0:2:0:0:
77,231,2626,1,2,0:2:0:0:
77,231,2729,1,0,0:0:0:0:
76,231,2832,2,0,P|88:201|95:170,1,63.7500024318696
123,324,3039,2,0,P|91:329|61:339,1,63.7500024318696,8|0,0:2|0:0,0:0:0:0:
166,239,3246,6,0,P|208:245|249:261,1,85,6|0,3:2|2:0,3:0:0:0:
256,192,3660,12,4,4074,0:2:0:0:
114,197,4281,5,8,0:2:0:0:
114,197,4384,1,0,0:0:0:0:
114,197,4488,2,0,L|129:304,2,85,0|0|8,0:0|0:0|0:2,0:0:0:0:
49,128,4798,2,0,B|148:88|148:88|220:124,1,170
269,173,5108,5,8,0:2:0:0:
269,173,5212,1,0,0:0:0:0:
337,229,5315,2,0,L|330:321,1,85,2|0,0:2|0:0,0:0:0:0:
239,375,5522,2,0,P|200:354|160:348,1,85,8|0,0:2|0:0,0:0:0:0:
27,275,5729,6,0,P|105:271|174:208,1,170,0|8,0:2|0:2,0:0:0:0:
129,133,6039,2,0,L|27:106,1,85,0|2,0:0|0:0,0:0:0:0:
206,84,6246,2,0,L|173:-2,1,85,0|8,0:0|0:2,0:0:0:0:
290,107,6453,6,2,L|274:278,1,170,2|0,0:0|0:0,0:0:0:0:
200,324,6764,2,0,L|184:239,1,85,8|0,0:2|0:0,0:0:0:0:
363,293,6970,2,0,L|323:368,2,85,2|0|8,0:0|0:0|0:2,0:0:0:0:
410,223,7281,1,2,0:0:0:0:
447,142,7384,6,0,L|363:127,1,85
277,43,7591,2,0,P|255:80|260:139,1,85
300,224,7798,2,0,L|216:209,1,85
123,176,8005,1,0,0:0:0:0:
123,176,8108,6,0,L|149:370,1,170
227,384,8419,2,0,P|242:350|247:300,1,85
40,221,8626,2,0,P|24:187|23:135,1,85
98,74,8832,1,0,0:0:0:0:
98,74,8936,1,0,0:0:0:0:
189,103,9039,6,0,P|266:143|368:147,1,170
424,116,9350,1,0,0:0:0:0:
406,33,9453,2,0,P|364:35|322:71,1,85
285,289,9660,1,0,0:0:0:0:
380,318,9764,2,0,L|348:149,1,170
250,198,10074,6,0,P|211:222|193:272,1,85
100,237,10281,2,0,P|91:282|108:332,1,85
207,346,10488,1,0,0:0:0:0:
195,257,10591,1,0,0:0:0:0:
178,161,10695,6,0,P|138:137|91:136,1,85
85,48,10901,2,0,P|45:51|7:78,1,85
178,161,11108,2,0,P|217:176|258:169,1,85
400,113,11315,1,0,0:0:0:0:
366,39,11419,2,0,L|337:217,1,170
332,291,11729,6,0,L|240:313,1,85
158,252,11936,2,0,L|141:346,2,85
178,161,12246,1,0,0:0:0:0:
178,161,12350,6,0,L|273:186,1,85
304,56,12557,2,0,L|209:81,1,85
41,189,12764,2,0,L|27:86,1,85
119,61,12970,1,0,0:0:0:0:
119,61,13074,2,0,L|144:250,1,170
94,353,13384,6,0,P|137:331|195:341,1,85
220,256,13591,2,0,P|264:270|297:313,1,85
368,351,13798,1,0,0:0:0:0:
368,351,13901,1,0,0:0:0:0:
366,250,14005,6,0,L|386:160,1,85
457,102,14212,2,0,L|475:184,1,85
282,191,14419,2,0,L|302:101,1,85
218,89,14626,1,0,0:0:0:0:
190,175,14729,2,0,L|221:356,1,170
119,334,15039,2,0,P|83:310|23:317,1,85
59,200,15246,6,0,P|64:169|86:130,2,56.6666666666667
158,92,15453,2,0,P|153:61|131:22,2,56.6666666666667
175,251,15660,5,0,0:0:0:0:
431,192,15867,1,0,0:0:0:0:
356,61,16074,2,0,L|333:183,1,85
287,351,16281,2,0,L|264:229,1,85
181,158,16488,6,0,P|219:171|269:177,1,85
263,176,16901,5,0,0:0:0:0:
426,274,17315,6,0,L|301:306,1,127.500004863739
219,331,17729,1,0,0:0:0:0:
136,276,18143,1,0,0:0:0:0:
136,276,18246,1,0,0:0:0:0:
49,305,18453,1,0,0:0:0:0:
56,99,18764,5,0,0:0:0:0:
56,99,18867,1,0,0:0:0:0:
78,177,18970,2,0,L|216:159,1,127.500004863739
291,180,19798,1,0,0:0:0:0:
291,180,19901,1,0,0:0:0:0:
377,191,20108,1,0,0:0:0:0:
437,116,20315,1,0,0:0:0:0:
437,116,20419,6,0,P|423:76|397:35,1,85
377,191,20626,6,0,L|363:291,1,85
264,353,20832,2,0,L|166:339,2,85
279,264,21143,1,0,0:0:0:0:
279,264,21246,2,0,L|290:179,1,85
192,47,21453,6,0,L|205:165,1,85
108,254,21660,2,0,L|218:227,1,85
201,131,21867,2,0,L|15:174,1,170
103,70,22177,1,0,0:0:0:0:
288,56,22281,6,0,P|322:84|339:159,1,85
432,122,22488,2,0,P|423:169|370:206,1,85
325,247,22695,1,0,0:0:0:0:
244,211,22798,1,0,0:0:0:0:
325,247,22901,1,0,0:0:0:0:
244,211,23005,1,0,0:0:0:0:
224,373,23108,6,0,L|207:274,1,85
177,105,23315,2,0,L|162:188,1,85
105,337,23522,2,0,P|62:335|26:314,2,85
94,247,23832,1,0,0:0:0:0:
78,165,23936,5,0,0:0:0:0:
261,42,24143,2,0,P|296:69|353:93,1,85
422,101,24350,2,0,L|249:141,1,170
394,289,24764,2,0,P|417:251|430:207,1,85
335,202,24970,2,0,L|367:375,2,170
14,149,25591,6,0,P|54:147|103:121,1,85
143,53,25798,2,0,L|117:228,2,170
214,174,26419,2,0,L|200:271,1,85
58,315,26626,2,0,L|35:219,2,85
140,342,26936,1,0,0:0:0:0:
223,358,27039,2,0,P|267:353|313:317,1,85
392,281,27246,6,0,L|483:307,1,85
442,203,27453,1,0,0:0:0:0:
442,203,27557,1,0,0:0:0:0:
385,118,27660,2,0,P|357:150|352:206,1,85
307,302,27867,2,0,P|282:265|238:247,1,85
147,152,28074,6,0,L|154:256,1,85
126,348,28281,2,0,L|245:339,2,85
41,292,28591,1,0,0:0:0:0:
41,292,28695,2,0,L|35:207,1,85
48,77,28901,6,0,P|85:96|150:106,1,85
254,175,29108,2,0,P|211:177|152:204,1,85
314,69,29315,1,0,0:0:0:0:
463,144,29522,1,0,0:0:0:0:
335,354,29729,6,0,P|322:318|321:260,1,85
353,186,30039,2,0,L|380:174,2,21.25
352,186,30557,6,0,L|219:173,1,127.500004863739
153,224,31177,1,0,0:0:0:0:
55,144,31384,2,0,L|67:300,1,127.500004863739
72,354,31798,1,0,0:0:0:0:
153,224,32005,1,0,0:0:0:0:
308,322,32212,6,0,P|348:308|409:315,1,85
474,337,32522,1,0,0:0:0:0:
474,337,32626,1,0,0:0:0:0:
508,195,32832,1,0,0:0:0:0:
327,110,33039,2,0,L|315:239,1,127.5
308,322,33453,1,0,0:0:0:0:
416,193,33660,1,0,0:0:0:0:
255,54,33867,6,0,L|162:40,1,85
72,242,34281,2,0,P|158:216|177:142,2,170
87,145,35315,1,0,0:0:0:0:
280,344,35522,5,0,0:0:0:0:
260,183,35936,1,0,0:0:0:0:
352,29,36350,2,0,P|376:69|383:110,1,85
367,189,36660,2,0,L|329:174,2,21.25
120,77,36970,5,0,0:0:0:0:
120,77,37074,1,0,0:0:0:0:
120,77,37177,2,0,L|97:216,1,127.500004863739
146,278,37488,1,0,0:0:0:0:
146,278,37591,2,0,P|184:266|227:275,1,63.7500024318696
63,344,37798,2,0,L|48:267,1,63.7500024318696
184,182,38005,2,0,B|259:170|259:170|309:193,1,127.500004863739
420,278,38419,1,0,0:0:0:0:
296,318,38626,5,0,0:0:0:0:
296,318,38729,1,0,0:0:0:0:
296,318,38832,2,0,L|305:189,1,127.500004863739
388,125,39143,1,0,0:0:0:0:
388,125,39246,2,0,P|420:144|459:148,1,63.7500024318696
301,42,39453,2,0,L|306:112,1,63.7500024318696
197,201,39660,2,0,L|192:137,1,63.7500024318696
185,46,39867,1,0,0:0:0:0:
104,233,40074,1,0,0:0:0:0:
8,144,40281,2,0,L|80:153,1,63.7500024318696
104,233,40488,6,0,P|106:270|94:301,1,63.7500024318696
172,365,40695,2,0,P|199:348|238:343,1,63.7500024318696
229,203,40901,2,0,L|190:259,2,63.7500024318696
314,198,41212,1,0,0:0:0:0:
314,198,41315,2,0,L|334:346,1,127.500004863739
465,360,41626,2,0,L|482:291,2,63.7500024318696
406,258,41936,1,0,0:0:0:0:
406,258,42039,1,0,0:0:0:0:
419,164,42143,6,0,P|451:174|491:218,1,63.7500024318696
342,110,42350,2,0,L|367:31,1,63.7500024318696
267,165,42557,2,0,P|240:189|137:213,1,127.500004863739
74,188,42867,1,0,0:0:0:0:
74,188,42970,2,0,L|28:143,1,63.7500024318696
90,279,43177,2,0,L|76:342,1,63.7500024318696
259,282,43384,2,0,P|212:241|129:209,1,127.500004863739
74,188,43695,1,0,0:0:0:0:
74,188,43798,1,0,0:0:0:0:
256,192,44005,12,0,44626,0:0:0:0:
416,274,44832,6,0,P|385:293|347:297,2,63.7500024318696
450,57,45453,6,0,L|434:209,1,127.500004863739
353,209,45764,1,0,0:0:0:0:
353,209,45867,2,0,L|282:184,1,63.7500024318696
210,163,46074,1,0,0:0:0:0:
210,163,46177,1,0,0:0:0:0:
154,240,46281,6,0,L|157:318,1,63.7500024318696
48,225,46488,2,0,P|87:178|110:110,1,127.500004863739
59,44,46798,2,0,L|-6:26,2,63.7500024318696
148,24,47108,5,0,0:0:0:0:
422,180,47315,2,0,L|430:51,2,127.500004863739
357,247,47832,1,0,0:0:0:0:
357,247,47936,2,0,P|324:246|286:260,1,63.7500024318696
276,348,48143,2,0,P|309:349|347:335,1,63.7500024318696
445,339,48350,2,0,L|440:273,1,63.7500024318696
336,93,48557,2,0,L|331:159,1,63.7500024318696
207,261,48764,6,0,L|63:250,1,127.500004863739
59,57,49178,2,0,L|71:145,1,63.7500024318696
139,157,49385,1,0,0:0:0:0:
139,157,49488,1,0,0:0:0:0:
219,140,49592,6,0,L|281:127,1,63.7500024318696
415,106,49798,2,0,P|379:158|359:239,1,127.500004863739
421,297,50109,2,0,L|490:309,2,63.7500024318696
322,347,50419,5,0,0:0:0:0:
88,309,50626,2,0,L|229:286,2,127.500004863739
39,238,51143,1,0,0:0:0:0:
39,238,51246,2,0,P|32:208|35:173,2,63.7500024318696
88,309,51557,1,0,0:0:0:0:
321,224,51660,2,0,P|263:196|200:188,1,127.500004863739
123,220,52074,5,0,0:0:0:0:
454,318,52488,1,0,0:0:0:0:
145,200,52901,1,0,0:0:0:0:
145,200,53005,2,0,L|133:276,1,63.7500024318696
454,318,53315,1,0,0:0:0:0:
121,297,53729,5,0,0:0:0:0:
420,232,54143,1,0,0:0:0:0:
100,276,54557,1,0,0:0:0:0:
100,276,54661,2,0,L|109:352,1,63.7500024318696
420,232,54970,1,0,0:0:0:0:
338,118,55177,5,0,0:0:0:0:
338,118,55281,1,0,0:0:0:0:
338,118,55384,2,0,L|326:38,1,63.7500024318696
42,203,55798,1,0,0:0:0:0:
360,133,56212,1,0,0:0:0:0:
360,133,56315,2,0,L|348:53,1,63.7500024318696
42,203,56626,1,0,0:0:0:0:
146,305,56832,5,0,0:0:0:0:
146,305,56936,1,0,0:0:0:0:
146,305,57039,2,0,L|126:133,1,170
445,45,57350,2,0,L|425:216,1,170
233,277,57660,2,0,L|223:186,1,85
349,64,57867,2,0,L|335:173,1,85
366,318,58074,6,0,P|363:340|356:359,1,42.5
233,277,58281,6,0,P|266:270|301:249,1,63.7500024318696
461,196,58488,6,0,P|423:175|383:163,1,85
303,41,58695,6,0,B|289:144|289:144|222:179,1,170
150,203,59005,1,0,0:0:0:0:
69,240,59108,2,0,L|41:151,1,85
116,56,59315,2,0,P|160:52|205:78,1,85
231,175,59522,6,0,L|253:272,1,85
323,355,59729,2,0,L|341:269,1,85
311,103,59936,2,0,L|333:200,1,85
423,289,60143,1,0,0:0:0:0:
442,204,60247,1,0,0:0:0:0:
473,118,60350,6,0,B|372:131|372:131|308:101,1,170
244,51,60660,1,0,0:0:0:0:
161,74,60764,2,0,L|51:106,1,85
70,252,60970,2,0,P|109:277|163:281,1,85
254,289,61177,6,0,L|234:194,2,85
343,350,61488,1,0,0:0:0:0:
360,269,61591,2,0,L|381:173,1,85
453,45,61798,1,0,0:0:0:0:
463,128,61901,1,0,0:0:0:0:
381,95,62005,6,0,P|341:80|274:84,1,85
180,142,62212,1,0,0:0:0:0:
237,206,62315,2,0,L|222:36,1,170
109,77,62626,2,0,P|93:117|89:176,1,85
161,278,62832,6,0,P|123:258|81:255,1,85
279,293,63039,2,0,P|307:261|318:204,1,85
184,302,63246,2,0,P|141:304|103:323,1,85
328,273,63453,2,0,P|335:231|315:176,1,85
104,110,63660,6,0,P|151:170|245:188,1,170
376,105,63970,2,0,P|337:89|278:104,2,85
493,185,64281,2,0,L|396:207,1,85
316,248,64488,6,0,P|309:289|319:336,1,85
183,365,64695,2,0,P|192:324|181:283,1,85
62,223,64901,1,0,0:0:0:0:
63,239,65005,1,0,0:0:0:0:
65,256,65108,1,0,0:0:0:0:
67,273,65212,1,0,0:0:0:0:
144,191,65315,6,0,P|173:114|128:45,1,170
55,125,65626,2,0,L|236:111,1,170
323,132,65936,2,0,L|304:32,1,85
420,111,66143,6,0,L|397:300,1,170
306,336,66453,1,0,0:0:0:0:
306,336,66557,2,0,L|284:247,1,85
223,112,66764,2,0,L|198:228,1,85
176,283,66970,6,0,P|91:269|14:312,1,170
106,357,67281,2,0,L|84:181,1,170
46,82,67591,2,0,L|141:104,1,85
205,195,67798,6,0,L|399:162,1,170
453,72,68108,1,0,0:0:0:0:
453,72,68212,2,0,L|355:47,1,85
264,46,68419,2,0,L|278:145,1,85
346,230,68626,6,0,P|386:239|444:209,1,85
409,348,68832,2,0,P|368:338|311:369,1,85
233,348,69039,2,0,L|215:232,1,85
206,174,69246,1,0,0:0:0:0:
206,174,69350,1,0,0:0:0:0:
32,152,69453,6,0,P|60:225|149:283,1,170
219,264,69764,1,0,0:0:0:0:
219,264,69867,2,0,L|316:248,2,85
132,278,70177,1,0,0:0:0:0:
73,353,70281,5,0,0:0:0:0:
427,219,70591,1,0,0:0:0:0:
210,46,70901,2,0,L|221:133,1,85
339,135,71108,5,0,0:0:0:0:
339,135,71212,1,0,0:0:0:0:
339,135,71315,2,0,P|350:111|354:79,1,42.5
249,218,71522,6,0,P|274:237|305:243,1,63.7500024318696
432,332,71729,6,0,P|390:339|334:365,1,85
234,335,71936,6,0,B|187:367|187:367|65:347,1,170
0,330,72246,1,0,0:0:0:0:
0,330,72350,2,0,L|11:231,1,85
202,220,72557,2,0,L|294:259,1,85
106,242,72764,5,0,0:0:0:0:
106,242,72867,1,0,0:0:0:0:
61,163,72970,2,0,L|72:64,1,85
202,220,73177,5,0,0:0:0:0:
202,220,73280,1,0,0:0:0:0:
244,139,73383,2,0,L|233:40,1,85
320,183,73591,6,0,B|429:208|429:208|485:173,1,170
479,86,73901,1,0,0:0:0:0:
479,86,74005,2,0,P|439:88|387:113,1,85
381,252,74212,2,0,L|401:345,1,85
284,273,74419,5,0,0:0:0:0:
284,273,74522,1,0,0:0:0:0:
234,346,74626,2,0,L|125:373,1,85
37,249,74832,5,0,0:0:0:0:
37,249,74935,1,0,0:0:0:0:
112,286,75039,2,0,L|221:259,1,85
381,252,75246,6,0,B|283:232|283:232|264:157,1,170
255,74,75557,2,0,P|214:91|173:132,1,85
109,173,75764,1,0,0:0:0:0:
109,173,75867,2,0,L|90:69,1,85
57,247,76074,6,0,P|93:275|138:287,1,85
294,318,76281,2,0,P|260:342|214:351,1,85
203,173,76488,2,0,L|222:277,1,85
388,258,76695,2,0,L|291:214,1,85
140,119,76901,6,0,P|226:121|294:40,1,170
370,20,77212,1,0,0:0:0:0:
370,20,77315,2,0,L|386:116,1,85
471,165,77522,2,0,L|481:78,1,85
311,182,77729,6,0,L|346:354,1,170
250,320,78039,2,0,P|212:296|170:297,2,85
479,215,78350,2,0,P|446:224|413:260,1,85
235,211,78557,6,0,P|193:142|184:48,1,170
89,33,78867,1,0,0:0:0:0:
89,33,78970,2,0,L|75:145,1,85
44,290,79177,2,0,L|12:196,1,85
128,246,79384,6,0,L|229:227,1,85
338,325,79591,2,0,L|254:310,1,85
266,142,79798,1,0,0:0:0:0:
354,127,79901,1,0,0:0:0:0:
396,245,80005,1,0,0:0:0:0:
308,230,80108,1,0,0:0:0:0:
440,58,80212,5,0,0:0:0:0:
135,190,80522,1,0,0:0:0:0:
357,360,80832,1,0,0:0:0:0:
357,360,80936,1,0,0:0:0:0:
357,360,81039,6,0,P|338:322|337:277,2,85
86,314,81867,5,0,0:0:0:0:
160,233,82281,2,0,L|172:306,1,63.7500024318696
89,159,82488,2,0,L|77:232,1,63.7500024318696
272,40,82695,5,0,0:0:0:0:
180,131,83108,2,0,L|190:65,1,63.7500024318696
275,212,83315,2,0,L|264:149,1,63.7500024318696
417,179,83522,6,0,P|388:195|362:241,1,63.7500024318696
326,298,83729,2,0,P|354:315|407:314,1,63.7500024318696
465,317,83936,2,0,P|465:283|438:238,1,63.7500024318696
320,65,84143,1,0,0:0:0:0:
306,143,84246,1,0,0:0:0:0:
287,222,84350,6,0,L|243:241,4,42.5
326,298,84867,1,0,0:0:0:0:
248,332,84970,1,0,0:0:0:0:
171,293,85074,1,0,0:0:0:0:
171,208,85177,1,0,0:0:0:0:
