osu file format v14

[General]
AudioFilename: audio.mp3
AudioLeadIn: 0
PreviewTime: -1
Countdown: 1
SampleSet: None
StackLeniency: 0.7
Mode: 0
LetterboxInBreaks: 0
WidescreenStoryboard: 0

[Editor]
DistanceSpacing: 0.6
BeatDivisor: 6
GridSize: 32
TimelineZoom: 4.099998

[Metadata]
Title:Robot Pirate Invasion
TitleUnicode:Robot Pirate Invasion
Artist:Trip40
ArtistUnicode:Trip40
Creator:Lexiand
Version:XOXO
Source:
Tags:
BeatmapID:2046951
BeatmapSetID:978072

[Difficulty]
HPDrainRate:4.1
CircleSize:4
OverallDifficulty:4
ApproachRate:9
SliderMultiplier:1.5
SliderTickRate:1

[Events]
//Background and Video events
//Break Periods
2,45220,58482
//Storyboard Layer 0 (Background)
//Storyboard Layer 1 (Fail)
//Storyboard Layer 2 (Pass)
//Storyboard Layer 3 (Foreground)
//Storyboard Sound Samples

[TimingPoints]
20,468.75,4,2,1,100,1,0
20,-153.846153846153,4,2,1,100,0,0
3770,-285.714285714282,4,2,1,100,0,0
4238,-153.846153846153,4,2,1,100,0,0
4707,-133.333333333333,4,2,1,100,0,0
5176,-117.647058823529,4,2,1,100,0,0
5645,-95.2380952380949,4,2,1,100,0,0
6113,-74.0740740740741,4,2,1,100,0,0
6582,-66.6666666666667,4,2,1,100,0,0
7988,-50,4,2,1,100,0,0
8164,-66.6666666666667,4,2,1,100,0,0
8926,-50,4,2,1,100,0,0
9102,-66.6666666666667,4,2,1,100,0,0
9395,-50,4,2,1,100,0,0
9629,-50,4,2,1,5,0,0
9687,-50,4,2,1,100,0,0
10039,-66.6666666666667,4,2,1,100,0,0
10330,-100,4,2,1,100,0,0
11738,-50,4,2,1,100,0,0
11914,-66.6666666666667,4,2,1,100,0,0
12676,-50,4,2,1,100,0,0
12852,-66.6666666666667,4,2,1,100,0,0
13613,-50,4,2,1,100,0,0
13789,-66.6666666666667,4,2,1,100,0,0
14082,-133.333333333333,4,2,1,100,0,0
14316,-117.647058823529,4,2,1,100,0,0
14551,-105.263157894737,4,2,1,100,0,0
14785,-95.2380952380951,4,2,1,100,0,0
15020,-66.6666666666667,4,2,1,100,0,0
15332,-100,4,2,1,100,0,0
16895,-66.6666666666667,4,2,1,100,0,0
17207,-100,4,2,1,100,0,0
18770,-66.6666666666667,4,2,1,100,0,0
19082,-100,4,2,1,100,0,0
20645,-66.6666666666667,4,2,1,100,0,0
20957,-100,4,2,1,100,0,0
22520,-66.6666666666667,4,2,1,100,0,0
22832,-100,4,2,1,100,0,0
24395,-66.6666666666667,4,2,1,100,0,0
24707,-100,4,2,1,100,0,0
26270,-66.6666666666667,4,2,1,100,0,0
26582,-100,4,2,1,100,0,0
28145,-133.333333333333,4,2,1,100,0,0
29082,-58.8235294117647,4,2,1,100,0,0
30020,-58.8235294117647,4,2,1,100,0,0
30645,-66.6666666666667,4,2,1,100,0,0
34395,-100,4,2,1,100,0,0
37520,-58.8235294117647,4,2,1,100,0,0
38145,-66.6666666666667,4,2,1,100,0,0
41895,-100,4,2,1,100,0,0
45020,-133.333333333333,4,2,1,100,0,0
60020,-133.333333333333,4,2,1,100,0,0
60957,-66.6666666666667,4,2,1,100,0,0
61895,-100,4,2,1,100,0,0

[HitObjects]
348,250,20,6,0,B|330:217|330:217|343:182,1,73.1249966526033,4|0,0:0|0:0,0:0:0:0:
438,303,488,2,0,B|417:334|417:334|379:339,1,73.1249966526033,0|0,1:0|0:0,0:0:0:0:
187,161,957,6,0,B|181:123|181:123|148:103,1,73.1249966526033
71,332,1425,2,0,B|108:339|108:339|138:316,1,73.1249966526033,0|0,1:0|2:0,2:0:0:0:
461,152,1895,6,0,L|458:70,1,73.1249966526033
350,231,2363,2,0,P|375:258|415:271,1,73.1249966526033,0|0,1:0|0:0,0:0:0:0:
227,57,2832,6,0,L|242:168,1,97.4999955368044,0|0,0:0|1:0,0:0:0:0:
423,364,3770,6,0,L|426:320,1,39.3749987983704
342,181,4238,2,0,L|348:263,1,73.1249966526033,0|0,1:0|0:0,0:0:0:0:
452,182,4707,6,0,L|457:89,1,84.3750032186509
203,0,5176,2,0,L|213:116,1,95.6250018239022,0|0,1:0|0:0,0:0:0:0:
187,248,5645,6,0,B|222:233|247:240|247:240|261:218|303:202,1,118.124996395111
387,31,6113,2,0,P|329:50|325:131,1,151.875000579357,0|0,1:0|0:0,0:0:0:0:
427,215,6582,6,0,L|479:210,7,28.1250010728836
89,342,7051,2,0,B|39:317|39:317|190:331,1,196.875007510186,0|0,1:0|0:0,0:0:0:0:
406,264,7520,6,0,L|219:275,1,168.750006437302,4|0,0:0|0:0,0:0:0:0:
23,131,7988,2,0,B|42:110|42:110|51:190,1,75,0|0,1:2|0:0,0:0:0:0:
89,342,8164,6,0,P|68:291|90:220,1,112.500004291535
149,130,8457,6,0,B|222:147|222:147|278:121|335:143,1,168.750006437302,4|0,0:0|0:0,0:0:0:0:
438,83,8926,6,0,B|477:44|477:44|426:45,1,75,0|0,1:2|0:0,0:0:0:0:
217,220,9102,2,0,L|235:353,1,112.500004291535
427,232,9395,6,0,L|440:53,1,150,2|0,0:1|0:0,0:0:0:0:
75,142,9687,1,2,0:1:0:0:
185,253,9863,2,0,P|220:236|233:173,1,75,2|0,1:1|0:0,0:0:0:0:
224,101,10039,6,0,P|181:57|110:58,1,112.500004291535,2|0,0:1|0:3,0:3:0:0:
0,304,10332,2,0,B|83:278|49:341|153:313,1,150,0|0,0:0|1:0,0:0:0:0:
186,109,11270,6,0,B|207:84|207:84|129:97,1,112.5,4|0,0:0|0:0,0:0:0:0:
60,184,11738,2,0,P|59:222|68:269,1,75,2|0,1:2|0:0,0:0:0:0:
349,210,11914,2,0,L|221:204,1,112.500004291535
434,78,12207,6,0,B|473:60|473:60|451:174,1,154.68750590086,4|0,0:0|0:0,0:0:0:0:
236,123,12676,2,0,P|225:81|242:27,1,75,0|0,1:0|0:0,0:0:0:0:
378,164,12852,2,0,L|385:288,1,112.500004291535
317,354,13145,6,0,B|315:308|277:285|277:285|239:314|187:307,1,168.750006437302,4|0,0:0|0:0,0:0:0:0:
121,151,13613,2,0,B|146:186|146:186|134:238,1,75,0|0,1:0|0:0,0:0:0:0:
25,355,13789,2,0,L|33:226,1,112.500004291535
50,65,14082,5,2,0:0:0:0:
65,75,14160,1,2,0:0:0:0:
83,79,14238,1,2,0:0:0:0:
105,82,14316,5,2,0:0:0:0:
124,72,14394,1,2,1:2:0:0:
144,67,14472,1,2,0:0:0:0:
169,65,14551,5,2,0:0:0:0:
192,61,14629,1,2,0:0:0:0:
215,64,14707,1,2,1:2:0:0:
242,76,14785,5,2,0:0:0:0:
266,84,14863,1,2,1:2:0:0:
292,83,14941,1,2,0:0:0:0:
323,88,15020,6,0,B|399:70,1,75.000002861023,4|0,0:0|0:0,0:0:0:0:
469,53,15332,6,0,P|472:15|456:-9,1,50,0|0,0:0|1:0,0:0:0:0:
236,196,15645,2,0,L|242:289,1,75
253,361,15957,5,0,1:0:0:0:
448,212,16113,1,0,0:0:0:0:
248,350,16270,1,0,0:0:0:0:
158,290,16426,5,0,1:0:0:0:
425,363,16582,1,0,0:0:0:0:
146,309,16738,1,0,0:0:0:0:
26,296,16895,6,0,P|6:258|12:192,1,75.000002861023,4|0,0:0|0:0,0:0:0:0:
12,204,17207,6,0,P|49:200|74:216,1,50,0|0,0:0|1:0,0:0:0:0:
213,273,17520,2,0,L|207:366,1,75
126,255,17832,5,0,1:0:0:0:
306,354,17988,1,0,0:0:0:0:
106,276,18145,1,0,0:0:0:0:
357,234,18301,5,0,1:0:0:0:
60,343,18457,1,0,0:0:0:0:
361,205,18613,1,0,0:0:0:0:
442,162,18770,6,0,P|460:125|458:57,1,75.000002861023,4|0,0:0|0:0,0:0:0:0:
446,73,19082,6,0,P|407:76|382:91,1,50,0|0,0:0|1:0,0:0:0:0:
262,192,19395,2,0,L|266:280,1,75
364,364,19707,5,0,1:0:0:0:
396,90,19863,1,0,0:0:0:0:
347,371,20020,1,0,0:0:0:0:
174,84,20176,5,0,1:0:0:0:
298,311,20332,1,0,0:0:0:0:
160,98,20488,1,0,0:0:0:0:
102,43,20645,6,0,B|68:17|68:17|85:144,1,150.000005722046,4|0,0:0|0:0,0:0:0:0:
281,247,21113,1,0,1:0:0:0:
290,236,21270,2,0,P|277:191|253:156,1,75
98,282,21582,5,0,1:0:0:0:
320,325,21738,1,0,0:0:0:0:
101,252,21895,1,0,0:0:0:0:
390,204,22051,5,0,1:0:0:0:
122,347,22207,1,0,0:0:0:0:
397,221,22363,1,0,0:0:0:0:
189,88,22520,6,0,B|113:70,1,75.000002861023,4|0,0:0|0:0,0:0:0:0:
43,53,22832,6,0,P|40:15|56:-9,1,50,0|0,0:0|1:0,0:0:0:0:
276,196,23145,2,0,L|270:289,1,75
259,361,23457,5,0,1:0:0:0:
64,212,23613,1,0,0:0:0:0:
264,350,23770,1,0,0:0:0:0:
354,290,23926,5,0,1:0:0:0:
87,363,24082,1,0,0:0:0:0:
366,309,24238,1,0,0:0:0:0:
486,296,24395,6,0,P|506:258|500:192,1,75.000002861023,4|0,0:0|0:0,0:0:0:0:
500,204,24707,6,0,P|463:200|438:216,1,50,0|0,0:0|1:0,0:0:0:0:
299,273,25020,2,0,L|305:366,1,75
386,255,25332,5,0,1:0:0:0:
206,354,25488,1,0,0:0:0:0:
406,276,25645,1,0,0:0:0:0:
155,234,25801,5,0,1:0:0:0:
452,343,25957,1,0,0:0:0:0:
151,205,26113,1,0,0:0:0:0:
70,162,26270,6,0,P|52:125|54:57,1,75.000002861023,4|0,0:0|0:0,0:0:0:0:
66,73,26582,6,0,P|105:76|130:91,1,50,0|0,0:0|1:0,0:0:0:0:
250,192,26895,2,0,L|246:280,1,75
148,364,27207,5,0,1:0:0:0:
116,90,27363,1,0,0:0:0:0:
165,371,27520,1,0,0:0:0:0:
338,84,27676,5,0,1:0:0:0:
167,217,27832,1,0,0:0:0:0:
352,98,27988,1,0,0:0:0:0:
367,90,28145,6,0,L|447:95,1,75.000002861023
319,166,28613,2,0,L|267:163,1,37.5000014305115
113,194,28926,1,0,0:0:0:0:
56,173,29082,6,0,B|25:225|70:295|132:288|179:257|225:227|172:195|150:110|220:65|297:81|319:166|257:173,1,425.000008106232
253,335,30020,6,0,L|245:232,1,85.0000016212464,0|0,0:1|0:0,0:0:0:0:
50,84,30332,2,0,P|90:93|122:135,1,85.0000016212464
18,271,30645,6,0,L|33:150,1,112.500004291535
235,36,30957,5,0,0:0:0:0:
343,104,31113,1,0,0:0:0:0:
232,170,31270,1,0,0:0:0:0:
302,34,31426,5,0,0:0:0:0:
313,162,31582,1,0,0:0:0:0:
193,113,31739,1,0,0:0:0:0:
364,56,31895,6,0,L|467:41,1,75.000002861023
512,166,32207,2,0,B|482:134|482:134|424:114,1,75.000002861023
309,317,32520,2,0,B|322:340|322:340|375:284|362:259,1,112.500004291535
245,159,32832,5,0,0:0:0:0:
364,267,32988,1,0,0:0:0:0:
402,113,33145,1,0,0:0:0:0:
325,86,33301,5,0,0:0:0:0:
264,235,33457,1,0,0:0:0:0:
422,217,33614,1,0,0:0:0:0:
203,114,33770,6,0,L|105:107,1,75.000002861023
15,250,34082,2,0,P|46:226|110:216,1,75.000002861023
283,331,34395,2,0,L|164:313,1,100
82,314,34863,5,0,0:0:0:0:
75,213,35020,1,0,0:0:0:0:
124,116,35176,1,0,0:0:0:0:
327,242,35332,1,0,0:0:0:0:
82,314,35488,1,0,0:0:0:0:
209,94,35645,6,0,P|262:90|316:107,1,100,0|0,2:0|2:0,2:0:0:0:
394,140,36113,2,0,L|405:197,2,50,0|0|0,1:0|2:0|2:0,2:0:0:0:
289,315,36582,2,0,L|303:159,1,150,0|0,2:0|1:0,2:0:0:0:
205,66,37207,5,0,2:0:0:0:
136,99,37363,1,0,2:0:0:0:
73,142,37520,6,0,P|7:135|-16:123,1,85.0000016212464
205,66,37832,2,0,P|259:78|292:101,1,85.0000016212464
157,312,38145,2,0,L|153:167,1,112.500004291535
209,67,38457,5,0,0:0:0:0:
261,239,38613,1,0,0:0:0:0:
87,201,38770,1,0,0:0:0:0:
284,134,38926,5,0,0:0:0:0:
166,269,39082,1,0,0:0:0:0:
106,102,39239,1,0,0:0:0:0:
368,140,39395,6,0,B|402:162|402:162|427:220,1,75.000002861023
323,321,39707,2,0,B|319:277|319:277|343:220,1,75.000002861023
451,41,40020,2,0,B|476:32|476:32|477:109|451:119,1,112.500004291535
294,267,40332,5,0,0:0:0:0:
156,184,40488,1,0,0:0:0:0:
292,103,40645,1,0,0:0:0:0:
340,169,40801,5,0,0:0:0:0:
155,311,40957,1,0,0:0:0:0:
79,119,41114,1,0,0:0:0:0:
198,100,41270,6,0,L|303:95,1,75.000002861023
424,260,41582,2,0,P|377:245|340:244,1,75.000002861023
50,221,41895,2,0,L|130:209,1,75
255,259,42207,5,0,0:0:0:0:
379,176,42363,1,0,0:0:0:0:
256,105,42520,1,0,0:0:0:0:
341,257,42676,5,0,0:0:0:0:
336,108,42832,1,0,0:0:0:0:
211,174,42989,1,0,0:0:0:0:
413,343,43145,2,0,L|422:232,1,100
316,55,43613,2,0,L|323:165,1,100
264,326,44082,5,0,0:0:0:0:
57,168,44238,1,0,0:0:0:0:
57,174,44316,1,0,0:0:0:0:
57,174,44395,1,0,0:0:0:0:
262,191,44551,5,0,0:0:0:0:
98,325,44707,1,0,0:0:0:0:
98,325,44785,1,0,0:0:0:0:
98,325,44863,1,0,0:0:0:0:
166,68,45020,5,0,0:0:0:0:
256,192,59082,12,0,59941,0:0:0:0:
373,100,60020,6,0,L|380:208,1,93.7500035762788
149,333,60488,1,0,0:0:0:0:
70,162,60645,1,0,0:0:0:0:
313,261,60801,1,0,0:0:0:0:
86,336,60957,6,0,B|60:303|60:303|102:308|128:335,1,112.500004291535,0|0,1:0|0:0,0:0:0:0:
410,130,61270,2,0,B|449:110|449:110|416:207,1,112.500004291535
313,261,61582,2,0,B|271:246|271:246|358:203,1,112.500004291535
434,351,61895,6,0,L|273:341,1,150
54,288,62520,1,0,0:0:0:0:
180,103,62676,1,0,0:0:0:0:
419,239,62832,6,0,P|436:273|436:351,1,100
233,177,63535,1,0,0:0:0:0:
