osu file format v14

[General]
AudioFilename: audio.mp3
AudioLeadIn: 0
PreviewTime: 36744
Countdown: 0
SampleSet: Soft
StackLeniency: 0.7
Mode: 0
LetterboxInBreaks: 0
WidescreenStoryboard: 0

[Editor]
Bookmarks: 74029
DistanceSpacing: 1.3
BeatDivisor: 4
GridSize: 4
TimelineZoom: 1.6

[Metadata]
Title:Rabi Rabi Park
TitleUnicode:Rabi Rabi Park
Artist:Triodust
ArtistUnicode:Triodust
Creator:Kyubey
Version:Normal
Source:Rabi-Ribi
Tags:ost bgm ăƒ©ăƒ“ăƒȘビ
BeatmapID:1152435
BeatmapSetID:533194

[Difficulty]
HPDrainRate:4
CircleSize:3.5
OverallDifficulty:4
ApproachRate:5
SliderMultiplier:1.4
SliderTickRate:2

[Events]
//Background and Video events
0,0,"yMVxGwJ.jpg",0,0
//Break Periods
//Storyboard Layer 0 (Background)
//Storyboard Layer 1 (Fail)
//Storyboard Layer 2 (Pass)
//Storyboard Layer 3 (Foreground)
//Storyboard Sound Samples

[TimingPoints]
887,571.428571428571,4,2,1,30,1,0
887,-117.647058823529,4,2,1,30,0,0
10029,-100,4,2,1,40,0,0
11172,-100,4,2,0,40,0,0
11744,-100,4,2,1,40,0,0
13458,-100,4,2,0,40,0,0
14029,-100,4,2,1,40,0,0
15744,-100,4,2,0,40,0,0
16315,-100,4,2,1,40,0,0
18029,-100,4,2,0,40,0,0
18601,-100,4,2,1,40,0,0
20315,-100,4,2,0,40,0,0
20886,-100,4,2,1,40,0,0
22601,-100,4,2,0,40,0,0
23172,-100,4,2,1,40,0,0
24886,-100,4,2,0,40,0,0
25458,-100,4,2,1,40,0,0
27172,-100,4,2,0,40,0,0
27744,-100,4,2,1,40,0,0
29458,-100,4,2,0,40,0,0
30029,-100,4,2,1,40,0,0
31744,-100,4,2,0,40,0,0
32315,-100,4,2,1,40,0,0
34029,-100,4,2,0,40,0,0
34601,-100,4,2,1,40,0,0
36315,-100,4,2,0,40,0,0
36886,-100,4,2,1,20,0,0
37458,-100,4,2,1,50,0,0
38601,-100,4,2,0,50,0,0
39172,-100,4,2,1,50,0,0
40886,-100,4,2,0,50,0,0
41458,-100,4,2,1,50,0,0
43172,-100,4,2,0,50,0,0
43744,-100,4,2,1,50,0,0
45458,-100,4,2,0,50,0,0
46029,-100,4,2,1,50,0,0
47744,-100,4,2,0,50,0,0
48315,-100,4,2,1,50,0,0
50029,-100,4,2,0,50,0,0
50601,-100,4,2,1,50,0,0
52315,-100,4,2,0,50,0,0
52886,-100,4,2,1,50,0,0
54601,-100,4,2,0,50,0,0
55172,-100,4,2,1,50,0,0
55744,-100,4,2,1,60,0,0
56886,-100,4,2,0,60,0,0
57458,-100,4,2,1,60,0,0
59172,-100,4,2,0,60,0,0
59744,-100,4,2,1,60,0,0
61458,-100,4,2,0,60,0,0
62029,-100,4,2,1,60,0,0
63744,-100,4,2,0,60,0,0
64315,-100,4,2,1,60,0,0
66029,-100,4,2,0,60,0,0
66601,-100,4,2,1,60,0,0
68315,-100,4,2,0,60,0,0
68886,-100,4,2,1,60,0,0
70601,-100,4,2,0,60,0,0
71172,-100,4,2,1,60,0,0
72886,-100,4,2,0,60,0,0
73458,-100,4,2,1,60,0,0
74029,-100,4,2,1,30,0,0
91172,-100,4,2,1,25,0,0
91458,-100,4,2,1,20,0,0
91744,-100,4,2,1,15,0,0
92029,-100,4,2,1,10,0,0
92315,-100,4,2,1,40,0,0

[Colours]
Combo1 : 17,254,176
Combo2 : 173,255,95
Combo3 : 255,88,100
Combo4 : 255,94,55

[HitObjects]
64,120,887,6,0,P|106:132|176:132,1,89.2500017023087,2|0,0:0|0:0,0:0:0:0:
184,116,1458,2,0,P|214:115|268:120,1,59.5000011348724,0|0,0:0|0:0,0:0:0:0:
304,164,2029,1,2,0:0:0:0:
412,124,2458,2,0,L|456:112,1,29.7500005674362,0|2,0:0|0:0,0:0:0:0:
468,268,3172,6,0,P|427:261|372:260,1,89.2500017023087,2|0,0:0|0:0,0:0:0:0:
344,276,3744,2,0,P|308:276|272:268,1,59.5000011348725,0|0,0:0|0:0,0:0:0:0:
236,212,4315,1,2,0:0:0:0:
196,320,4744,2,0,L|184:360,1,29.7500005674362,0|2,0:0|0:0,0:0:0:0:
60,260,5458,6,0,P|48:224|48:164,1,89.2500017023087,2|0,0:0|0:0,0:0:0:0:
64,140,6029,2,0,P|64:108|56:68,1,59.5000011348725
16,16,6601,1,2,0:0:0:0:
168,48,7172,2,0,P|195:53|256:48,1,89.2500017023087,0|0,0:0|0:0,0:0:0:0:
289,28,7744,6,0,P|311:93|325:160,1,119.000002269745,2|2,0:0|0:0,0:0:0:0:
176,180,8886,2,0,P|153:245|140:312,1,119.000002269745,2|2,0:0|0:0,0:0:0:0:
280,368,10029,6,0,L|380:352,1,70,4|0,1:0|0:0,0:0:0:0:
396,280,10601,2,0,L|496:264,1,70,0|2,1:0|0:0,0:0:0:0:
504,188,11172,2,0,P|480:144|368:136,1,140,0|8,1:0|0:1,0:0:0:0:
316,164,12029,1,2,0:0:0:0:
240,116,12315,6,0,P|232:83|228:48,1,70,0|0,1:0|0:0,0:0:0:0:
144,16,12886,2,0,L|68:56,1,70,4|2,1:2|0:0,0:0:0:0:
48,132,13458,2,0,B|54:192|54:192|46:214|46:214|56:290,1,140,4|8,1:2|0:1,0:0:0:0:
124,328,14315,1,2,0:0:0:0:
124,328,14601,6,0,L|204:316,1,70,2|0,1:2|0:0,0:0:0:0:
268,268,15172,2,0,L|337:278,1,70,0|2,1:0|0:0,0:0:0:0:
424,308,15744,2,0,P|456:244|408:168,1,140,0|8,1:0|0:1,0:0:0:0:
312,48,16886,6,0,P|272:60|216:64,1,70,2|0,1:2|0:0,0:0:0:0:
152,60,17458,2,0,P|117:54|84:44,1,70,0|2,1:0|0:0,0:0:0:0:
24,112,18029,2,0,L|40:268,1,140,0|8,1:0|1:0,0:0:0:0:
52,340,18886,1,4,0:0:0:0:
52,340,19172,6,0,P|86:340|144:348,1,70,4|0,1:0|0:0,0:0:0:0:
212,324,19744,2,0,P|208:289|200:244,1,70,0|2,1:0|0:0,0:0:0:0:
172,168,20315,2,0,P|236:180|316:172,1,140,0|8,1:0|0:1,0:0:0:0:
384,120,21172,1,2,0:0:0:0:
456,176,21458,6,0,P|465:209|472:248,1,70,0|0,1:0|0:0,0:0:0:0:
384,268,22029,2,0,P|379:303|370:340,1,70,4|2,1:2|0:0,0:0:0:0:
284,316,22601,2,0,P|229:316|164:228,1,140,4|8,1:2|0:1,0:0:0:0:
184,172,23458,1,2,0:0:0:0:
184,172,23744,6,0,P|211:162|260:156,1,70,2|0,1:2|0:0,0:0:0:0:
312,88,24315,2,0,P|284:78|236:72,1,70,0|2,1:0|0:0,0:0:0:0:
156,88,24886,2,0,P|99:68|64:-8,1,140,0|8,1:0|0:1,0:0:0:0:
84,180,26029,6,0,P|88:224|92:276,1,70,0|0,1:0|0:0,0:0:0:0:
44,328,26601,2,0,P|72:352|120:356,1,70,0|2,1:0|0:0,0:0:0:0:
180,312,27172,2,0,P|244:280|304:316,1,140,0|8,1:0|1:1,0:0:0:0:
380,356,28029,1,4,0:0:0:0:
380,356,28315,6,0,P|391:326|388:280,1,70,4|0,1:0|0:0,0:0:0:0:
320,228,28886,2,0,P|309:198|312:152,1,70,0|2,1:0|0:0,0:0:0:0:
400,136,29458,2,0,P|372:89|270:73,1,140,0|8,1:0|0:1,0:0:0:0:
224,124,30315,1,2,0:0:0:0:
136,104,30601,6,0,P|100:88|64:60,1,70,0|0,1:0|0:0,0:0:0:0:
36,152,31172,2,0,L|48:240,1,70,0|2,1:0|0:0,0:0:0:0:
136,208,31744,2,0,P|136:264|96:352,1,140,0|8,1:0|0:1,0:0:0:0:
192,364,32601,1,2,0:0:0:0:
192,364,32886,6,0,L|261:357,1,70,0|0,1:0|0:0,0:0:0:0:
316,284,33458,2,0,L|385:290,1,70,0|2,1:0|0:0,0:0:0:0:
468,328,34029,2,0,P|484:264|452:176,1,140,0|8,1:0|0:1,0:0:0:0:
384,156,34886,1,2,0:0:0:0:
440,84,35172,6,0,L|360:64,1,70,0|0,1:0|0:0,0:0:0:0:
284,88,35744,2,0,L|204:68,1,70,0|2,1:0|0:0,0:0:0:0:
124,76,36315,2,0,P|112:140|176:216,1,140,0|2,1:0|0:0,0:0:0:0:
236,180,37172,1,2,0:0:0:0:
208,268,37458,6,0,P|200:308|196:360,1,70,4|0,1:0|0:0,0:0:0:0:
288,320,38029,1,8,1:0:0:0:
376,348,38315,1,0,0:0:0:0:
460,316,38601,2,0,P|476:276|420:180,1,140,0|8,1:0|1:1,0:0:0:0:
492,116,39458,1,0,0:0:0:0:
488,24,39744,6,0,L|396:12,1,70,0|0,1:0|0:0,0:0:0:0:
352,76,40315,2,0,P|312:80|260:88,1,70,8|0,1:0|0:0,0:0:0:0:
196,56,40886,2,0,P|188:109|228:188,1,140,0|8,1:0|1:0,0:0:0:0:
172,260,41744,1,2,0:0:0:0:
172,260,42029,6,0,L|76:272,1,70,0|0,1:0|0:0,0:0:0:0:
60,188,42601,1,8,1:0:0:0:
68,96,42886,1,0,0:0:0:0:
136,32,43172,2,0,P|208:40|272:72,1,140,0|8,1:0|1:0,0:0:0:0:
448,32,44315,6,0,P|456:72|476:117,1,70,0|0,1:0|0:0,0:0:0:0:
384,140,44886,2,0,P|414:167|456:192,1,70,8|0,1:0|0:0,0:0:0:0:
484,264,45458,2,0,P|409:270|344:328,1,140,0|8,1:0|1:0,0:0:0:0:
276,344,46315,2,0,L|228:336,2,35,4|0|4,0:0|1:0|1:0,0:0:0:0:
284,252,46886,5,0,0:0:0:0:
252,168,47172,2,0,P|240:136|232:84,1,70,8|0,1:0|0:0,0:0:0:0:
304,40,47744,2,0,P|259:13|160:40,1,140,0|8,1:0|1:0,0:0:0:0:
144,112,48601,1,0,0:0:0:0:
52,116,48886,6,0,P|61:153|68:208,1,70,0|0,1:0|0:0,0:0:0:0:
24,264,49458,2,0,P|14:301|8:356,1,70,8|0,1:0|0:0,0:0:0:0:
96,364,50029,2,0,L|244:348,1,140,0|8,1:0|1:0,0:0:0:0:
324,368,50886,1,2,0:0:0:0:
324,368,51172,6,0,P|332:336|336:288,1,70,0|0,1:0|0:0,0:0:0:0:
424,284,51744,2,0,P|416:251|397:207,1,70,8|0,1:0|0:0,0:0:0:0:
468,156,52315,2,0,P|420:126|312:112,1,140,0|8,1:0|1:0,0:0:0:0:
172,184,53458,6,0,P|133:175|100:160,1,70,0|0,1:0|0:0,0:0:0:0:
44,96,54029,2,0,P|35:57|35:20,1,70,8|0,1:0|0:0,0:0:0:0:
124,56,54601,2,0,P|187:71|284:56,1,140,0|8,1:0|1:0,0:0:0:0:
344,28,55458,1,4,0:0:0:0:
344,28,55744,6,0,L|336:108,1,70,4|0,1:0|0:0,0:0:0:0:
416,144,56315,2,0,L|424:224,1,70,8|0,1:0|0:0,0:0:0:0:
384,296,56886,2,0,P|328:282|220:292,1,140,0|8,1:0|1:0,0:0:0:0:
168,332,57744,1,0,0:0:0:0:
84,300,58029,6,0,P|88:264|104:228,1,70,0|0,1:0|0:0,0:0:0:0:
164,168,58601,1,8,1:0:0:0:
128,84,58886,1,0,0:0:0:0:
220,96,59172,2,0,P|276:104|372:88,1,140,0|8,1:0|1:0,0:0:0:0:
448,96,60029,1,2,0:0:0:0:
448,96,60315,6,0,P|470:127|492:168,1,70,0|0,1:0|0:0,0:0:0:0:
420,216,60886,2,0,P|426:254|427:300,1,70,8|0,1:0|0:0,0:0:0:0:
352,336,61458,2,0,P|284:320|216:352,1,140,0|8,1:0|1:0,0:0:0:0:
40,348,62601,6,0,P|32:312|28:264,1,70,0|0,1:0|0:0,0:0:0:0:
104,228,63172,1,8,1:0:0:0:
60,148,63458,1,0,0:0:0:0:
76,60,63744,2,0,P|152:56|204:16,1,140,0|8,1:0|1:0,0:0:0:0:
272,76,64601,2,0,L|284:124,2,35,4|0|4,0:0|1:0|1:0,0:0:0:0:
348,28,65172,5,0,0:0:0:0:
428,68,65458,2,0,P|435:115|432:164,1,70,8|0,1:0|0:0,0:0:0:0:
440,228,66029,2,0,P|384:216|312:264,1,140,0|8,1:0|1:0,0:0:0:0:
340,344,66886,1,0,0:0:0:0:
252,364,67172,6,0,L|176:352,1,70,0|0,1:0|0:0,0:0:0:0:
92,352,67744,2,0,L|46:289,1,70,8|0,1:0|0:0,0:0:0:0:
20,212,68315,2,0,P|92:180|92:108,1,140,0|8,1:0|1:0,0:0:0:0:
72,40,69172,1,2,0:0:0:0:
72,40,69458,6,0,L|144:48,1,70,0|0,1:0|0:0,0:0:0:0:
212,104,70029,1,8,1:0:0:0:
300,84,70315,1,0,0:0:0:0:
368,148,70601,2,0,P|380:220|388:292,1,140,0|8,1:0|1:0,0:0:0:0:
220,356,71744,6,0,P|185:348|136:344,1,70,0|0,1:0|0:0,0:0:0:0:
100,268,72315,2,0,P|134:260|184:256,1,70,8|0,1:0|0:0,0:0:0:0:
260,264,72886,2,0,P|331:271|372:200,1,140,0|8,1:0|1:0,0:0:0:0:
356,132,73744,1,2,0:0:0:0:
356,132,74029,6,0,P|391:133|456:140,1,70,4|0,0:0|0:0,0:0:0:0:
428,44,74601,2,0,P|393:41|358:39,1,70,0|0,0:0|0:0,0:0:0:0:
276,84,75172,2,0,P|234:82|184:68,1,70,2|0,0:0|0:0,0:0:0:0:
120,48,75744,2,0,L|144:192,1,140,0|2,0:0|0:0,0:0:0:0:
96,264,76601,5,0,0:0:0:0:
160,332,76886,2,0,P|195:328|244:328,1,70,0|0,0:0|0:0,0:0:0:0:
316,360,77458,2,0,P|352:364|400:364,1,70,2|0,0:0|0:0,0:0:0:0:
472,332,78029,2,0,P|470:262|416:216,1,140,0|2,0:0|0:0,0:0:0:0:
404,128,78886,5,0,0:0:0:0:
340,192,79172,2,0,P|302:201|264:200,1,70,0|0,0:0|0:0,0:0:0:0:
192,244,79744,2,0,P|182:206|184:168,1,70,2|0,0:0|0:0,0:0:0:0:
248,112,80315,2,0,P|199:86|120:109,1,140,0|2,0:0|0:0,0:0:0:0:
64,176,81172,5,0,0:0:0:0:
64,268,81458,2,0,P|132:304|176:364,1,140,0|2,0:0|0:0,0:0:0:0:
256,316,82315,1,0,0:0:0:0:
341,352,82601,2,0,P|385:299|448:268,1,140,0|2,0:0|0:0,0:0:0:0:
496,188,83458,5,0,0:0:0:0:
440,116,83744,2,0,P|401:106|368:88,1,70,0|0,0:0|0:0,0:0:0:0:
284,84,84315,2,0,L|304:176,1,70,2|0,0:0|0:0,0:0:0:0:
224,204,84886,2,0,P|208:280|205:353,1,140,0|2,0:0|0:0,0:0:0:0:
112,352,85744,5,0,0:0:0:0:
56,280,86029,2,0,P|46:247|44:200,1,70,0|0,0:0|0:0,0:0:0:0:
92,132,86601,2,0,P|128:140|180:144,1,70,2|0,0:0|0:0,0:0:0:0:
232,200,87172,2,0,P|251:152|208:66,1,140,0|2,0:0|0:0,0:0:0:0:
288,16,88029,5,0,0:0:0:0:
336,92,88315,2,0,P|343:126|340:176,1,70,0|0,0:0|0:0,0:0:0:0:
344,252,88886,2,0,P|344:286|337:321,1,70,2|0,0:0|0:0,0:0:0:0:
248,344,89458,2,0,P|188:336|96:356,1,140,0|2,0:0|0:0,0:0:0:0:
72,268,90315,5,0,0:0:0:0:
128,196,90601,2,0,P|133:124|80:76,1,140,0|2,0:0|0:0,0:0:0:0:
164,28,91458,1,0,0:0:0:0:
244,76,91744,2,0,P|277:80|352:16,1,140,0|2,0:0|0:0,0:0:0:0:
