osu file format v14

[General]
AudioFilename: audio.mp3
AudioLeadIn: 0
PreviewTime: 36744
Countdown: 0
SampleSet: Soft
StackLeniency: 0.7
Mode: 0
LetterboxInBreaks: 0
WidescreenStoryboard: 0

[Editor]
Bookmarks: 74029
DistanceSpacing: 1.1
BeatDivisor: 4
GridSize: 4
TimelineZoom: 1.6

[Metadata]
Title:Rabi Rabi Park
TitleUnicode:Rabi Rabi Park
Artist:Triodust
ArtistUnicode:Triodust
Creator:Kyubey
Version:Easy
Source:Rabi-Ribi
Tags:ost bgm ăƒ©ăƒ“ăƒȘビ
BeatmapID:1152523
BeatmapSetID:533194

[Difficulty]
HPDrainRate:2
CircleSize:3
OverallDifficulty:2
ApproachRate:3
SliderMultiplier:1
SliderTickRate:2

[Events]
//Background and Video events
0,0,"yMVxGwJ.jpg",0,0
//Break Periods
//Storyboard Layer 0 (Background)
//Storyboard Layer 1 (Fail)
//Storyboard Layer 2 (Pass)
//Storyboard Layer 3 (Foreground)
//Storyboard Sound Samples

[TimingPoints]
887,571.428571428571,4,2,1,30,1,0
887,-117.647058823529,4,2,1,30,0,0
10029,-100,4,2,1,40,0,0
11172,-100,4,2,0,40,0,0
11744,-100,4,2,1,40,0,0
13458,-100,4,2,0,40,0,0
14029,-100,4,2,1,40,0,0
15744,-100,4,2,0,40,0,0
16315,-100,4,2,1,40,0,0
18029,-100,4,2,0,40,0,0
18601,-100,4,2,1,40,0,0
20315,-100,4,2,0,40,0,0
20886,-100,4,2,1,40,0,0
22601,-100,4,2,0,40,0,0
23172,-100,4,2,1,40,0,0
24886,-100,4,2,0,40,0,0
25458,-100,4,2,1,40,0,0
27172,-100,4,2,0,40,0,0
27744,-100,4,2,1,40,0,0
29458,-100,4,2,0,40,0,0
30029,-100,4,2,1,40,0,0
31744,-100,4,2,0,40,0,0
32315,-100,4,2,1,40,0,0
34029,-100,4,2,0,40,0,0
34601,-100,4,2,1,40,0,0
36315,-100,4,2,0,40,0,0
36886,-100,4,2,1,20,0,0
37458,-100,4,2,1,50,0,0
38601,-100,4,2,0,50,0,0
39172,-100,4,2,1,50,0,0
40886,-100,4,2,0,50,0,0
41458,-100,4,2,1,50,0,0
43172,-100,4,2,0,50,0,0
43744,-100,4,2,1,50,0,0
45458,-100,4,2,0,50,0,0
46029,-100,4,2,1,50,0,0
47744,-100,4,2,0,50,0,0
48315,-100,4,2,1,50,0,0
50029,-100,4,2,0,50,0,0
50601,-100,4,2,1,50,0,0
52315,-100,4,2,0,50,0,0
52886,-100,4,2,1,50,0,0
54601,-100,4,2,0,50,0,0
55172,-100,4,2,1,50,0,0
55744,-100,4,2,1,60,0,0
56886,-100,4,2,0,60,0,0
57458,-100,4,2,1,60,0,0
59172,-100,4,2,0,60,0,0
59744,-100,4,2,1,60,0,0
61458,-100,4,2,0,60,0,0
62029,-100,4,2,1,60,0,0
63744,-100,4,2,0,60,0,0
64315,-100,4,2,1,60,0,0
66029,-100,4,2,0,60,0,0
66601,-100,4,2,1,60,0,0
68315,-100,4,2,0,60,0,0
68886,-100,4,2,1,60,0,0
70601,-100,4,2,0,60,0,0
71172,-100,4,2,1,60,0,0
72886,-100,4,2,0,60,0,0
73458,-100,4,2,1,60,0,0
74029,-100,4,2,1,30,0,0
91172,-100,4,2,1,25,0,0
91458,-100,4,2,1,20,0,0
91744,-100,4,2,1,15,0,0
92029,-100,4,2,1,10,0,0
92315,-100,4,2,1,40,0,0

[Colours]
Combo1 : 17,254,176
Combo2 : 173,255,95
Combo3 : 255,88,100
Combo4 : 255,94,55

[HitObjects]
400,152,887,5,2,0:0:0:0:
328,236,1458,2,0,P|281:226|240:224,2,85.0000016212464,0|2|2,0:0|0:0|0:0,0:0:0:0:
396,320,3172,1,2,0:0:0:0:
300,380,3744,2,0,P|257:377|216:367,2,85.0000016212464,0|2|2,0:0|0:0|0:0,0:0:0:0:
276,272,5458,5,2,0:0:0:0:
192,200,6029,2,0,P|144:208|104:208,1,85.0000016212464,0|2,0:0|0:0,0:0:0:0:
216,16,7744,6,0,P|252:25|312:32,1,85.0000016212464,2|2,0:0|0:0,0:0:0:0:
380,104,8886,2,0,P|343:113|284:120,1,85.0000016212464,2|2,0:0|0:0,0:0:0:0:
344,240,10029,6,0,P|294:234|236:240,1,100,4|0,1:0|1:0,0:0:0:0:
160,308,11172,2,0,P|132:276|116:204,1,100,0|8,1:0|0:1,0:0:0:0:
132,168,12029,1,2,0:0:0:0:
148,116,12315,6,0,P|144:80|104:20,1,100,0|4,1:0|1:2,0:0:0:0:
220,48,13458,2,0,L|328:56,1,100,4|8,1:2|0:1,0:0:0:0:
376,60,14315,1,2,0:0:0:0:
430,67,14601,6,0,P|447:131|454:179,1,100,2|0,1:2|1:0,0:0:0:0:
364,228,15744,2,0,P|359:272|380:324,1,100,0|8,1:0|0:1,0:0:0:0:
272,352,16886,5,2,1:2:0:0:
172,308,17458,1,0,1:0:0:0:
68,344,18029,2,0,P|52:300|48:228,1,100,0|8,1:0|1:0,0:0:0:0:
76,200,18886,1,4,0:0:0:0:
124,172,19172,6,0,P|170:181|232:176,1,100,4|0,1:0|1:0,0:0:0:0:
324,136,20315,2,0,P|331:98|300:40,1,100,0|8,1:0|0:1,0:0:0:0:
252,64,21172,1,2,0:0:0:0:
196,64,21458,6,0,P|155:43|80:28,1,100,0|4,1:0|1:2,0:0:0:0:
44,124,22601,2,0,L|56:232,1,100,4|8,1:2|0:1,0:0:0:0:
96,260,23458,1,2,0:0:0:0:
152,268,23744,6,0,P|203:261|272:272,1,100,2|0,1:2|1:0,0:0:0:0:
328,344,24886,2,0,P|376:324|400:264,1,100,0|8,1:0|0:1,0:0:0:0:
376,176,26029,6,0,P|368:128|376:72,1,100,0|0,1:0|1:0,0:0:0:0:
480,40,27172,2,0,P|488:88|480:144,1,100,0|8,1:0|1:1,0:0:0:0:
456,188,28029,1,4,0:0:0:0:
476,240,28315,6,0,L|368:260,1,100,4|0,1:0|1:0,0:0:0:0:
300,336,29458,2,0,L|201:317,1,100,0|8,1:0|0:1,0:0:0:0:
148,320,30315,1,2,0:0:0:0:
100,348,30601,6,0,P|79:306|72:240,1,100,0|0,1:0|1:0,0:0:0:0:
156,180,31744,2,0,P|173:134|156:72,1,100,0|8,1:0|0:1,0:0:0:0:
200,44,32601,1,2,0:0:0:0:
252,32,32886,6,0,P|297:51|359:43,1,100,0|0,1:0|1:0,0:0:0:0:
456,40,34029,2,0,L|472:152,1,100,0|8,1:0|0:1,0:0:0:0:
384,208,35172,6,0,L|368:320,1,100,0|0,1:0|1:0,0:0:0:0:
268,352,36315,2,0,P|220:336|160:332,1,100,0|2,1:0|0:0,0:0:0:0:
120,348,37172,1,2,0:0:0:0:
64,340,37458,6,0,P|52:292|52:240,1,100,4|8,1:0|1:0,0:0:0:0:
84,196,38315,1,0,0:0:0:0:
96,144,38601,2,0,P|97:91|80:44,1,100,0|8,1:0|1:1,0:0:0:0:
188,72,39744,5,0,1:0:0:0:
296,44,40315,1,8,1:0:0:0:
392,96,40886,2,0,P|376:148|384:216,1,100,0|8,1:0|1:0,0:0:0:0:
424,224,41744,1,2,0:0:0:0:
456,268,42029,6,0,P|444:320|412:360,1,100,0|8,1:0|1:0,0:0:0:0:
312,324,43172,2,0,L|208:312,1,100,0|8,1:0|1:0,0:0:0:0:
128,384,44315,6,0,P|112:344|108:280,1,100,0|8,1:0|1:0,0:0:0:0:
188,212,45458,2,0,P|184:162|167:115,1,100,0|8,1:0|1:0,0:0:0:0:
112,124,46315,1,4,0:0:0:0:
60,112,46601,6,0,P|52:80|68:8,1,100,4|8,1:0|1:0,0:0:0:0:
120,12,47458,1,0,0:0:0:0:
172,24,47744,2,0,P|216:20|288:28,1,100,0|8,1:0|1:0,0:0:0:0:
344,108,48886,6,0,P|337:148|352:216,1,100,0|8,1:0|1:0,0:0:0:0:
456,204,50029,2,0,P|466:253|476:312,1,100,0|8,1:0|1:0,0:0:0:0:
432,340,50886,1,2,0:0:0:0:
376,348,51172,5,0,1:0:0:0:
272,308,51744,1,8,1:0:0:0:
168,348,52315,2,0,L|148:248,1,100,0|8,1:0|1:0,0:0:0:0:
104,148,53458,6,0,L|204:160,1,100,0|8,1:0|1:0,0:0:0:0:
216,52,54601,2,0,L|116:40,1,100,0|8,1:0|1:0,0:0:0:0:
68,68,55458,1,4,0:0:0:0:
16,84,55744,6,0,P|23:129|32:200,1,100,4|8,1:0|1:0,0:0:0:0:
16,236,56601,1,0,0:0:0:0:
28,288,56886,2,0,P|76:304|144:300,1,100,0|8,1:0|1:0,0:0:0:0:
224,256,58029,5,0,1:0:0:0:
328,292,58601,1,8,1:0:0:0:
424,240,59172,2,0,P|428:188|404:136,1,100,0|8,1:0|1:0,0:0:0:0:
356,136,60029,1,2,0:0:0:0:
312,104,60315,6,0,P|306:62|328:8,1,100,0|8,1:0|1:0,0:0:0:0:
416,72,61458,2,0,P|424:120|464:168,1,100,0|8,1:0|1:0,0:0:0:0:
496,264,62601,6,0,P|486:311|484:372,1,100,0|8,1:0|1:0,0:0:0:0:
372,360,63744,2,0,P|323:350|260:348,1,100,0|8,1:0|1:0,0:0:0:0:
220,368,64601,1,4,0:0:0:0:
168,356,64886,6,0,P|152:308|160:252,1,100,4|8,1:0|1:0,0:0:0:0:
196,220,65744,1,0,0:0:0:0:
208,168,66029,2,0,P|201:117|176:68,1,100,0|8,1:0|1:0,0:0:0:0:
104,156,67172,6,0,P|99:204|112:268,1,100,0|8,1:0|1:0,0:0:0:0:
160,352,68315,2,0,L|268:340,1,100,0|8,1:0|1:0,0:0:0:0:
312,328,69172,1,2,0:0:0:0:
364,340,69458,5,0,1:0:0:0:
420,244,70029,1,8,1:0:0:0:
396,136,70601,2,0,P|345:140|296:136,1,100,0|8,1:0|1:0,0:0:0:0:
224,52,71744,6,0,P|176:64|124:88,1,100,0|8,1:0|1:0,0:0:0:0:
52,164,72886,2,0,P|100:176|152:200,1,100,0|8,1:0|1:0,0:0:0:0:
180,240,73744,1,2,0:0:0:0:
184,296,74029,6,0,P|232:304|296:296,1,100,4|0,0:0|0:0,0:0:0:0:
392,276,75172,2,0,P|400:228|392:168,1,100,2|0,0:0|0:0,0:0:0:0:
360,72,76315,5,2,0:0:0:0:
260,116,76886,1,0,0:0:0:0:
176,44,77458,2,0,P|138:57|83:98,1,100,2|0,0:0|0:0,0:0:0:0:
72,200,78601,5,2,0:0:0:0:
168,252,79172,2,0,L|184:368,2,100,0|2|0,0:0|0:0|0:0,0:0:0:0:
264,196,80886,5,2,0:0:0:0:
360,144,81458,2,0,L|376:28,2,100,0|2|0,0:0|0:0|0:0,0:0:0:0:
436,224,83172,6,0,P|452:272|460:328,1,100,2|0,0:0|0:0,0:0:0:0:
352,352,84315,2,0,L|248:336,1,100,2|0,0:0|0:0,0:0:0:0:
148,372,85458,5,2,0:0:0:0:
128,264,86029,1,0,0:0:0:0:
28,216,86601,2,0,L|12:112,1,100,2|0,0:0|0:0,0:0:0:0:
96,48,87744,5,2,0:0:0:0:
192,104,88315,2,0,P|242:107|296:96,2,100,0|2|0,0:0|0:0|0:0,0:0:0:0:
100,164,90029,5,2,0:0:0:0:
196,216,90601,2,0,P|246:219|300:208,2,100,0|2|0,0:0|0:0|0:0,0:0:0:0:
104,280,92315,5,2,0:0:0:0:
