osu file format v14

[General]
AudioFilename: audio.mp3
AudioLeadIn: 0
PreviewTime: 36886
Countdown: 0
SampleSet: Soft
StackLeniency: 0.7
Mode: 0
LetterboxInBreaks: 0
WidescreenStoryboard: 1

[Editor]
Bookmarks: 22601
DistanceSpacing: 1.3
BeatDivisor: 4
GridSize: 16
TimelineZoom: 0.9

[Metadata]
Title:Rabi Rabi Park
TitleUnicode:Rabi Rabi Park
Artist:Triodust
ArtistUnicode:Triodust
Creator:Inazuma
Version:Normal
Source:Rabi-Ribi
Tags:ost bgm ăƒ©ăƒ“ăƒȘビ piroshki Instrumental
BeatmapID:1918635
BeatmapSetID:873401

[Difficulty]
HPDrainRate:4
CircleSize:2.7
OverallDifficulty:4
ApproachRate:5
SliderMultiplier:1.5
SliderTickRate:1

[Events]
//Background and Video events
0,0,"20181103060238_1.jpg",0,0
//Break Periods
//Storyboard Layer 0 (Background)
//Storyboard Layer 1 (Fail)
//Storyboard Layer 2 (Pass)
//Storyboard Layer 3 (Foreground)
//Storyboard Sound Samples

[TimingPoints]
887,571.428571428571,4,2,1,30,1,0
9458,-100,4,2,1,60,0,0
36315,-100,4,2,1,50,0,0
36886,-100,4,2,1,40,0,0
37458,-100,4,2,1,60,0,1
74029,-100,4,2,40,60,0,0
74172,-100,4,2,47,30,0,0
74315,-100,4,2,40,30,0,0
74458,-100,4,2,47,30,0,0
74601,-100,4,2,44,60,0,0
74744,-100,4,2,47,30,0,0
74886,-100,4,2,40,30,0,0
75029,-100,4,2,47,30,0,0
75172,-100,4,2,44,60,0,0
75315,-100,4,2,47,30,0,0
75458,-100,4,2,40,30,0,0
75601,-100,4,2,44,30,0,0
75744,-100,4,2,40,60,0,0
75886,-100,4,2,44,30,0,0
76029,-100,4,2,48,30,0,0
76172,-100,4,2,41,30,0,0
76315,-100,4,2,42,60,0,0
76458,-100,4,2,49,30,0,0
76601,-100,4,2,42,30,0,0
76744,-100,4,2,49,30,0,0
76886,-100,4,2,45,60,0,0
77029,-100,4,2,49,30,0,0
77172,-100,4,2,42,30,0,0
77315,-100,4,2,49,30,0,0
77458,-100,4,2,45,60,0,0
77601,-100,4,2,49,30,0,0
77744,-100,4,2,42,30,0,0
77886,-100,4,2,45,30,0,0
78029,-100,4,2,42,60,0,0
78172,-100,4,2,45,30,0,0
78315,-100,4,2,50,30,0,0
78458,-100,4,2,43,30,0,0
78601,-100,4,2,44,60,0,0
78744,-100,4,2,40,30,0,0
78886,-100,4,2,44,30,0,0
79029,-100,4,2,40,30,0,0
79172,-100,4,2,46,60,0,0
79315,-100,4,2,40,30,0,0
79458,-100,4,2,44,30,0,0
79601,-100,4,2,40,30,0,0
79744,-100,4,2,46,60,0,0
79886,-100,4,2,40,30,0,0
80029,-100,4,2,44,30,0,0
80172,-100,4,2,46,30,0,0
80315,-100,4,2,44,60,0,0
80458,-100,4,2,46,30,0,0
80601,-100,4,2,41,30,0,0
80744,-100,4,2,46,30,0,0
80886,-100,4,2,44,60,0,0
81029,-100,4,2,40,30,0,0
81172,-100,4,2,44,30,0,0
81315,-100,4,2,40,30,0,0
81458,-100,4,2,46,60,0,0
81601,-100,4,2,40,30,0,0
81744,-100,4,2,44,30,0,0
81886,-100,4,2,40,30,0,0
82029,-100,4,2,45,60,0,0
82172,-100,4,2,49,30,0,0
82315,-100,4,2,42,30,0,0
82458,-100,4,2,49,30,0,0
82601,-100,4,2,45,60,0,0
82744,-100,4,2,49,30,0,0
82886,-100,4,2,42,30,0,0
83029,-100,4,2,49,30,0,0
83173,-100,4,2,40,60,0,0
83316,-100,4,2,47,30,0,0
83458,-100,4,2,40,30,0,0
83601,-100,4,2,47,30,0,0
83744,-100,4,2,44,60,0,0
83887,-100,4,2,47,30,0,0
84030,-100,4,2,40,30,0,0
84173,-100,4,2,47,30,0,0
84315,-100,4,2,44,60,0,0
84458,-100,4,2,47,30,0,0
84601,-100,4,2,40,30,0,0
84744,-100,4,2,44,30,0,0
84888,-100,4,2,40,60,0,0
85030,-100,4,2,44,30,0,0
85173,-100,4,2,48,30,0,0
85316,-100,4,2,41,30,0,0
85459,-100,4,2,42,60,0,0
85602,-100,4,2,49,30,0,0
85745,-100,4,2,42,30,0,0
85888,-100,4,2,49,30,0,0
86030,-100,4,2,45,60,0,0
86173,-100,4,2,49,30,0,0
86316,-100,4,2,42,30,0,0
86459,-100,4,2,49,30,0,0
86602,-100,4,2,45,60,0,0
86745,-100,4,2,49,30,0,0
86888,-100,4,2,42,30,0,0
87030,-100,4,2,45,30,0,0
87173,-100,4,2,42,60,0,0
87316,-100,4,2,45,30,0,0
87459,-100,4,2,50,30,0,0
87602,-100,4,2,43,30,0,0
87745,-100,4,2,44,60,0,0
87888,-100,4,2,40,30,0,0
88030,-100,4,2,44,30,0,0
88173,-100,4,2,40,30,0,0
88316,-100,4,2,46,60,0,0
88459,-100,4,2,40,30,0,0
88601,-100,4,2,44,30,0,0
88745,-100,4,2,40,30,0,0
88888,-100,4,2,46,60,0,0
89030,-100,4,2,40,30,0,0
89173,-100,4,2,44,30,0,0
89316,-100,4,2,46,30,0,0
89459,-100,4,2,44,60,0,0
89602,-100,4,2,46,30,0,0
89745,-100,4,2,41,30,0,0
89888,-100,4,2,46,30,0,0
90029,-100,4,2,46,30,0,0
90030,-100,4,2,44,60,0,0
90173,-100,4,2,40,30,0,0
90316,-100,4,2,44,30,0,0
90459,-100,4,2,40,30,0,0
90602,-100,4,2,46,60,0,0
90745,-100,4,2,40,30,0,0
90888,-100,4,2,44,30,0,0
91030,-100,4,2,40,30,0,0
91172,-100,4,2,40,30,0,0
91173,-100,4,2,49,60,0,0
91315,-100,4,2,2,45,0,0
91458,-100,4,2,2,25,0,0
91601,-100,4,2,2,20,0,0
91744,-100,4,2,2,15,0,0
91886,-100,4,2,2,10,0,0
92029,-100,4,2,2,5,0,0
92315,-100,4,2,40,35,0,0

[Colours]
Combo1 : 37,224,70
Combo2 : 0,255,168
Combo3 : 130,217,238
Combo4 : 120,154,245

[HitObjects]
65,113,887,6,0,P|137:130|212:127,1,150,2|0,0:0|0:0,0:0:0:0:
305,96,1744,1,0,0:0:0:0:
379,32,2029,2,0,P|400:89|345:184,1,150,0|0,0:0|0:0,0:0:0:0:
449,275,3172,6,0,P|378:267|283:301,1,150,2|0,2:2|0:0,0:0:0:0:
212,322,4029,1,0,0:0:0:0:
134,381,4315,2,0,P|112:330|150:232,1,150,0|0,0:0|0:0,0:0:0:0:
246,162,5458,6,0,P|180:142|78:147,1,150,4|0,2:3|0:0,0:0:0:0:
7,174,6315,1,0,0:0:0:0:
83,234,6601,2,0,L|83:385,1,150,0|4,0:0|2:3,0:0:0:0:
180,349,7458,5,0,0:0:0:0:
180,349,7744,2,0,P|225:325|323:326,1,150,4|0,2:3|0:0,0:0:0:0:
450,365,8886,1,0,3:1:0:0:
420,233,9458,1,0,3:3:0:0:
337,126,10029,6,0,P|269:148|185:126,1,150,4|0,0:2|0:0,0:0:0:0:
101,99,10886,1,0,0:0:0:0:
41,176,11172,2,0,P|53:291|100:323,1,150,0|8,0:0|0:0,0:0:0:0:
158,356,12029,1,0,0:0:0:0:
192,264,12315,1,4,0:1:0:0:
299,369,12886,6,0,P|334:368|378:360,1,75,4|0,3:0|0:0,0:0:0:0:
337,269,13458,2,0,P|373:246|412:198,1,75,2|0,0:0|0:0,0:0:0:0:
486,257,14029,2,0,P|495:215|488:153,1,75,0|0,3:0|3:0,0:0:0:0:
448,96,14601,6,0,P|364:82|294:97,1,150,8|0,0:2|0:0,0:0:0:0:
203,158,15458,1,0,0:0:0:0:
284,212,15744,2,0,P|297:293|257:360,1,150,0|4,0:0|3:0,0:0:0:0:
171,370,16601,1,0,0:0:0:0:
98,305,16886,6,0,L|99:149,1,150,8|0,0:0|0:0,0:0:0:0:
98,57,17744,1,0,0:0:0:0:
185,98,18029,2,0,P|267:106|341:98,1,150,0|0,0:0|3:0,0:0:0:0:
410,38,18886,1,0,3:0:0:0:
459,122,19172,6,0,P|483:220|445:286,1,150,6|0,0:0|0:0,0:0:0:0:
385,317,20029,1,4,3:0:0:0:
314,249,20315,2,0,P|216:225|150:263,1,150,0|8,0:0|0:0,0:0:0:0:
85,283,21172,1,0,0:0:0:0:
154,352,21458,1,4,3:0:0:0:
102,200,22029,6,0,P|85:164|82:118,1,75,2|4,0:0|3:0,0:0:0:0:
143,53,22601,2,0,P|180:52|214:67,1,75,2|0,0:0|0:0,0:0:0:0:
253,156,23172,2,0,P|236:192|188:236,1,75,2|0,3:0|3:0,0:0:0:0:
118,242,23744,6,0,P|97:323|133:403,1,150,8|0,0:0|0:0,0:0:0:0:
181,309,24601,1,4,3:0:0:0:
246,237,24886,2,0,P|308:214|404:260,1,150,0|8,0:0|0:0,0:0:0:0:
456,306,25744,1,0,0:0:0:0:
368,349,26029,6,0,L|214:349,1,150,4|0,3:0|0:0,0:0:0:0:
120,345,26886,1,4,3:0:0:0:
175,265,27172,2,0,B|184:188|184:188|174:109,1,150,4|0,3:0|3:0,0:0:0:0:
138,25,28029,1,0,3:0:0:0:
62,88,28315,6,0,P|42:159|61:231,1,150,8|0,0:0|0:0,0:0:0:0:
119,309,29172,1,4,3:0:0:0:
208,347,29458,2,0,P|282:360|357:345,1,150,0|4,0:0|3:0,0:0:0:0:
431,285,30315,1,0,0:0:0:0:
459,191,30601,6,0,P|462:153|452:117,1,75,8|0,0:0|3:0,0:0:0:0:
399,35,31172,1,0,0:0:0:0:
353,121,31458,1,4,3:0:0:0:
307,207,31744,2,0,L|153:207,1,150,0|0,0:0|3:1,0:0:0:0:
84,272,32601,1,0,3:0:0:0:
16,201,32886,6,0,P|1:116|25:50,1,150,8|0,0:0|0:0,0:0:0:0:
110,19,33744,1,4,3:0:0:0:
178,87,34029,2,0,P|265:107|329:90,1,150,0|4,0:0|3:0,0:0:0:0:
396,29,34886,1,0,0:0:0:0:
465,97,35172,2,0,P|431:126|421:229,1,150,8|0,0:0|0:0,0:0:0:0:
463,312,36029,1,4,3:0:0:0:
370,343,36315,6,0,P|287:358|211:343,1,150,0|2,0:0|0:0,0:0:0:0:
132,311,37172,1,0,0:0:0:0:
66,238,37458,6,0,P|51:141|66:84,1,150,6|8,0:0|0:2,0:0:0:0:
136,27,38315,1,0,0:0:0:0:
152,123,38601,2,0,P|224:107|271:118,1,75,2|0,0:0|0:0,0:0:0:0:
317,136,39172,2,0,P|389:152|436:141,1,75,8|0,0:2|3:0,0:0:0:0:
384,54,39744,6,0,P|337:27|234:33,1,150,2|8,0:0|0:2,0:0:0:0:
185,107,40601,1,0,0:0:0:0:
281,115,40886,2,0,P|279:203|229:256,1,150,2|8,0:0|0:2,0:0:0:0:
144,261,41744,1,0,3:1:0:0:
46,266,42029,6,0,L|47:117,1,150,2|8,0:0|0:2,0:0:0:0:
65,20,42886,1,0,0:0:0:0:
154,58,43172,2,0,L|237:85,1,75,2|0,0:0|0:0,0:0:0:0:
315,42,43744,2,0,L|405:25,1,75,8|0,0:2|3:0,0:0:0:0:
485,13,44315,6,0,P|509:96|476:160,1,150,2|8,0:0|0:2,0:0:0:0:
407,211,45172,1,0,0:0:0:0:
429,305,45458,2,0,P|397:328|287:331,1,150,2|8,0:0|0:2,0:0:0:0:
243,317,46172,2,0,L|229:352,2,37.5,0|0|0,0:0|3:1|3:1,0:0:0:0:
203,288,46601,6,0,P|184:200|213:147,1,150,6|8,0:0|0:2,0:0:0:0:
281,83,47458,1,0,0:0:0:0:
298,179,47744,2,0,P|391:199|447:181,1,150,2|8,0:0|0:2,0:0:0:0:
507,111,48601,1,0,3:0:0:0:
434,46,48886,6,0,P|378:25|322:36,1,75,2|0,0:0|0:0,0:0:0:0:
276,70,49458,1,8,0:2:0:0:
192,18,49744,1,0,0:0:0:0:
130,93,50029,2,0,P|118:169|156:235,1,150,2|8,0:0|0:2,0:0:0:0:
243,263,50886,1,0,3:1:0:0:
266,168,51172,6,0,P|335:155|419:184,1,150,2|8,0:0|0:2,0:0:0:0:
488,236,52029,1,0,0:0:0:0:
423,308,52315,2,0,L|254:308,1,150,2|8,0:0|0:2,0:0:0:0:
175,306,53172,1,0,3:1:0:0:
175,306,53458,6,0,P|159:218|178:127,1,150,2|8,0:0|0:2,0:0:0:0:
223,79,54315,1,0,0:0:0:0:
290,8,54601,2,0,P|320:85|281:151,1,150,2|8,0:0|0:2,0:0:0:0:
211,195,55458,1,0,3:1:0:0:
168,219,55601,1,0,3:1:0:0:
145,262,55744,6,0,P|177:315|274:326,1,150,6|8,0:0|0:2,0:0:0:0:
350,297,56601,1,0,0:0:0:0:
429,240,56886,2,0,P|448:207|455:165,1,75,2|0,0:0|0:0,0:0:0:0:
390,97,57458,2,0,P|372:127|364:172,1,75,8|0,0:2|3:1,0:0:0:0:
278,212,58029,6,0,P|206:194|139:223,1,150,2|8,0:0|0:2,0:0:0:0:
86,305,58886,1,0,0:0:0:0:
44,216,59172,2,0,P|16:147|30:75,1,150,2|8,0:0|0:2,0:0:0:0:
112,23,60029,1,0,3:1:0:0:
200,63,60315,6,0,P|221:148|191:204,1,150,2|8,0:0|0:2,0:0:0:0:
113,255,61172,1,0,0:0:0:0:
204,288,61458,2,0,L|276:307,1,75,2|0,0:0|0:0,0:0:0:0:
369,278,62029,2,0,L|441:258,1,75,8|0,0:2|3:1,0:0:0:0:
421,162,62601,6,0,P|448:80|427:18,1,150,2|8,0:0|0:2,0:0:0:0:
349,78,63458,1,0,0:0:0:0:
272,138,63744,2,0,P|215:91|141:93,1,150,2|8,0:0|0:2,0:0:0:0:
96,111,64458,2,0,L|78:70,2,37.5,0|0|0,0:0|3:1|3:1,0:0:0:0:
60,144,64886,6,0,P|42:216|50:290,1,150,4|8,0:0|0:2,0:0:0:0:
87,380,65744,1,0,0:0:0:0:
151,307,66029,2,0,P|224:293|298:304,1,150,4|8,0:1|0:2,0:0:0:0:
382,353,66886,1,0,3:1:0:0:
404,258,67172,6,0,P|409:220|405:152,1,75,2|0,0:0|0:0,0:0:0:0:
356,100,67744,1,8,0:2:0:0:
268,143,68029,1,0,0:0:0:0:
219,58,68315,2,0,P|145:45|71:56,1,150,2|8,0:0|0:2,0:0:0:0:
3,125,69172,1,0,3:1:0:0:
93,160,69458,6,0,P|62:225|93:324,1,150,2|8,0:0|0:2,0:0:0:0:
147,365,70315,1,0,0:0:0:0:
164,268,70601,2,0,P|236:249|308:267,1,150,4|8,0:1|0:2,0:0:0:0:
376,336,71458,1,0,3:1:0:0:
452,275,71744,6,0,P|472:203|449:133,1,150,2|8,0:0|0:2,0:0:0:0:
366,81,72601,1,0,0:0:0:0:
293,146,72886,2,0,L|143:146,1,150,2|8,0:0|0:2,0:0:0:0:
45,146,73744,1,0,3:1:0:0:
97,227,74029,6,0,P|78:319|95:376,1,150,6|2,0:0|0:0,0:0:0:0:
210,304,75172,2,0,P|225:231|205:159,1,150,2|2,0:0|0:0,0:0:0:0:
107,66,76315,5,6,0:0:0:0:
24,172,76886,1,2,0:0:0:0:
133,250,77458,5,2,0:0:0:0:
222,148,78029,1,2,0:0:0:0:
336,219,78601,6,0,P|352:133|325:66,1,150,6|2,0:0|0:0,0:0:0:0:
222,148,79744,2,0,P|200:218|217:291,1,150,2|2,0:0|0:0,0:0:0:0:
319,378,80886,5,6,0:0:0:0:
290,246,81457,1,2,0:0:0:0:
216,132,82029,5,6,0:0:0:0:
159,254,82600,1,6,0:0:0:0:
290,246,83172,6,0,P|363:237|477:265,1,150,6|2,0:0|0:0,0:0:0:0:
337,339,84315,2,0,P|262:347|189:335,1,150,2|2,0:0|0:0,0:0:0:0:
102,231,85458,5,6,0:0:0:0:
123,97,86029,1,2,0:0:0:0:
257,111,86601,5,2,0:0:0:0:
241,244,87172,1,2,0:0:0:0:
357,176,87744,6,0,P|377:238|348:328,1,150,6|2,0:0|0:0,0:0:0:0:
241,244,88886,2,0,P|220:173|240:102,1,150,2|2,0:0|0:0,0:0:0:0:
351,25,90029,5,6,0:0:0:0:
322,156,90600,1,2,0:0:0:0:
455,178,91172,5,6,0:0:0:0:
477,45,91743,1,2,0:0:0:0:
347,85,92315,5,6,0:0:0:0:
