osu file format v14

[General]
AudioFilename: audio.mp3
AudioLeadIn: 0
PreviewTime: 36886
Countdown: 0
SampleSet: Soft
StackLeniency: 0.4
Mode: 0
LetterboxInBreaks: 0
WidescreenStoryboard: 1

[Editor]
Bookmarks: 887,10029,14458,19172,28315,37458,39172,43601,55744,74029,88029
DistanceSpacing: 0.7
BeatDivisor: 4
GridSize: 16
TimelineZoom: 3.299999

[Metadata]
Title:Rabi Rabi Park
TitleUnicode:Rabi Rabi Park
Artist:Triodust
ArtistUnicode:Triodust
Creator:Inazuma
Version:Insane
Source:Rabi-Ribi
Tags:ost bgm ăƒ©ăƒ“ăƒȘビ piroshki Instrumental
BeatmapID:1979813
BeatmapSetID:873401

[Difficulty]
HPDrainRate:5
CircleSize:4.6
OverallDifficulty:7
ApproachRate:8.5
SliderMultiplier:2.1
SliderTickRate:1

[Events]
//Background and Video events
0,0,"20181103060238_1.jpg",0,0
//Break Periods
//Storyboard Layer 0 (Background)
//Storyboard Layer 1 (Fail)
//Storyboard Layer 2 (Pass)
//Storyboard Layer 3 (Foreground)
//Storyboard Sound Samples

[TimingPoints]
887,571.428571428571,4,2,1,30,1,0
9458,-125,4,2,1,60,0,0
10029,-90.9090909090909,4,2,1,60,0,0
36315,-90.9090909090909,4,2,1,50,0,0
36886,-100,4,2,1,40,0,0
37458,-83.3333333333333,4,2,1,60,0,1
74029,-100,4,2,40,60,0,0
74172,-100,4,2,47,30,0,0
74315,-100,4,2,40,30,0,0
74458,-100,4,2,47,30,0,0
74601,-100,4,2,44,60,0,0
74744,-100,4,2,47,30,0,0
74886,-100,4,2,40,30,0,0
75029,-100,4,2,47,30,0,0
75172,-100,4,2,44,60,0,0
75315,-100,4,2,47,30,0,0
75458,-100,4,2,40,30,0,0
75601,-100,4,2,44,30,0,0
75744,-100,4,2,40,60,0,0
75886,-100,4,2,44,30,0,0
76029,-100,4,2,48,30,0,0
76172,-100,4,2,41,30,0,0
76315,-100,4,2,42,60,0,0
76458,-100,4,2,49,30,0,0
76601,-100,4,2,42,30,0,0
76744,-100,4,2,49,30,0,0
76886,-100,4,2,45,60,0,0
77029,-100,4,2,49,30,0,0
77172,-100,4,2,42,30,0,0
77315,-100,4,2,49,30,0,0
77458,-100,4,2,45,60,0,0
77601,-100,4,2,49,30,0,0
77744,-100,4,2,42,30,0,0
77886,-100,4,2,45,30,0,0
78029,-100,4,2,42,60,0,0
78172,-100,4,2,45,30,0,0
78315,-100,4,2,50,30,0,0
78458,-100,4,2,43,30,0,0
78601,-100,4,2,44,60,0,0
78744,-100,4,2,40,30,0,0
78886,-100,4,2,44,30,0,0
79029,-100,4,2,40,30,0,0
79172,-100,4,2,46,60,0,0
79315,-100,4,2,40,30,0,0
79458,-100,4,2,44,30,0,0
79601,-100,4,2,40,30,0,0
79744,-100,4,2,46,60,0,0
79886,-100,4,2,40,30,0,0
80029,-100,4,2,44,30,0,0
80172,-100,4,2,46,30,0,0
80315,-100,4,2,44,60,0,0
80458,-100,4,2,46,30,0,0
80601,-100,4,2,41,30,0,0
80744,-100,4,2,46,30,0,0
80886,-100,4,2,44,60,0,0
81029,-100,4,2,40,30,0,0
81172,-100,4,2,44,30,0,0
81315,-100,4,2,40,30,0,0
81458,-100,4,2,46,60,0,0
81601,-100,4,2,40,30,0,0
81744,-100,4,2,44,30,0,0
81886,-100,4,2,40,30,0,0
82029,-100,4,2,45,60,0,0
82172,-100,4,2,49,30,0,0
82315,-100,4,2,42,30,0,0
82458,-100,4,2,49,30,0,0
82601,-100,4,2,45,60,0,0
82744,-100,4,2,49,30,0,0
82886,-100,4,2,42,30,0,0
83029,-100,4,2,49,30,0,0
83173,-100,4,2,40,60,0,0
83316,-100,4,2,47,30,0,0
83458,-100,4,2,40,30,0,0
83601,-100,4,2,47,30,0,0
83744,-100,4,2,44,60,0,0
83887,-100,4,2,47,30,0,0
84030,-100,4,2,40,30,0,0
84173,-100,4,2,47,30,0,0
84315,-100,4,2,44,60,0,0
84458,-100,4,2,47,30,0,0
84601,-100,4,2,40,30,0,0
84744,-100,4,2,44,30,0,0
84888,-100,4,2,40,60,0,0
85030,-100,4,2,44,30,0,0
85173,-100,4,2,48,30,0,0
85316,-100,4,2,41,30,0,0
85459,-100,4,2,42,60,0,0
85602,-100,4,2,49,30,0,0
85745,-100,4,2,42,30,0,0
85888,-100,4,2,49,30,0,0
86030,-100,4,2,45,60,0,0
86173,-100,4,2,49,30,0,0
86316,-100,4,2,42,30,0,0
86459,-100,4,2,49,30,0,0
86602,-100,4,2,45,60,0,0
86745,-100,4,2,49,30,0,0
86888,-100,4,2,42,30,0,0
87030,-100,4,2,45,30,0,0
87173,-100,4,2,42,60,0,0
87316,-100,4,2,45,30,0,0
87459,-100,4,2,50,30,0,0
87602,-100,4,2,43,30,0,0
87745,-100,4,2,44,60,0,0
87888,-100,4,2,40,30,0,0
88030,-100,4,2,44,30,0,0
88173,-100,4,2,40,30,0,0
88316,-100,4,2,46,60,0,0
88459,-100,4,2,40,30,0,0
88601,-100,4,2,44,30,0,0
88745,-100,4,2,40,30,0,0
88888,-100,4,2,46,60,0,0
89030,-100,4,2,40,30,0,0
89173,-100,4,2,44,30,0,0
89316,-100,4,2,46,30,0,0
89459,-100,4,2,44,60,0,0
89602,-100,4,2,46,30,0,0
89745,-100,4,2,41,30,0,0
89888,-100,4,2,46,30,0,0
90030,-100,4,2,44,60,0,0
90173,-100,4,2,40,30,0,0
90316,-100,4,2,44,30,0,0
90459,-100,4,2,40,30,0,0
90602,-100,4,2,46,60,0,0
90745,-100,4,2,40,30,0,0
90888,-100,4,2,44,30,0,0
91030,-100,4,2,40,30,0,0
91173,-100,4,2,49,60,0,0
91315,-100,4,2,2,45,0,0
91458,-100,4,2,2,25,0,0
91601,-100,4,2,2,20,0,0
91744,-100,4,2,2,15,0,0
91886,-100,4,2,2,10,0,0
92029,-100,4,2,2,5,0,0
92315,-100,4,2,40,35,0,0

[Colours]
Combo1 : 37,224,70
Combo2 : 0,255,168
Combo3 : 210,241,249
Combo4 : 120,154,245

[HitObjects]
129,101,887,6,0,P|197:102|288:133,1,157.5,2|0,0:0|0:0,0:0:0:0:
332,172,1458,1,0,0:0:0:0:
382,15,1744,1,0,0:0:0:0:
409,130,2029,1,0,0:0:0:0:
512,176,2458,1,0,0:0:0:0:
512,176,2601,1,0,0:0:0:0:
501,334,3172,6,0,B|462:319|462:319|309:328,1,157.5,2|0,2:2|0:0,0:0:0:0:
280,332,3744,1,0,0:0:0:0:
117,354,4029,1,0,0:0:0:0:
206,275,4315,1,0,0:0:0:0:
148,188,4744,1,0,0:0:0:0:
148,188,4886,1,0,0:0:0:0:
86,24,5458,6,0,B|63:34|53:51|53:51|62:102|54:175,1,157.5,4|0,2:3|0:0,0:0:0:0:
31,245,6029,1,0,0:0:0:0:
137,107,6315,1,0,0:0:0:0:
225,168,6601,1,0,0:0:0:0:
422,48,7172,6,0,L|289:48,1,105,4|0,2:3|0:0,0:0:0:0:
238,50,7601,1,0,0:0:0:0:
362,124,7744,2,0,P|378:191|354:283,1,157.5,4|0,2:3|0:0,0:0:0:0:
316,342,8315,1,0,0:0:0:0:
299,197,8744,1,0,0:0:0:0:
224,162,8886,6,0,P|158:154|62:206,1,157.5,0|0,3:1|0:0,0:0:0:0:
80,223,9458,2,0,P|106:275|99:332,1,84,0|0,3:3|0:0,0:0:0:0:
31,83,10029,6,0,P|92:51|171:57,1,115.50000352478,4|0,0:2|0:0,0:0:0:0:
256,77,10601,1,0,0:0:0:0:
108,126,10886,1,0,0:0:0:0:
196,155,11172,2,0,B|236:171|236:171|236:314,1,173.250005287171,0|0,0:0|0:0,0:0:0:0:
235,378,11744,1,8,0:0:0:0:
167,222,12029,1,0,0:0:0:0:
311,198,12315,6,0,P|365:182|410:130,1,115.50000352478,4|0,0:1|0:0,0:0:0:0:
510,284,12886,2,0,P|456:268|411:216,1,115.50000352478,4|0,3:0|0:0,0:0:0:0:
307,297,13458,2,0,B|261:297|261:297|180:334|180:334|117:334,1,173.250005287171,2|0,0:0|0:0,0:0:0:0:
101,335,14029,1,0,3:0:0:0:
62,322,14172,1,0,3:0:0:0:
36,290,14315,1,0,3:0:0:0:
31,249,14458,1,0,3:0:0:0:
38,209,14601,6,0,B|59:145|59:145|92:98,1,115.50000352478,8|0,0:2|0:0,0:0:0:0:
154,60,15172,1,0,0:0:0:0:
143,196,15458,1,0,0:0:0:0:
211,131,15744,2,0,P|273:110|390:144,1,173.250005287171,0|0,0:0|0:0,0:0:0:0:
391,253,16315,1,4,3:0:0:0:
490,149,16601,1,0,0:0:0:0:
440,331,16886,6,0,P|473:261|464:210,1,115.50000352478,8|0,0:0|0:0,0:0:0:0:
420,133,17458,1,0,0:0:0:0:
295,272,17744,1,0,0:0:0:0:
349,322,18029,2,0,P|367:252|257:212,1,173.250005287171,0|0,0:0|0:0,0:0:0:0:
255,213,18601,1,0,3:0:0:0:
227,242,18744,1,0,3:0:0:0:
216,280,18886,1,0,3:0:0:0:
225,319,19029,1,0,3:0:0:0:
247,352,19172,6,0,L|115:352,1,115.50000352478,6|0,0:0|0:0,0:0:0:0:
11,353,19744,1,0,0:0:0:0:
150,264,20029,1,4,3:0:0:0:
62,234,20315,2,0,B|62:92|62:92|89:128,1,173.250005287171,0|0,0:0|0:0,0:0:0:0:
133,175,20886,1,8,0:0:0:0:
200,67,21172,1,0,0:0:0:0:
390,110,21458,6,0,P|328:104|266:126,1,115.50000352478,4|0,3:0|0:0,0:0:0:0:
133,175,22029,2,0,P|195:169|257:191,1,115.50000352478,2|4,0:0|3:0,0:0:0:0:
409,242,22601,2,0,B|490:271|521:327|521:327|483:321|453:321,1,173.250005287171,2|0,0:0|0:0,0:0:0:0:
451,320,23172,1,2,3:0:0:0:
411,313,23315,1,0,3:0:0:0:
370,313,23458,1,0,3:0:0:0:
331,324,23601,1,0,3:0:0:0:
295,343,23744,6,0,P|218:349|171:321,1,115.50000352478,8|0,0:0|0:0,0:0:0:0:
76,273,24315,1,0,0:0:0:0:
201,265,24601,1,4,3:0:0:0:
124,209,24886,2,0,B|106:123|106:123|154:44,1,173.250005287171,0|0,0:0|0:0,0:0:0:0:
211,1,25458,1,8,0:0:0:0:
254,123,25744,1,0,0:0:0:0:
442,74,26029,6,0,L|319:74,1,115.50000352478,4|0,3:0|0:0,0:0:0:0:
210,75,26601,1,0,0:0:0:0:
364,152,26886,1,4,3:0:0:0:
287,195,27172,2,0,B|262:257|301:338|301:338|317:315,1,173.250005287171,4|0,3:0|0:0,0:0:0:0:
343,289,27744,1,0,3:0:0:0:
381,278,27886,1,0,3:0:0:0:
421,282,28029,1,0,3:0:0:0:
458,297,28172,1,0,3:0:0:0:
484,327,28315,6,0,B|436:360|436:360|361:363,1,115.50000352478,8|0,0:0|3:0,0:0:0:0:
259,368,28886,1,0,0:0:0:0:
77,325,29172,1,4,3:0:0:0:
168,294,29458,2,0,B|205:279|205:279|225:148,1,173.250005287171,0|0,0:0|0:0,0:0:0:0:
244,46,30029,1,4,3:0:0:0:
302,261,30315,1,0,0:0:0:0:
344,86,30601,6,0,L|355:212,1,115.50000352478,8|0,0:0|3:0,0:0:0:0:
366,345,31172,1,0,0:0:0:0:
425,125,31458,1,4,3:0:0:0:
512,276,31744,2,0,B|427:266|427:266|312:277,1,173.250005287171,0|0,0:0|0:0,0:0:0:0:
294,283,32315,1,0,3:1:0:0:
248,292,32458,1,0,3:0:0:0:
202,302,32601,1,0,3:0:0:0:
156,312,32744,1,0,3:0:0:0:
112,326,32886,6,0,B|57:342|57:342|-2:320,1,115.50000352478,8|0,0:0|3:0,0:0:0:0:
128,242,33458,1,0,0:0:0:0:
12,97,33744,1,4,3:0:0:0:
29,205,34029,2,0,P|102:167|230:175,1,173.250005287171,0|0,0:0|0:0,0:0:0:0:
292,186,34601,1,4,3:0:0:0:
189,79,34886,1,0,0:0:0:0:
125,230,35172,6,0,L|120:360,1,115.50000352478,8|0,0:0|3:0,0:0:0:0:
191,161,35744,1,0,0:0:0:0:
296,311,36029,1,4,3:0:0:0:
464,220,36315,2,0,L|270:231,1,173.250005287171,0|0,0:0|0:0,0:0:0:0:
172,240,36886,5,2,0:0:0:0:
172,240,37172,1,0,0:0:0:0:
34,354,37458,6,0,B|11:299|11:299|21:224,1,125.999996154785,6|0,0:0|0:0,0:0:0:0:
40,157,37886,1,0,0:0:0:0:
97,220,38029,1,8,0:2:0:0:
150,58,38315,1,0,0:0:0:0:
225,115,38601,2,0,B|315:143|315:143|416:115,1,188.999994232178,2|0,0:0|0:0,0:0:0:0:
469,86,39172,1,8,0:2:0:0:
423,187,39315,1,0,3:0:0:0:
491,159,39458,1,0,3:0:0:0:
479,267,39744,6,0,B|448:319|448:319|374:349,1,125.999996154785,2|0,0:0|0:0,0:0:0:0:
313,365,40172,1,0,0:0:0:0:
329,288,40315,1,8,0:2:0:0:
165,332,40601,1,0,0:0:0:0:
165,332,40744,1,0,0:0:0:0:
165,332,40886,2,0,B|192:261|192:261|190:134,1,188.999994232178,2|0,0:0|0:0,0:0:0:0:
186,58,41458,1,8,0:2:0:0:
129,117,41601,1,0,0:0:0:0:
252,88,41744,2,0,L|320:66,1,62.9999980773926,0|0,3:1|3:1,0:0:0:0:
424,31,42029,6,0,B|442:97|442:97|428:203,1,125.999996154785,2|0,0:0|0:0,0:0:0:0:
406,228,42458,1,0,0:0:0:0:
358,158,42601,1,8,0:2:0:0:
310,323,42886,1,0,0:0:0:0:
310,323,43172,6,0,P|259:348|169:348,1,125.999996154785,2|0,0:0|0:0,0:0:0:0:
125,215,43744,2,0,P|172:257|231:279,1,125.999996154785,8|0,0:2|3:0,0:0:0:0:
202,180,44315,2,0,P|177:128|177:39,1,125.999996154785,2|0,0:0|0:0,0:0:0:0:
234,0,44744,1,0,0:0:0:0:
320,11,44886,1,8,0:2:0:0:
269,104,45172,2,0,L|268:178,1,62.9999980773926,0|0,0:0|0:0,0:0:0:0:
304,232,45458,2,0,P|272:299|240:221,1,188.999994232178,2|0,0:0|0:0,0:0:0:0:
268,166,46029,1,8,0:2:0:0:
163,222,46172,1,0,0:0:0:0:
191,141,46315,2,0,L|115:133,1,62.9999980773926,0|0,3:1|3:1,0:0:0:0:
11,116,46601,6,0,B|-2:182|-2:182|13:256,1,125.999996154785,6|0,0:0|0:0,0:0:0:0:
42,312,47029,1,0,0:0:0:0:
82,237,47172,1,8,0:2:0:0:
185,363,47458,1,0,0:0:0:0:
245,315,47744,2,0,B|327:281|327:281|447:315,1,188.999994232178,2|0,0:0|0:0,0:0:0:0:
490,337,48315,1,8,0:2:0:0:
487,261,48458,1,0,3:0:0:0:
370,359,48601,1,0,3:0:0:0:
251,243,48886,6,0,P|207:167|218:81,1,125.999996154785,2|0,0:0|0:0,0:0:0:0:
220,52,49315,1,0,0:0:0:0:
283,110,49458,1,8,0:2:0:0:
507,40,49744,1,0,0:0:0:0:
507,40,49886,1,0,0:0:0:0:
507,40,50029,2,0,B|434:27|364:77|364:77|387:75|401:82,1,188.999994232178,2|0,0:0|0:0,0:0:0:0:
463,105,50601,1,8,0:2:0:0:
370,144,50744,1,0,0:0:0:0:
452,177,50886,2,0,P|473:211|480:240,1,62.9999980773926,0|0,3:1|3:1,0:0:0:0:
482,323,51172,6,0,B|417:307|340:322,1,125.999996154785,2|0,0:0|0:0,0:0:0:0:
285,352,51601,1,0,0:0:0:0:
288,269,51744,1,8,0:2:0:0:
105,340,52029,1,0,0:0:0:0:
148,281,52315,2,0,B|156:200|112:137|112:137|99:157|93:191,1,188.999994232178,2|0,0:0|0:0,0:0:0:0:
79,235,52886,1,8,0:2:0:0:
40,117,53029,1,0,3:1:0:0:
8,192,53172,1,0,3:1:0:0:
161,90,53458,6,0,P|243:74|295:88,1,125.999996154785,2|0,0:0|0:0,0:0:0:0:
344,122,53886,1,0,0:0:0:0:
321,26,54029,1,8,0:2:0:0:
225,147,54315,1,0,0:0:0:0:
225,147,54458,1,0,0:0:0:0:
225,147,54601,2,0,B|254:170|254:170|254:331,1,188.999994232178,2|0,0:0|0:0,0:0:0:0:
254,384,55172,1,8,0:2:0:0:
186,329,55315,1,0,0:0:0:0:
315,289,55458,2,0,L|385:271,1,62.9999980773926,0|0,3:1|3:1,0:0:0:0:
509,293,55744,6,0,B|508:238|508:238|475:175,1,125.999996154785,6|0,0:0|0:0,0:0:0:0:
425,114,56172,1,0,0:0:0:0:
391,192,56315,1,8,0:2:0:0:
298,39,56601,1,0,0:0:0:0:
248,124,56886,2,0,B|154:109|154:109|40:133,1,188.999994232178,2|0,0:0|0:0,0:0:0:0:
1,154,57458,1,8,0:2:0:0:
55,200,57601,1,0,3:1:0:0:
0,285,57744,1,0,3:1:0:0:
114,244,58029,6,0,B|170:225|239:239,1,125.999996154785,2|0,0:0|0:0,0:0:0:0:
311,271,58458,1,0,0:0:0:0:
290,186,58601,1,8,0:2:0:0:
409,337,58886,1,0,0:0:0:0:
409,337,59029,1,0,0:0:0:0:
409,337,59172,2,0,B|431:304|431:304|437:144,1,188.999994232178,2|0,0:0|0:0,0:0:0:0:
440,80,59744,1,8,0:2:0:0:
371,128,59886,1,0,0:0:0:0:
502,175,60029,2,0,L|511:249,1,62.9999980773926,0|0,3:1|3:1,0:0:0:0:
495,363,60315,6,0,B|461:351|461:351|348:357,1,125.999996154785,2|0,0:0|0:0,0:0:0:0:
293,360,60744,1,0,0:0:0:0:
234,292,60886,1,8,0:2:0:0:
62,357,61172,1,0,0:0:0:0:
85,182,61458,6,0,L|115:323,1,125.999996154785,2|0,0:0|0:0,0:0:0:0:
195,180,62029,2,0,L|221:56,1,125.999996154785,8|0,0:2|3:1,0:0:0:0:
304,139,62601,2,0,P|387:119|435:130,1,125.999996154785,2|0,0:0|0:0,0:0:0:0:
499,151,63029,1,0,0:0:0:0:
483,78,63172,1,8,0:2:0:0:
442,301,63458,1,0,0:0:0:0:
442,301,63601,1,0,0:0:0:0:
442,301,63744,2,0,B|365:287|365:287|237:317,1,188.999994232178,2|0,0:0|0:0,0:0:0:0:
187,340,64315,1,8,0:2:0:0:
248,381,64458,1,0,0:0:0:0:
277,237,64601,2,0,L|291:157,1,62.9999980773926,0|0,3:1|3:1,0:0:0:0:
311,65,64886,6,0,B|245:92|245:92|155:95,1,125.999996154785,4|0,0:0|0:0,0:0:0:0:
106,88,65315,1,0,0:0:0:0:
140,164,65458,1,8,0:2:0:0:
25,236,65744,1,0,0:0:0:0:
105,287,66029,2,0,B|145:308|145:308|309:287,1,188.999994232178,4|0,0:1|0:0,0:0:0:0:
361,275,66601,1,8,0:2:0:0:
304,218,66744,1,0,3:1:0:0:
343,353,66886,1,0,3:1:0:0:
343,353,67172,6,0,L|198:372,1,125.999996154785,2|0,0:0|0:0,0:0:0:0:
150,383,67601,1,0,0:0:0:0:
166,302,67744,1,8,0:2:0:0:
41,184,68029,1,0,0:0:0:0:
41,184,68172,1,0,0:0:0:0:
41,184,68315,2,0,B|89:204|89:204|241:189,1,188.999994232178,2|0,0:0|0:0,0:0:0:0:
296,182,68886,1,8,0:2:0:0:
250,116,69029,1,0,0:0:0:0:
195,261,69172,2,0,L|171:326,1,62.9999980773926,0|0,3:1|3:1,0:0:0:0:
117,384,69458,6,0,L|94:247,1,125.999996154785,2|0,0:0|0:0,0:0:0:0:
79,186,69886,1,0,0:0:0:0:
25,252,70029,1,8,0:2:0:0:
194,191,70315,1,0,0:0:0:0:
252,241,70601,2,0,B|397:230|397:230|344:203,1,188.999994232178,4|0,0:1|0:0,0:0:0:0:
296,170,71172,1,8,0:2:0:0:
357,126,71315,1,0,3:1:0:0:
329,306,71458,1,0,3:1:0:0:
76,366,71744,6,0,L|217:359,1,125.999996154785,2|0,0:0|0:0,0:0:0:0:
276,352,72172,1,0,0:0:0:0:
190,291,72315,1,8,0:2:0:0:
400,343,72601,1,0,0:0:0:0:
400,343,72744,1,0,0:0:0:0:
400,343,72886,2,0,B|420:317|420:317|432:142,1,188.999994232178,2|0,0:0|0:0,0:0:0:0:
436,84,73458,1,8,0:2:0:0:
436,84,73601,1,0,0:0:0:0:
358,117,73744,1,0,3:1:0:0:
358,117,73886,1,0,3:1:0:0:
268,78,74029,6,0,L|204:92,1,52.5,6|2,0:0|0:0,0:0:0:0:
206,162,74315,2,0,L|142:147,1,52.5,2|2,0:0|0:0,0:0:0:0:
268,78,74601,2,0,L|204:92,1,52.5,2|2,0:0|0:0,0:0:0:0:
206,162,74887,2,0,L|142:147,1,52.5,2|2,0:0|0:0,0:0:0:0:
83,132,75172,5,2,0:0:0:0:
64,164,75315,1,2,0:0:0:0:
61,200,75458,1,2,0:0:0:0:
72,234,75601,1,2,0:0:0:0:
119,233,75744,5,2,0:0:0:0:
164,243,75886,1,2,0:0:0:0:
205,265,76029,1,2,0:0:0:0:
234,302,76172,1,2,0:0:0:0:
258,376,76315,6,0,L|321:350,1,52.5,6|2,0:0|0:0,0:0:0:0:
340,289,76601,2,0,L|388:309,1,52.5,2|2,0:0|0:0,0:0:0:0:
258,376,76886,2,0,L|321:350,1,52.5,2|2,0:0|0:0,0:0:0:0:
340,289,77172,2,0,L|388:309,1,52.5,2|2,0:0|0:0,0:0:0:0:
454,343,77458,5,2,0:0:0:0:
470,309,77601,1,2,0:0:0:0:
474,272,77744,1,2,0:0:0:0:
462,237,77886,1,2,0:0:0:0:
432,199,78029,5,2,0:0:0:0:
387,181,78172,1,2,0:0:0:0:
339,184,78315,1,2,0:0:0:0:
296,205,78458,1,2,0:0:0:0:
240,255,78601,6,0,L|191:298,1,52.5,6|2,0:0|0:0,0:0:0:0:
177,219,78886,2,0,L|137:184,1,52.5,2|2,0:0|0:0,0:0:0:0:
240,255,79172,2,0,L|191:298,1,52.5,2|2,0:0|0:0,0:0:0:0:
177,219,79458,2,0,L|137:184,1,52.5,2|2,0:0|0:0,0:0:0:0:
79,137,79744,5,2,0:0:0:0:
99,106,79886,1,2,0:0:0:0:
131,89,80029,1,2,0:0:0:0:
167,83,80172,1,2,0:0:0:0:
207,107,80315,5,2,0:0:0:0:
253,115,80458,1,2,0:0:0:0:
300,110,80601,1,2,0:0:0:0:
342,90,80744,1,2,0:0:0:0:
402,33,80886,6,0,L|435:109,3,52.5,6|2|2|2,0:0|0:0|0:0|0:0,0:0:0:0:
470,184,81458,2,0,L|490:135,3,52.5,2|2|2|2,0:0|0:0|0:0|0:0,0:0:0:0:
384,206,82029,6,0,L|417:282,3,52.5,6|2|2|2,0:0|0:0|0:0|0:0,0:0:0:0:
512,300,82601,2,0,L|429:290,3,52.5,6|2|2|2,0:0|0:0|0:0|0:0,0:0:0:0:
359,364,83172,6,0,L|391:322,1,52.5,6|2,0:0|0:0,0:0:0:0:
318,305,83458,2,0,L|275:273,1,52.5,2|2,0:0|0:0,0:0:0:0:
359,364,83744,2,0,L|391:322,1,52.5,2|2,0:0|0:0,0:0:0:0:
318,305,84030,2,0,L|275:273,1,52.5,2|2,0:0|0:0,0:0:0:0:
214,233,84315,5,2,0:0:0:0:
178,222,84458,1,2,0:0:0:0:
141,221,84601,1,2,0:0:0:0:
105,231,84744,1,2,0:0:0:0:
69,261,84886,5,2,0:0:0:0:
116,264,85029,1,2,0:0:0:0:
159,281,85172,1,2,0:0:0:0:
195,311,85315,1,2,0:0:0:0:
231,373,85458,6,0,L|302:361,1,52.5,6|2,0:0|0:0,0:0:0:0:
289,290,85744,2,0,L|340:298,1,52.5,2|2,0:0|0:0,0:0:0:0:
231,373,86029,2,0,L|302:361,1,52.5,2|2,0:0|0:0,0:0:0:0:
289,290,86315,2,0,L|340:298,1,52.5,2|2,0:0|0:0,0:0:0:0:
412,316,86601,5,2,0:0:0:0:
430,283,86744,1,2,0:0:0:0:
437,247,86886,1,2,0:0:0:0:
429,210,87029,1,2,0:0:0:0:
409,166,87172,5,2,0:0:0:0:
402,119,87315,1,2,0:0:0:0:
415,73,87458,1,2,0:0:0:0:
452,43,87601,1,2,0:0:0:0:
479,115,87744,6,0,L|484:191,1,52.5,6|2,0:0|0:0,0:0:0:0:
351,208,88029,2,0,L|347:155,1,52.5,2|2,0:0|0:0,0:0:0:0:
479,115,88315,2,0,L|484:191,1,52.5,2|2,0:0|0:0,0:0:0:0:
351,208,88601,2,0,L|347:155,1,52.5,2|2,0:0|0:0,0:0:0:0:
341,81,88886,5,2,0:0:0:0:
307,66,89029,1,2,0:0:0:0:
270,62,89172,1,2,0:0:0:0:
234,71,89315,1,2,0:0:0:0:
193,95,89458,5,2,0:0:0:0:
146,102,89601,1,2,0:0:0:0:
98,101,89744,1,2,0:0:0:0:
55,80,89886,1,2,0:0:0:0:
7,17,90029,6,0,L|-17:78,3,52.5,6|2|2|2,0:0|0:0|0:0|0:0,0:0:0:0:
28,148,90601,2,0,L|47:196,3,52.5,2|2|2|2,0:0|0:0|0:0|0:0,0:0:0:0:
122,191,91172,2,0,L|160:227,3,52.5,6|2|2|2,0:0|0:0|0:0|0:0,0:0:0:0:
216,195,91744,2,0,L|265:211,3,52.5,2|2|0|0,0:0|0:0|0:0|0:0,0:0:0:0:
428,276,92315,5,6,0:0:0:0:
