osu file format v14

[General]
AudioFilename: audio.mp3
AudioLeadIn: 0
PreviewTime: 838
Countdown: 1
SampleSet: Soft
StackLeniency: 0.7
Mode: 0
LetterboxInBreaks: 0
WidescreenStoryboard: 1

[Editor]
DistanceSpacing: 1
BeatDivisor: 2
GridSize: 8
TimelineZoom: 1

[Metadata]
Title:RFN - III
TitleUnicode:RFN - III
Artist:Triodust
ArtistUnicode:Triodust
Creator:jason9400907
Version:Irisu AR10
Source:Rabi-Ribi
Tags:Rabi-Ribi Final Boss Theme
BeatmapID:947509
BeatmapSetID:437581

[Difficulty]
HPDrainRate:3
CircleSize:4
OverallDifficulty:8
ApproachRate:10
SliderMultiplier:1.6
SliderTickRate:1

[Events]
//Background and Video events
0,0,"10.jpg",0,0
//Break Periods
//Storyboard Layer 0 (Background)
//Storyboard Layer 1 (Fail)
//Storyboard Layer 2 (Pass)
//Storyboard Layer 3 (Foreground)
//Storyboard Sound Samples

[TimingPoints]
838,214.285714285714,4,2,1,20,1,0
838,-200,4,2,1,20,0,0
14552,-200,4,2,1,30,0,0
21409,-200,4,2,1,50,0,0
35123,-133.333333333333,4,2,1,60,0,1
62552,-133.333333333333,4,2,1,60,0,0
76266,-133.333333333333,4,2,1,40,0,0
89980,-133.333333333333,4,2,1,50,0,0
103695,-133.333333333333,4,2,1,40,0,0
117409,-133.333333333333,4,2,1,60,0,1
144837,-133.333333333333,4,2,1,60,0,0
158552,-133.333333333333,4,2,1,40,0,0
172266,-133.333333333333,4,2,1,50,0,0
185980,-133.333333333333,4,2,1,40,0,0
199695,-133.333333333333,4,2,1,50,0,1

[Colours]
Combo1 : 128,0,128
Combo2 : 255,128,128
Combo3 : 255,169,83
Combo4 : 255,255,128
Combo5 : 128,255,128
Combo6 : 128,255,255
Combo7 : 0,128,255

[HitObjects]
48,120,838,5,0,0:0:0:0:
85,134,945,1,0,0:0:0:0:
122,147,1052,1,0,0:0:0:0:
162,144,1159,1,0,0:0:0:0:
200,133,1266,1,0,0:0:0:0:
239,123,1373,1,0,0:0:0:0:
279,121,1480,1,0,0:0:0:0:
318,127,1587,1,0,0:0:0:0:
357,137,1695,5,0,0:0:0:0:
396,144,1802,1,0,0:0:0:0:
436,139,1909,1,0,0:0:0:0:
472,128,2016,1,0,0:0:0:0:
496,216,2123,2,0,L|496:264,1,40
440,360,2337,2,0,L|440:320,1,40
400,208,2552,6,0,L|384:264,1,40
288,344,2766,2,0,L|304:296,1,40
312,176,2980,2,0,L|264:168,1,40
231,250,3195,2,0,L|192:256,1,40
104,344,3409,5,0,0:0:0:0:
96,304,3516,1,0,0:0:0:0:
99,265,3623,1,0,0:0:0:0:
114,228,3730,1,0,0:0:0:0:
139,197,3837,1,0,0:0:0:0:
172,174,3945,1,0,0:0:0:0:
210,162,4052,1,0,0:0:0:0:
250,161,4159,1,0,0:0:0:0:
288,172,4266,5,0,0:0:0:0:
336,160,4373,1,0,0:0:0:0:
376,128,4480,2,0,L|408:96,1,40
488,40,4695,1,0,0:0:0:0:
496,88,4802,1,0,0:0:0:0:
496,136,4909,2,0,L|496:192,1,40
416,280,5123,5,0,0:0:0:0:
384,256,5230,1,0,0:0:0:0:
344,232,5337,2,0,L|288:208,1,40
232,80,5552,1,0,0:0:0:0:
192,96,5659,1,0,0:0:0:0:
152,104,5766,2,0,L|104:104,1,40
8,96,5980,5,0,0:0:0:0:
17,134,6087,1,0,0:0:0:0:
41,166,6195,1,0,0:0:0:0:
77,181,6302,1,0,0:0:0:0:
117,184,6409,1,0,0:0:0:0:
156,178,6516,1,0,0:0:0:0:
193,163,6623,1,0,0:0:0:0:
224,137,6730,1,0,0:0:0:0:
227,102,6837,5,0,0:0:0:0:
240,132,6945,1,0,0:0:0:0:
275,152,7052,1,0,0:0:0:0:
313,165,7159,1,0,0:0:0:0:
352,173,7266,1,0,0:0:0:0:
392,178,7373,1,0,0:0:0:0:
432,179,7480,1,0,0:0:0:0:
472,175,7587,1,0,0:0:0:0:
509,163,7695,5,0,0:0:0:0:
509,163,7802,1,0,0:0:0:0:
509,163,7909,2,0,L|496:232,1,40
376,208,8123,1,0,0:0:0:0:
376,208,8230,1,0,0:0:0:0:
376,208,8337,2,0,L|360:272,1,40
256,328,8552,5,0,0:0:0:0:
256,328,8659,1,0,0:0:0:0:
256,328,8766,2,0,L|240:256,1,40
112,144,8980,1,0,0:0:0:0:
112,144,9087,1,0,0:0:0:0:
112,144,9195,2,0,L|104:72,1,40
32,40,9409,5,0,0:0:0:0:
107,56,9516,1,0,0:0:0:0:
181,80,9623,1,0,0:0:0:0:
322,100,9730,5,0,0:0:0:0:
241,165,9837,2,0,L|193:205,1,40
96,160,10052,5,0,0:0:0:0:
120,240,10159,1,0,0:0:0:0:
144,320,10266,1,0,0:0:0:0:
233,281,10373,5,0,0:0:0:0:
241,185,10480,1,0,0:0:0:0:
249,89,10587,1,0,0:0:0:0:
344,74,10695,6,0,L|392:82,1,40
502,162,10909,2,0,L|446:162,1,40
408,304,11123,5,0,0:0:0:0:
328,320,11230,1,0,0:0:0:0:
248,328,11337,1,0,0:0:0:0:
176,224,11445,5,0,0:0:0:0:
80,208,11552,2,0,L|24:200,1,40
80,48,11766,5,0,0:0:0:0:
136,126,11873,1,0,0:0:0:0:
170,35,11980,1,0,0:0:0:0:
240,120,12087,5,0,0:0:0:0:
328,152,12195,1,0,0:0:0:0:
256,208,12302,1,0,0:0:0:0:
144,256,12409,6,0,L|152:192,1,40
24,248,12623,5,0,0:0:0:0:
40,336,12730,1,0,0:0:0:0:
136,296,12837,5,0,0:0:0:0:
236,287,12945,1,0,0:0:0:0:
331,245,13052,1,0,0:0:0:0:
342,335,13159,5,0,0:0:0:0:
415,280,13266,1,0,0:0:0:0:
481,209,13373,1,0,0:0:0:0:
331,245,13480,5,0,0:0:0:0:
324,213,13587,2,0,L|314:163,1,40
411,175,13802,5,0,0:0:0:0:
413,143,13909,2,0,L|417:91,1,40
376,32,14123,6,0,L|368:-32,1,40
280,80,14337,2,0,L|264:128,1,40
192,176,14552,5,0,0:0:0:0:
289,200,14659,1,0,0:0:0:0:
219,272,14766,1,0,0:0:0:0:
184,200,14873,5,0,0:0:0:0:
281,224,14980,1,0,0:0:0:0:
211,296,15087,1,0,0:0:0:0:
176,224,15195,5,0,0:0:0:0:
273,249,15302,1,0,0:0:0:0:
203,321,15409,1,0,0:0:0:0:
56,328,15516,5,0,0:0:0:0:
56,328,15623,2,0,L|72:264,1,40
24,200,15837,2,0,L|16:160,1,40
96,80,16052,2,0,L|144:88,1,40
128,192,16266,5,0,0:0:0:0:
208,144,16373,1,0,0:0:0:0:
240,40,16480,1,0,0:0:0:0:
160,208,16587,5,0,0:0:0:0:
249,182,16695,1,0,0:0:0:0:
307,90,16802,1,0,0:0:0:0:
176,232,16909,5,0,0:0:0:0:
268,238,17016,1,0,0:0:0:0:
354,171,17123,1,0,0:0:0:0:
188,260,17230,5,0,0:0:0:0:
272,296,17337,1,0,0:0:0:0:
375,263,17444,1,0,0:0:0:0:
342,162,17552,6,0,L|342:122,1,40
267,256,17766,2,0,L|275:320,1,40
376,336,17980,5,0,0:0:0:0:
432,248,18087,1,0,0:0:0:0:
480,344,18195,1,0,0:0:0:0:
384,288,18302,5,0,0:0:0:0:
416,192,18409,1,0,0:0:0:0:
488,264,18516,1,0,0:0:0:0:
360,256,18623,5,0,0:0:0:0:
288,176,18730,1,0,0:0:0:0:
384,144,18837,1,0,0:0:0:0:
360,256,18945,5,0,0:0:0:0:
288,344,19052,2,0,L|224:336,1,40
192,232,19266,6,0,L|176:184,1,40
120,336,19480,2,0,L|96:288,1,40
0,280,19695,5,0,0:0:0:0:
39,235,19802,1,0,0:0:0:0:
95,216,19909,1,0,0:0:0:0:
48,152,20016,5,0,0:0:0:0:
116,113,20123,1,0,0:0:0:0:
195,115,20230,1,0,0:0:0:0:
192,24,20337,5,0,0:0:0:0:
296,48,20445,1,0,0:0:0:0:
232,144,20552,6,0,L|184:152,1,40
104,88,20766,2,0,L|56:88,1,40
24,208,20980,2,0,L|16:152,1,40
120,248,21195,2,0,L|112:296,1,40
184,344,21409,5,0,0:0:0:0:
120,248,21516,1,0,0:0:0:0:
248,248,21623,1,0,0:0:0:0:
240,160,21730,5,0,0:0:0:0:
332,208,21837,1,0,0:0:0:0:
240,264,21945,1,0,0:0:0:0:
120,248,22052,5,0,0:0:0:0:
16,288,22159,1,0,0:0:0:0:
40,176,22266,1,0,0:0:0:0:
128,128,22373,5,0,0:0:0:0:
128,128,22480,2,0,L|184:128,1,40
264,208,22695,6,0,L|312:208,1,40
352,64,22909,2,0,L|400:64,1,40
504,64,23123,5,0,0:0:0:0:
418,179,23230,2,0,L|400:232,1,40
488,80,23445,5,0,0:0:0:0:
400,192,23552,2,0,L|382:245,1,40
472,96,23766,5,0,0:0:0:0:
381,204,23873,2,0,L|363:258,1,40
472,272,24087,5,0,0:0:0:0:
384,336,24195,2,0,L|328:336,1,40
232,256,24409,6,0,L|280:256,1,40
176,360,24623,2,0,L|128:360,1,40
104,248,24837,5,0,0:0:0:0:
16,304,24945,2,0,L|32:360,1,40
104,248,25159,5,0,0:0:0:0:
192,192,25266,2,0,L|176:136,1,40
88,144,25480,5,0,0:0:0:0:
0,88,25587,2,0,L|16:32,1,40
112,56,25802,5,0,0:0:0:0:
112,56,25909,2,0,L|160:56,1,40
208,152,26123,6,0,L|224:200,1,40
296,64,26337,2,0,L|304:8,1,40
378,104,26552,5,0,0:0:0:0:
323,223,26659,1,0,0:0:0:0:
454,212,26766,1,0,0:0:0:0:
316,148,26873,5,0,0:0:0:0:
447,136,26980,1,0,0:0:0:0:
392,256,27087,1,0,0:0:0:0:
512,240,27195,5,0,0:0:0:0:
456,328,27302,2,0,L|400:344,1,40
360,224,27516,5,0,0:0:0:0:
296,320,27623,2,0,L|240:312,1,40
144,184,27837,6,0,L|192:184,1,40
48,264,28052,2,0,L|-8:264,1,40
16,72,28266,5,0,0:0:0:0:
16,72,28373,1,0,0:0:0:0:
16,72,28480,1,0,0:0:0:0:
184,136,28587,5,0,0:0:0:0:
184,136,28695,1,0,0:0:0:0:
184,136,28802,1,0,0:0:0:0:
72,232,28909,5,0,0:0:0:0:
72,232,29016,1,0,0:0:0:0:
72,232,29123,1,0,0:0:0:0:
184,304,29230,5,0,0:0:0:0:
184,304,29337,2,0,L|184:248,1,40
110,189,29552,2,0,L|100:131,1,40
16,80,29766,2,0,L|0:24,1,40
136,48,29980,5,0,0:0:0:0:
240,80,30087,2,0,L|288:80,1,40
496,192,30302,5,0,0:0:0:0:
392,160,30409,2,0,L|344:160,1,40
120,232,30623,5,0,0:0:0:0:
224,264,30730,2,0,L|272:264,1,40
352,160,30945,5,0,0:0:0:0:
352,160,31052,1,0,0:0:0:0:
352,160,31159,1,0,0:0:0:0:
472,232,31266,5,0,0:0:0:0:
472,232,31373,1,0,0:0:0:0:
352,312,31480,5,0,0:0:0:0:
352,312,31587,1,0,0:0:0:0:
232,336,31695,6,0,L|224:280,1,40
264,208,31909,1,0,0:0:0:0:
168,240,32016,6,0,L|176:296,1,40
104,336,32230,1,0,0:0:0:0:
120,208,32337,6,0,L|112:160,1,40
32,152,32552,2,0,L|24:96,1,40
96,48,32766,5,0,0:0:0:0:
184,40,32873,1,0,0:0:0:0:
192,128,32980,5,0,0:0:0:0:
280,120,33087,1,0,0:0:0:0:
312,208,33195,5,0,0:0:0:0:
400,200,33302,1,0,0:0:0:0:
440,96,33409,5,0,0:0:0:0:
504,184,33516,2,0,L|496:232,1,40
400,200,33730,5,0,0:0:0:0:
408,248,33837,1,0,0:0:0:0:
416,304,33945,1,0,0:0:0:0:
295,280,34052,6,0,L|300:226,1,40
318,143,34266,5,0,0:0:0:0:
238,127,34373,1,0,0:0:0:0:
158,135,34480,1,0,0:0:0:0:
79,156,34587,1,0,0:0:0:0:
16,236,35123,5,0,0:0:0:0:
0,176,35230,1,0,0:0:0:0:
6,113,35337,1,0,0:0:0:0:
47,65,35445,1,0,0:0:0:0:
106,43,35552,1,0,0:0:0:0:
168,53,35659,1,0,0:0:0:0:
121,138,35766,6,0,P|154:144|193:149,1,60.0000022888184
258,57,35980,1,0,0:0:0:0:
401,132,36087,6,0,P|360:125|334:121,1,60.0000022888184
246,29,36302,1,0,0:0:0:0:
123,131,36409,6,0,L|110:206,1,60.0000022888184
11,89,36623,2,0,L|20:11,1,60.0000022888184
103,144,36837,5,0,0:0:0:0:
147,98,36945,1,0,0:0:0:0:
207,83,37052,1,0,0:0:0:0:
268,98,37159,1,0,0:0:0:0:
312,144,37266,1,0,0:0:0:0:
329,203,37373,1,0,0:0:0:0:
312,263,37480,5,0,0:0:0:0:
268,308,37587,1,0,0:0:0:0:
207,324,37695,1,0,0:0:0:0:
147,308,37802,1,0,0:0:0:0:
103,263,37909,1,0,0:0:0:0:
86,203,38016,1,0,0:0:0:0:
169,195,38123,6,0,P|212:201|255:193,1,60.0000022888184
268,98,38337,2,0,P|313:98|352:102,1,60.0000022888184
431,41,38552,5,0,0:0:0:0:
399,152,38659,1,0,0:0:0:0:
505,142,38766,1,0,0:0:0:0:
327,99,38873,5,0,0:0:0:0:
433,118,38980,1,0,0:0:0:0:
360,204,39087,1,0,0:0:0:0:
461,303,39195,5,0,0:0:0:0:
375,327,39302,1,0,0:0:0:0:
290,324,39409,1,0,0:0:0:0:
232,243,39516,5,0,0:0:0:0:
143,251,39623,1,0,0:0:0:0:
59,233,39730,1,0,0:0:0:0:
113,153,39837,5,0,0:0:0:0:
17,109,39945,1,0,0:0:0:0:
17,109,40052,2,0,L|9:26,1,60.0000022888184
113,47,40266,5,0,0:0:0:0:
153,36,40373,1,0,0:0:0:0:
195,31,40480,1,0,0:0:0:0:
237,32,40587,1,0,0:0:0:0:
278,39,40695,1,0,0:0:0:0:
318,51,40802,1,0,0:0:0:0:
250,131,40909,5,0,0:0:0:0:
292,153,41016,1,0,0:0:0:0:
338,165,41123,1,0,0:0:0:0:
386,167,41230,1,0,0:0:0:0:
433,158,41337,1,0,0:0:0:0:
477,139,41445,1,0,0:0:0:0:
503,237,41552,5,0,0:0:0:0:
415,269,41659,1,0,0:0:0:0:
415,269,41766,2,0,L|328:266,1,60.0000022888184
279,338,41980,5,0,0:0:0:0:
263,286,42087,1,0,0:0:0:0:
271,233,42195,1,0,0:0:0:0:
302,189,42302,1,0,0:0:0:0:
348,163,42409,1,0,0:0:0:0:
401,159,42516,1,0,0:0:0:0:
212,40,42623,5,0,0:0:0:0:
227,91,42730,1,0,0:0:0:0:
219,144,42837,1,0,0:0:0:0:
188,188,42945,1,0,0:0:0:0:
142,214,43052,1,0,0:0:0:0:
89,218,43159,1,0,0:0:0:0:
11,114,43266,6,0,L|13:190,1,60.0000022888184
80,257,43480,2,0,L|75:329,1,60.0000022888184
173,332,43695,5,0,0:0:0:0:
173,245,43802,1,0,0:0:0:0:
248,288,43909,1,0,0:0:0:0:
259,188,44016,6,0,L|327:198,1,60.0000022888184
403,128,44230,1,0,0:0:0:0:
484,254,44337,2,0,L|411:259,1,60.0000022888184
320,222,44552,5,0,0:0:0:0:
304,320,44659,1,0,0:0:0:0:
206,223,44766,2,0,L|197:142,1,60.0000022888184
157,52,44980,2,0,L|92:48,1,60.0000022888184
4,144,45195,2,0,L|83:148,1,60.0000022888184
145,157,45409,5,0,0:0:0:0:
201,151,45516,1,0,0:0:0:0:
258,158,45623,1,0,0:0:0:0:
316,160,45730,1,0,0:0:0:0:
373,160,45837,1,0,0:0:0:0:
430,164,45945,1,0,0:0:0:0:
470,198,46052,1,0,0:0:0:0:
432,238,46159,1,0,0:0:0:0:
376,250,46266,1,0,0:0:0:0:
318,252,46373,1,0,0:0:0:0:
261,255,46480,1,0,0:0:0:0:
204,253,46587,1,0,0:0:0:0:
149,236,46695,5,0,0:0:0:0:
67,212,46802,1,0,0:0:0:0:
10,273,46909,2,0,L|19:352,1,60.0000022888184
97,301,47123,5,0,0:0:0:0:
127,272,47230,1,0,0:0:0:0:
149,236,47337,1,0,0:0:0:0:
161,196,47445,1,0,0:0:0:0:
162,154,47552,1,0,0:0:0:0:
153,113,47659,1,0,0:0:0:0:
50,169,47766,5,0,0:0:0:0:
54,124,47873,1,0,0:0:0:0:
70,82,47980,1,0,0:0:0:0:
96,45,48087,1,0,0:0:0:0:
130,16,48195,1,0,0:0:0:0:
171,0,48302,1,0,0:0:0:0:
215,0,48409,1,0,0:0:0:0:
260,0,48516,1,0,0:0:0:0:
302,4,48623,1,0,0:0:0:0:
340,27,48730,1,0,0:0:0:0:
467,31,48837,5,0,0:0:0:0:
445,73,48945,1,0,0:0:0:0:
408,104,49052,1,0,0:0:0:0:
363,118,49159,1,0,0:0:0:0:
315,113,49266,1,0,0:0:0:0:
274,91,49373,1,0,0:0:0:0:
356,6,49480,5,0,0:0:0:0:
306,6,49587,1,0,0:0:0:0:
256,13,49695,1,0,0:0:0:0:
212,36,49802,1,0,0:0:0:0:
189,79,49909,1,0,0:0:0:0:
190,129,50016,1,0,0:0:0:0:
213,173,50123,1,0,0:0:0:0:
252,203,50230,1,0,0:0:0:0:
300,218,50337,1,0,0:0:0:0:
350,218,50445,1,0,0:0:0:0:
401,102,50552,5,0,0:0:0:0:
427,141,50659,1,0,0:0:0:0:
441,187,50766,1,0,0:0:0:0:
442,235,50873,1,0,0:0:0:0:
429,281,50980,1,0,0:0:0:0:
404,322,51087,1,0,0:0:0:0:
327,261,51195,5,0,0:0:0:0:
288,289,51302,1,0,0:0:0:0:
243,305,51409,1,0,0:0:0:0:
195,309,51516,1,0,0:0:0:0:
149,299,51623,1,0,0:0:0:0:
107,276,51730,1,0,0:0:0:0:
68,193,51837,6,0,L|-2:203,1,60.0000022888184
87,86,52052,2,0,L|158:77,1,60.0000022888184
174,177,52266,5,0,0:0:0:0:
237,102,52373,1,0,0:0:0:0:
261,2,52480,1,0,0:0:0:0:
250,224,52587,5,0,0:0:0:0:
313,149,52695,1,0,0:0:0:0:
337,49,52802,1,0,0:0:0:0:
328,281,52909,5,0,0:0:0:0:
391,206,53016,1,0,0:0:0:0:
415,106,53123,1,0,0:0:0:0:
482,41,53230,5,0,0:0:0:0:
500,139,53337,2,0,L|493:222,1,60.0000022888184
391,206,53552,5,0,0:0:0:0:
343,190,53659,1,0,0:0:0:0:
293,188,53766,1,0,0:0:0:0:
244,198,53873,1,0,0:0:0:0:
312,282,53980,5,0,0:0:0:0:
265,291,54087,1,0,0:0:0:0:
217,287,54195,1,0,0:0:0:0:
173,268,54302,1,0,0:0:0:0:
137,237,54409,1,0,0:0:0:0:
111,197,54516,1,0,0:0:0:0:
225,337,54623,5,0,0:0:0:0:
188,340,54730,1,0,0:0:0:0:
152,337,54837,1,0,0:0:0:0:
116,327,54945,1,0,0:0:0:0:
83,312,55052,1,0,0:0:0:0:
53,291,55159,1,0,0:0:0:0:
28,264,55266,1,0,0:0:0:0:
7,234,55373,1,0,0:0:0:0:
0,200,55480,1,0,0:0:0:0:
0,165,55587,1,0,0:0:0:0:
52,58,55695,5,0,0:0:0:0:
73,107,55802,1,0,0:0:0:0:
79,160,55909,1,0,0:0:0:0:
68,213,56016,1,0,0:0:0:0:
41,259,56123,1,0,0:0:0:0:
0,295,56230,1,0,0:0:0:0:
173,317,56337,5,0,0:0:0:0:
152,268,56445,1,0,0:0:0:0:
146,215,56552,1,0,0:0:0:0:
157,162,56659,1,0,0:0:0:0:
184,116,56766,1,0,0:0:0:0:
225,80,56873,1,0,0:0:0:0:
308,42,56980,6,0,L|379:37,1,60.0000022888184
501,175,57195,2,0,L|437:178,1,60.0000022888184
341,148,57409,5,0,0:0:0:0:
329,206,57516,1,0,0:0:0:0:
253,208,57623,5,0,0:0:0:0:
251,267,57730,1,0,0:0:0:0:
170,287,57837,5,0,0:0:0:0:
180,346,57945,1,0,0:0:0:0:
37,240,58052,6,0,L|16:167,1,60.0000022888184
106,168,58266,2,0,L|96:100,1,60.0000022888184
178,84,58480,2,0,L|184:5,1,60.0000022888184
211,183,58695,6,0,L|274:184,1,60.0000022888184
339,99,58909,2,0,L|409:104,1,60.0000022888184
507,57,59123,5,0,0:0:0:0:
497,104,59230,1,0,0:0:0:0:
479,148,59337,1,0,0:0:0:0:
452,188,59445,1,0,0:0:0:0:
418,222,59552,1,0,0:0:0:0:
379,248,59659,1,0,0:0:0:0:
334,266,59766,1,0,0:0:0:0:
287,276,59873,1,0,0:0:0:0:
239,276,59980,1,0,0:0:0:0:
192,266,60087,1,0,0:0:0:0:
148,248,60195,1,0,0:0:0:0:
108,221,60302,1,0,0:0:0:0:
74,187,60409,1,0,0:0:0:0:
48,147,60516,1,0,0:0:0:0:
30,103,60623,1,0,0:0:0:0:
21,56,60730,1,0,0:0:0:0:
5,327,60837,5,0,0:0:0:0:
14,279,60945,1,0,0:0:0:0:
32,235,61052,1,0,0:0:0:0:
59,195,61159,1,0,0:0:0:0:
93,161,61266,1,0,0:0:0:0:
132,135,61373,1,0,0:0:0:0:
177,117,61480,1,0,0:0:0:0:
224,107,61587,1,0,0:0:0:0:
272,107,61695,1,0,0:0:0:0:
319,117,61802,1,0,0:0:0:0:
363,135,61909,1,0,0:0:0:0:
403,162,62016,1,0,0:0:0:0:
437,196,62123,1,0,0:0:0:0:
463,236,62230,1,0,0:0:0:0:
481,280,62337,1,0,0:0:0:0:
490,327,62445,1,0,0:0:0:0:
443,335,62552,6,0,L|369:338,1,60.0000022888184
356,240,62766,1,0,0:0:0:0:
296,358,62873,1,0,0:0:0:0:
191,291,62980,2,0,L|204:377,1,60.0000022888184
356,240,63195,5,0,0:0:0:0:
268,246,63302,2,0,L|254:165,1,60.0000022888184
427,153,63516,1,0,0:0:0:0:
349,67,63623,2,0,L|279:60,1,60.0000022888184
176,28,63837,5,0,0:0:0:0:
200,120,63945,1,0,0:0:0:0:
200,120,64052,2,0,L|121:122,1,60.0000022888184
13,81,64266,6,0,L|24:166,1,60.0000022888184
133,158,64480,1,0,0:0:0:0:
133,158,64587,1,0,0:0:0:0:
66,226,64695,2,0,P|31:237|-6:236,1,60.0000022888184
89,318,64909,5,0,0:0:0:0:
199,336,65016,1,0,0:0:0:0:
156,238,65123,1,0,0:0:0:0:
241,177,65230,2,0,L|257:91,1,60.0000022888184
345,93,65445,1,0,0:0:0:0:
337,198,65552,6,0,L|406:192,1,60.0000022888184
441,103,65766,2,0,L|524:100,1,60.0000022888184
503,215,65980,5,0,0:0:0:0:
408,251,66087,2,0,L|394:180,1,60.0000022888184
503,215,66302,5,0,0:0:0:0:
318,203,66409,2,0,L|306:133,1,60.0000022888184
503,215,66623,5,0,0:0:0:0:
231,142,66730,2,0,L|222:75,1,60.0000022888184
324,47,66945,5,0,0:0:0:0:
190,40,67052,2,0,L|126:41,1,60.0000022888184
3,137,67266,6,0,L|77:127,1,60.0000022888184
141,134,67480,1,0,0:0:0:0:
45,43,67587,1,0,0:0:0:0:
3,139,67695,6,0,L|11:208,1,60.0000022888184
141,134,67909,1,0,0:0:0:0:
51,193,68016,6,0,L|58:261,1,60.0000022888184
183,202,68230,1,0,0:0:0:0:
101,253,68337,6,0,L|111:324,1,60.0000022888184
224,273,68552,1,0,0:0:0:0:
283,333,68659,5,0,0:0:0:0:
224,273,68766,1,0,0:0:0:0:
183,202,68873,1,0,0:0:0:0:
384,240,68980,2,0,L|308:236,1,60.0000022888184
442,331,69195,2,0,L|504:323,1,60.0000022888184
352,337,69409,5,0,0:0:0:0:
476,236,69516,2,0,L|484:163,1,60.0000022888184
373,54,69730,5,0,0:0:0:0:
477,63,69837,1,0,0:0:0:0:
413,151,69945,1,0,0:0:0:0:
267,120,70052,5,0,0:0:0:0:
333,204,70159,1,0,0:0:0:0:
229,216,70266,1,0,0:0:0:0:
180,74,70373,6,0,L|111:57,1,60.0000022888184
33,36,70587,1,0,0:0:0:0:
11,138,70695,6,0,L|17:212,1,60.0000022888184
105,171,70909,5,0,0:0:0:0:
97,277,71016,1,0,0:0:0:0:
195,239,71123,5,0,0:0:0:0:
195,239,71230,2,0,L|282:234,1,60.0000022888184
289,138,71445,5,0,0:0:0:0:
354,208,71552,1,0,0:0:0:0:
442,167,71659,1,0,0:0:0:0:
335,52,71766,5,0,0:0:0:0:
430,71,71873,1,0,0:0:0:0:
442,167,71980,1,0,0:0:0:0:
276,59,72087,6,0,L|361:50,1,60.0000022888184
423,10,72302,1,0,0:0:0:0:
506,74,72409,6,0,L|515:154,1,60.0000022888184
377,210,72623,2,0,L|370:138,1,60.0000022888184
468,222,72837,5,0,0:0:0:0:
454,267,72945,1,0,0:0:0:0:
435,321,73052,1,0,0:0:0:0:
343,327,73159,5,0,0:0:0:0:
276,245,73266,1,0,0:0:0:0:
232,338,73373,1,0,0:0:0:0:
196,200,73480,5,0,0:0:0:0:
98,187,73587,1,0,0:0:0:0:
134,281,73695,1,0,0:0:0:0:
26,328,73802,6,0,L|10:261,1,60.0000022888184
0,121,74016,1,0,0:0:0:0:
98,187,74123,6,0,L|171:183,1,60.0000022888184
242,102,74337,2,0,L|320:105,1,60.0000022888184
390,53,74552,5,0,0:0:0:0:
378,170,74659,1,0,0:0:0:0:
486,121,74766,1,0,0:0:0:0:
412,78,74873,5,0,0:0:0:0:
379,191,74980,1,0,0:0:0:0:
494,161,75087,1,0,0:0:0:0:
436,122,75195,5,0,0:0:0:0:
375,223,75302,1,0,0:0:0:0:
493,224,75409,1,0,0:0:0:0:
440,309,75516,5,0,0:0:0:0:
440,309,75623,2,0,L|378:318,1,60.0000022888184
375,223,75837,5,0,0:0:0:0:
279,218,75945,1,0,0:0:0:0:
259,113,76052,6,0,L|178:107,1,60.0000022888184
123,27,76266,5,0,0:0:0:0:
19,56,76373,1,0,0:0:0:0:
90,125,76480,1,0,0:0:0:0:
181,98,76587,6,0,L|171:168,1,60.0000022888184
167,188,76802,1,0,0:0:0:0:
26,193,76909,6,0,L|32:268,1,60.0000022888184
32,278,77123,1,0,0:0:0:0:
163,341,77230,6,0,P|135:333|90:338,1,60.0000022888184
159,228,77445,1,0,0:0:0:0:
159,228,77552,6,0,L|238:226,1,60.0000022888184
315,308,77766,2,0,L|392:311,1,60.0000022888184
476,345,77980,5,0,0:0:0:0:
479,261,78087,1,0,0:0:0:0:
428,195,78195,1,0,0:0:0:0:
359,148,78302,1,0,0:0:0:0:
274,102,78409,5,0,0:0:0:0:
313,71,78516,1,0,0:0:0:0:
371,61,78623,1,0,0:0:0:0:
425,59,78730,1,0,0:0:0:0:
498,184,78837,5,0,0:0:0:0:
448,187,78945,1,0,0:0:0:0:
400,175,79052,1,0,0:0:0:0:
358,147,79159,1,0,0:0:0:0:
285,208,79266,2,0,L|199:218,1,60.0000022888184
174,111,79480,2,0,L|103:105,1,60.0000022888184
130,14,79695,5,0,0:0:0:0:
85,19,79802,1,0,0:0:0:0:
45,38,79909,1,0,0:0:0:0:
18,74,80016,1,0,0:0:0:0:
11,118,80123,1,0,0:0:0:0:
27,160,80230,1,0,0:0:0:0:
60,189,80337,1,0,0:0:0:0:
103,203,80445,1,0,0:0:0:0:
148,204,80552,5,0,0:0:0:0:
168,199,80659,1,0,0:0:0:0:
189,194,80766,2,0,L|248:185,1,60.0000022888184
318,256,80980,1,0,0:0:0:0:
318,256,81087,1,0,0:0:0:0:
318,256,81195,2,0,L|395:261,1,60.0000022888184
446,351,81409,5,0,0:0:0:0:
458,319,81516,1,0,0:0:0:0:
467,286,81623,1,0,0:0:0:0:
472,252,81730,1,0,0:0:0:0:
472,217,81837,1,0,0:0:0:0:
468,183,81945,1,0,0:0:0:0:
460,150,82052,1,0,0:0:0:0:
448,118,82159,1,0,0:0:0:0:
347,35,82266,5,0,0:0:0:0:
334,66,82373,1,0,0:0:0:0:
325,99,82480,1,0,0:0:0:0:
320,133,82587,1,0,0:0:0:0:
320,168,82695,1,0,0:0:0:0:
324,202,82802,1,0,0:0:0:0:
332,235,82909,1,0,0:0:0:0:
344,267,83016,1,0,0:0:0:0:
436,325,83123,5,0,0:0:0:0:
446,282,83230,1,0,0:0:0:0:
466,241,83337,1,0,0:0:0:0:
462,189,83445,1,0,0:0:0:0:
470,146,83552,2,0,L|483:80,1,60.0000022888184
424,24,83766,5,0,0:0:0:0:
378,36,83873,1,0,0:0:0:0:
340,63,83980,1,0,0:0:0:0:
305,95,84087,1,0,0:0:0:0:
267,123,84195,1,0,0:0:0:0:
222,134,84302,1,0,0:0:0:0:
184,108,84409,1,0,0:0:0:0:
168,65,84516,1,0,0:0:0:0:
72,29,84623,2,0,L|-5:20,1,60.0000022888184
12,137,84837,5,0,0:0:0:0:
12,137,84945,1,0,0:0:0:0:
12,137,85052,2,0,L|22:216,1,60.0000022888184
92,326,85266,5,0,0:0:0:0:
92,326,85373,1,0,0:0:0:0:
92,326,85480,2,0,L|98:257,1,60.0000022888184
116,163,85695,5,0,0:0:0:0:
155,158,85802,1,0,0:0:0:0:
195,154,85909,1,0,0:0:0:0:
235,149,86016,1,0,0:0:0:0:
278,257,86123,6,0,L|196:248,1,60.0000022888184
301,67,86337,2,0,L|370:73,1,60.0000022888184
466,69,86552,5,0,0:0:0:0:
448,100,86659,1,0,0:0:0:0:
425,127,86766,1,0,0:0:0:0:
395,148,86873,1,0,0:0:0:0:
361,158,86980,1,0,0:0:0:0:
325,156,87087,1,0,0:0:0:0:
291,145,87195,1,0,0:0:0:0:
258,130,87302,1,0,0:0:0:0:
226,114,87409,1,0,0:0:0:0:
194,98,87516,1,0,0:0:0:0:
160,85,87623,1,0,0:0:0:0:
125,78,87730,1,0,0:0:0:0:
89,81,87837,1,0,0:0:0:0:
56,94,87945,1,0,0:0:0:0:
27,115,88052,1,0,0:0:0:0:
3,142,88159,1,0,0:0:0:0:
3,241,88266,5,0,0:0:0:0:
27,268,88373,1,0,0:0:0:0:
56,289,88480,1,0,0:0:0:0:
89,302,88587,1,0,0:0:0:0:
125,305,88695,1,0,0:0:0:0:
160,298,88802,1,0,0:0:0:0:
194,285,88909,1,0,0:0:0:0:
226,269,89016,1,0,0:0:0:0:
258,253,89123,1,0,0:0:0:0:
291,238,89230,1,0,0:0:0:0:
325,227,89337,1,0,0:0:0:0:
361,225,89445,1,0,0:0:0:0:
395,235,89552,1,0,0:0:0:0:
425,256,89659,1,0,0:0:0:0:
448,283,89766,1,0,0:0:0:0:
466,315,89873,1,0,0:0:0:0:
496,208,89980,6,0,L|512:128,1,60.0000022888184
448,32,90195,1,0,0:0:0:0:
400,128,90302,6,0,L|312:128,1,60.0000022888184
272,56,90516,1,0,0:0:0:0:
224,176,90623,5,0,0:0:0:0:
224,176,90730,2,0,L|136:184,1,60.0000022888184
72,221,90945,5,0,0:0:0:0:
47,329,91052,1,0,0:0:0:0:
152,288,91159,1,0,0:0:0:0:
256,336,91266,6,0,L|264:256,1,60.0000022888184
344,192,91480,2,0,L|352:112,1,60.0000022888184
246,74,91695,5,0,0:0:0:0:
290,43,91802,1,0,0:0:0:0:
342,30,91909,1,0,0:0:0:0:
396,34,92016,1,0,0:0:0:0:
445,57,92123,1,0,0:0:0:0:
483,94,92230,1,0,0:0:0:0:
354,158,92337,5,0,0:0:0:0:
318,175,92445,1,0,0:0:0:0:
280,189,92552,1,0,0:0:0:0:
241,198,92659,1,0,0:0:0:0:
202,202,92766,1,0,0:0:0:0:
162,202,92873,1,0,0:0:0:0:
19,151,92980,6,0,L|21:233,1,60.0000022888184
106,276,93195,2,0,L|117:349,1,60.0000022888184
240,297,93409,5,0,0:0:0:0:
240,297,93516,1,0,0:0:0:0:
240,297,93623,1,0,0:0:0:0:
348,277,93730,5,0,0:0:0:0:
348,277,93837,1,0,0:0:0:0:
348,277,93945,1,0,0:0:0:0:
458,256,94052,5,0,0:0:0:0:
458,256,94159,1,0,0:0:0:0:
458,256,94266,1,0,0:0:0:0:
511,152,94373,5,0,0:0:0:0:
481,42,94480,2,0,L|416:35,1,60.0000022888184
398,135,94695,5,0,0:0:0:0:
349,145,94802,1,0,0:0:0:0:
299,146,94909,1,0,0:0:0:0:
249,139,95016,1,0,0:0:0:0:
269,25,95123,5,0,0:0:0:0:
216,37,95230,1,0,0:0:0:0:
177,72,95337,1,0,0:0:0:0:
160,123,95445,1,0,0:0:0:0:
169,176,95552,1,0,0:0:0:0:
203,217,95659,1,0,0:0:0:0:
243,359,95766,5,0,0:0:0:0:
295,346,95873,1,0,0:0:0:0:
334,311,95980,1,0,0:0:0:0:
351,260,96087,1,0,0:0:0:0:
342,207,96195,1,0,0:0:0:0:
308,166,96302,1,0,0:0:0:0:
231,257,96409,2,0,L|161:259,1,60.0000022888184
71,318,96623,5,0,0:0:0:0:
34,275,96730,1,0,0:0:0:0:
26,217,96837,5,0,0:0:0:0:
50,190,96945,1,0,0:0:0:0:
78,166,97052,1,0,0:0:0:0:
113,152,97159,1,0,0:0:0:0:
150,152,97266,1,0,0:0:0:0:
186,163,97373,1,0,0:0:0:0:
149,259,97480,6,0,L|216:252,1,60.0000022888184
282,186,97695,1,0,0:0:0:0:
324,296,97802,5,0,0:0:0:0:
324,296,97909,2,0,L|396:299,1,60.0000022888184
502,255,98123,5,0,0:0:0:0:
451,353,98230,1,0,0:0:0:0:
423,215,98337,6,0,L|432:137,1,60.0000022888184
504,75,98552,5,0,0:0:0:0:
468,69,98659,1,0,0:0:0:0:
432,63,98766,1,0,0:0:0:0:
397,57,98873,1,0,0:0:0:0:
361,51,98980,1,0,0:0:0:0:
326,46,99087,1,0,0:0:0:0:
285,147,99195,5,0,0:0:0:0:
243,144,99302,1,0,0:0:0:0:
201,141,99409,1,0,0:0:0:0:
159,139,99516,1,0,0:0:0:0:
117,136,99623,1,0,0:0:0:0:
75,134,99730,1,0,0:0:0:0:
7,200,99837,6,0,L|14:267,1,60.0000022888184
102,277,100052,2,0,L|98:343,1,60.0000022888184
200,324,100266,5,0,0:0:0:0:
278,239,100373,1,0,0:0:0:0:
166,210,100480,1,0,0:0:0:0:
278,239,100587,5,0,0:0:0:0:
341,320,100695,2,0,L|409:314,1,60.0000022888184
505,227,100909,5,0,0:0:0:0:
505,227,101016,2,0,L|427:215,1,60.0000022888184
258,152,101230,5,0,0:0:0:0:
369,135,101337,1,0,0:0:0:0:
300,51,101445,1,0,0:0:0:0:
187,41,101552,6,0,L|126:28,1,60.0000022888184
163,130,101766,2,0,L|170:207,1,60.0000022888184
90,272,101980,5,0,0:0:0:0:
144,283,102087,1,0,0:0:0:0:
199,275,102195,1,0,0:0:0:0:
248,250,102302,1,0,0:0:0:0:
286,210,102409,1,0,0:0:0:0:
309,159,102516,1,0,0:0:0:0:
313,104,102623,1,0,0:0:0:0:
299,50,102730,1,0,0:0:0:0:
198,51,102837,5,0,0:0:0:0:
183,104,102945,1,0,0:0:0:0:
188,159,103052,1,0,0:0:0:0:
210,210,103159,1,0,0:0:0:0:
307,187,103266,5,0,0:0:0:0:
275,290,103373,1,0,0:0:0:0:
378,271,103480,1,0,0:0:0:0:
275,290,103587,1,0,0:0:0:0:
167,331,103695,6,0,L|89:319,1,60.0000022888184
6,268,103909,1,0,0:0:0:0:
185,240,104016,6,0,L|110:231,1,60.0000022888184
12,238,104230,1,0,0:0:0:0:
202,158,104337,6,0,L|120:148,1,60.0000022888184
17,208,104552,1,0,0:0:0:0:
219,67,104659,6,0,L|148:55,1,60.0000022888184
24,175,104873,1,0,0:0:0:0:
134,190,104980,6,0,L|137:258,1,60.0000022888184
238,153,105195,2,0,L|246:82,1,60.0000022888184
340,105,105409,5,0,0:0:0:0:
434,42,105516,1,0,0:0:0:0:
437,152,105623,1,0,0:0:0:0:
341,81,105730,5,0,0:0:0:0:
451,54,105837,1,0,0:0:0:0:
415,160,105945,1,0,0:0:0:0:
350,62,106052,5,0,0:0:0:0:
463,74,106159,1,0,0:0:0:0:
393,160,106266,1,0,0:0:0:0:
365,46,106373,5,0,0:0:0:0:
466,97,106480,1,0,0:0:0:0:
373,154,106587,1,0,0:0:0:0:
346,260,106695,6,0,L|350:332,1,60.0000022888184
243,264,106909,2,0,L|236:179,1,60.0000022888184
279,55,107123,5,0,0:0:0:0:
181,101,107230,1,0,0:0:0:0:
96,49,107337,1,0,0:0:0:0:
252,125,107445,5,0,0:0:0:0:
158,179,107552,1,0,0:0:0:0:
69,134,107659,1,0,0:0:0:0:
236,207,107766,5,0,0:0:0:0:
152,276,107873,1,0,0:0:0:0:
57,247,107980,1,0,0:0:0:0:
264,290,108087,5,0,0:0:0:0:
200,378,108195,1,0,0:0:0:0:
101,374,108302,1,0,0:0:0:0:
11,341,108409,6,0,L|7:274,1,60.0000022888184
83,213,108623,2,0,L|90:128,1,60.0000022888184
16,79,108837,5,0,0:0:0:0:
117,41,108945,2,0,L|186:38,1,60.0000022888184
330,67,109159,5,0,0:0:0:0:
231,147,109266,2,0,L|160:150,1,60.0000022888184
117,41,109480,5,0,0:0:0:0:
46,147,109587,2,0,L|50:217,1,60.0000022888184
35,326,109802,5,0,0:0:0:0:
152,300,109909,2,0,L|149:225,1,60.0000022888184
117,41,110123,5,0,0:0:0:0:
187,123,110230,1,0,0:0:0:0:
289,159,110337,1,0,0:0:0:0:
399,163,110445,1,0,0:0:0:0:
398,66,110552,5,0,0:0:0:0:
494,151,110659,2,0,L|486:217,1,60.0000022888184
383,76,110873,5,0,0:0:0:0:
479,161,110980,2,0,L|471:227,1,60.0000022888184
365,83,111195,5,0,0:0:0:0:
461,168,111302,2,0,L|453:234,1,60.0000022888184
345,93,111516,5,0,0:0:0:0:
441,178,111623,2,0,L|433:244,1,60.0000022888184
397,332,111837,6,0,L|466:325,1,60.0000022888184
336,216,112052,2,0,L|267:223,1,60.0000022888184
195,324,112266,5,0,0:0:0:0:
195,324,112373,1,0,0:0:0:0:
195,324,112480,1,0,0:0:0:0:
136,163,112587,5,0,0:0:0:0:
136,163,112695,1,0,0:0:0:0:
136,163,112802,1,0,0:0:0:0:
64,275,112909,5,0,0:0:0:0:
64,275,113016,1,0,0:0:0:0:
64,275,113123,1,0,0:0:0:0:
254,223,113230,5,0,0:0:0:0:
254,223,113337,1,0,0:0:0:0:
254,223,113445,1,0,0:0:0:0:
316,112,113552,6,0,L|391:107,1,60.0000022888184
426,22,113766,1,0,0:0:0:0:
502,132,113873,1,0,0:0:0:0:
422,201,113980,6,0,L|416:274,1,60.0000022888184
417,260,114195,1,0,0:0:0:0:
328,256,114302,6,0,L|318:332,1,60.0000022888184
320,315,114516,1,0,0:0:0:0:
234,224,114623,6,0,L|230:150,1,60.0000022888184
228,127,114837,1,0,0:0:0:0:
129,138,114945,6,0,L|121:61,1,60.0000022888184
114,26,115159,1,0,0:0:0:0:
15,74,115266,6,0,L|4:142,1,60.0000022888184
60,218,115480,2,0,L|67:298,1,60.0000022888184
153,338,115695,5,0,0:0:0:0:
212,335,115802,1,0,0:0:0:0:
274,333,115909,1,0,0:0:0:0:
242,235,116016,5,0,0:0:0:0:
316,232,116123,1,0,0:0:0:0:
391,230,116230,1,0,0:0:0:0:
505,210,116337,5,0,0:0:0:0:
471,299,116445,1,0,0:0:0:0:
377,317,116552,1,0,0:0:0:0:
316,232,116659,5,0,0:0:0:0:
360,133,116766,2,0,L|369:55,1,60.0000022888184
253,38,116980,5,0,0:0:0:0:
147,28,117087,1,0,0:0:0:0:
193,148,117195,5,0,0:0:0:0:
82,151,117302,1,0,0:0:0:0:
16,251,117409,5,0,0:0:0:0:
68,262,117516,1,0,0:0:0:0:
122,266,117623,1,0,0:0:0:0:
176,262,117730,1,0,0:0:0:0:
229,252,117837,1,0,0:0:0:0:
280,234,117945,1,0,0:0:0:0:
355,344,118052,5,0,0:0:0:0:
408,327,118159,1,0,0:0:0:0:
454,293,118266,1,0,0:0:0:0:
484,246,118373,1,0,0:0:0:0:
497,191,118480,1,0,0:0:0:0:
490,135,118587,1,0,0:0:0:0:
464,85,118695,1,0,0:0:0:0:
422,47,118802,1,0,0:0:0:0:
370,25,118909,1,0,0:0:0:0:
314,23,119016,1,0,0:0:0:0:
227,37,119123,6,0,L|233:118,1,60.0000022888184
330,103,119337,1,0,0:0:0:0:
423,128,119445,5,0,0:0:0:0:
358,203,119552,2,0,L|276:195,1,60.0000022888184
231,96,119766,6,0,L|159:92,1,60.0000022888184
96,38,119980,1,0,0:0:0:0:
2,49,120087,6,0,L|7:114,1,60.0000022888184
163,194,120302,1,0,0:0:0:0:
163,194,120409,6,0,L|166:122,1,60.0000022888184
69,244,120623,2,0,L|76:326,1,60.0000022888184
146,355,120837,5,0,0:0:0:0:
253,320,120945,1,0,0:0:0:0:
339,231,121052,1,0,0:0:0:0:
177,360,121159,5,0,0:0:0:0:
280,315,121266,1,0,0:0:0:0:
358,219,121373,1,0,0:0:0:0:
211,358,121480,5,0,0:0:0:0:
309,304,121587,1,0,0:0:0:0:
379,201,121695,1,0,0:0:0:0:
499,165,121802,5,0,0:0:0:0:
499,165,121909,2,0,L|499:90,1,60.0000022888184
301,45,122123,5,0,0:0:0:0:
341,47,122230,1,0,0:0:0:0:
381,49,122337,1,0,0:0:0:0:
421,52,122445,1,0,0:0:0:0:
402,143,122552,5,0,0:0:0:0:
351,161,122659,1,0,0:0:0:0:
298,170,122766,1,0,0:0:0:0:
244,170,122873,1,0,0:0:0:0:
191,160,122980,1,0,0:0:0:0:
140,142,123087,1,0,0:0:0:0:
49,33,123195,5,0,0:0:0:0:
85,32,123302,1,0,0:0:0:0:
120,41,123409,1,0,0:0:0:0:
151,61,123516,1,0,0:0:0:0:
174,90,123623,1,0,0:0:0:0:
188,124,123730,1,0,0:0:0:0:
191,160,123837,1,0,0:0:0:0:
182,196,123945,1,0,0:0:0:0:
164,227,124052,1,0,0:0:0:0:
137,252,124159,1,0,0:0:0:0:
20,168,124266,5,0,0:0:0:0:
7,207,124373,1,0,0:0:0:0:
7,249,124480,1,0,0:0:0:0:
19,289,124587,1,0,0:0:0:0:
42,324,124695,1,0,0:0:0:0:
75,350,124802,1,0,0:0:0:0:
118,248,124909,5,0,0:0:0:0:
130,208,125016,1,0,0:0:0:0:
130,166,125123,1,0,0:0:0:0:
118,126,125230,1,0,0:0:0:0:
95,91,125337,1,0,0:0:0:0:
62,65,125445,1,0,0:0:0:0:
13,147,125552,6,0,L|21:216,1,60.0000022888184
106,342,125766,2,0,L|112:267,1,60.0000022888184
118,126,125980,5,0,0:0:0:0:
158,135,126087,1,0,0:0:0:0:
200,140,126195,1,0,0:0:0:0:
242,140,126302,1,0,0:0:0:0:
284,135,126409,1,0,0:0:0:0:
325,125,126516,1,0,0:0:0:0:
435,255,126623,5,0,0:0:0:0:
394,245,126730,1,0,0:0:0:0:
352,240,126837,1,0,0:0:0:0:
310,240,126945,1,0,0:0:0:0:
268,245,127052,1,0,0:0:0:0:
227,255,127159,1,0,0:0:0:0:
179,273,127266,6,0,L|172:335,1,60.0000022888184
22,243,127480,5,0,0:0:0:0:
22,243,127587,1,0,0:0:0:0:
27,336,127695,5,0,0:0:0:0:
58,320,127802,1,0,0:0:0:0:
85,297,127909,1,0,0:0:0:0:
101,266,128016,1,0,0:0:0:0:
102,231,128123,1,0,0:0:0:0:
89,198,128230,1,0,0:0:0:0:
68,169,128337,1,0,0:0:0:0:
46,141,128445,1,0,0:0:0:0:
31,110,128552,1,0,0:0:0:0:
39,76,128659,1,0,0:0:0:0:
67,54,128766,1,0,0:0:0:0:
99,41,128873,1,0,0:0:0:0:
149,126,128980,6,0,L|220:123,1,60.0000022888184
295,187,129195,2,0,L|382:195,1,60.0000022888184
451,163,129409,5,0,0:0:0:0:
430,119,129516,1,0,0:0:0:0:
399,83,129623,1,0,0:0:0:0:
359,57,129730,1,0,0:0:0:0:
313,43,129837,1,0,0:0:0:0:
265,43,129945,1,0,0:0:0:0:
306,140,130052,5,0,0:0:0:0:
274,149,130159,1,0,0:0:0:0:
241,156,130266,1,0,0:0:0:0:
208,161,130373,1,0,0:0:0:0:
175,163,130480,1,0,0:0:0:0:
141,162,130587,1,0,0:0:0:0:
108,159,130695,1,0,0:0:0:0:
75,153,130802,1,0,0:0:0:0:
43,145,130909,1,0,0:0:0:0:
12,134,131016,1,0,0:0:0:0:
107,38,131123,5,0,0:0:0:0:
100,85,131230,1,0,0:0:0:0:
86,131,131337,1,0,0:0:0:0:
65,174,131445,1,0,0:0:0:0:
38,214,131552,1,0,0:0:0:0:
5,249,131659,1,0,0:0:0:0:
107,310,131766,5,0,0:0:0:0:
100,263,131873,1,0,0:0:0:0:
86,217,131980,1,0,0:0:0:0:
65,174,132087,1,0,0:0:0:0:
38,134,132195,1,0,0:0:0:0:
5,99,132302,1,0,0:0:0:0:
86,47,132409,6,0,L|161:52,1,60.0000022888184
346,114,132623,2,0,L|283:118,1,60.0000022888184
176,162,132837,5,0,0:0:0:0:
195,111,132945,1,0,0:0:0:0:
228,69,133052,1,0,0:0:0:0:
271,37,133159,1,0,0:0:0:0:
322,18,133266,1,0,0:0:0:0:
376,14,133373,1,0,0:0:0:0:
460,139,133480,5,0,0:0:0:0:
440,189,133587,1,0,0:0:0:0:
407,231,133695,1,0,0:0:0:0:
364,263,133802,1,0,0:0:0:0:
313,282,133909,1,0,0:0:0:0:
259,286,134016,1,0,0:0:0:0:
280,191,134123,6,0,L|290:107,1,60.0000022888184
152,24,134337,2,0,L|143:103,1,60.0000022888184
32,64,134552,5,0,0:0:0:0:
56,160,134659,1,0,0:0:0:0:
136,216,134766,1,0,0:0:0:0:
6,126,134873,5,0,0:0:0:0:
54,212,134980,1,0,0:0:0:0:
145,245,135087,1,0,0:0:0:0:
0,193,135195,5,0,0:0:0:0:
66,263,135302,1,0,0:0:0:0:
163,272,135409,1,0,0:0:0:0:
112,344,135516,5,0,0:0:0:0:
240,328,135623,2,0,L|320:320,1,60.0000022888184
320,232,135837,5,0,0:0:0:0:
351,255,135945,1,0,0:0:0:0:
389,269,136052,1,0,0:0:0:0:
428,273,136159,1,0,0:0:0:0:
504,336,136266,5,0,0:0:0:0:
512,290,136373,1,0,0:0:0:0:
512,243,136480,1,0,0:0:0:0:
490,202,136587,1,0,0:0:0:0:
451,175,136695,1,0,0:0:0:0:
404,166,136802,1,0,0:0:0:0:
411,258,136909,5,0,0:0:0:0:
437,220,137016,1,0,0:0:0:0:
451,175,137123,1,0,0:0:0:0:
450,129,137230,1,0,0:0:0:0:
434,85,137337,1,0,0:0:0:0:
405,49,137445,1,0,0:0:0:0:
367,23,137552,1,0,0:0:0:0:
322,11,137659,1,0,0:0:0:0:
275,14,137766,1,0,0:0:0:0:
232,32,137873,1,0,0:0:0:0:
304,104,137980,5,0,0:0:0:0:
274,141,138087,1,0,0:0:0:0:
236,170,138195,1,0,0:0:0:0:
191,187,138302,1,0,0:0:0:0:
143,192,138409,1,0,0:0:0:0:
96,185,138516,1,0,0:0:0:0:
0,136,138623,5,0,0:0:0:0:
29,98,138730,1,0,0:0:0:0:
67,69,138837,1,0,0:0:0:0:
112,52,138945,1,0,0:0:0:0:
160,47,139052,1,0,0:0:0:0:
207,54,139159,1,0,0:0:0:0:
264,144,139266,6,0,L|256:208,1,60.0000022888184
160,240,139480,2,0,L|168:328,1,60.0000022888184
304,320,139695,6,0,L|376:328,1,60.0000022888184
384,232,139909,2,0,L|456:232,1,60.0000022888184
440,136,140123,2,0,L|512:128,1,60.0000022888184
288,192,140337,5,0,0:0:0:0:
228,198,140445,1,0,0:0:0:0:
208,104,140552,5,0,0:0:0:0:
148,104,140659,1,0,0:0:0:0:
152,8,140766,5,0,0:0:0:0:
92,1,140873,1,0,0:0:0:0:
8,48,140980,6,0,L|8:120,1,60.0000022888184
80,168,141195,2,0,L|72:248,1,60.0000022888184
24,336,141409,5,0,0:0:0:0:
81,339,141516,1,0,0:0:0:0:
139,337,141623,1,0,0:0:0:0:
196,327,141730,1,0,0:0:0:0:
250,306,141837,1,0,0:0:0:0:
295,269,141945,1,0,0:0:0:0:
316,217,142052,1,0,0:0:0:0:
290,168,142159,1,0,0:0:0:0:
235,165,142266,1,0,0:0:0:0:
205,212,142373,1,0,0:0:0:0:
227,265,142480,1,0,0:0:0:0:
271,302,142587,1,0,0:0:0:0:
324,326,142695,1,0,0:0:0:0:
380,341,142802,1,0,0:0:0:0:
437,348,142909,1,0,0:0:0:0:
495,344,143016,1,0,0:0:0:0:
495,39,143123,5,0,0:0:0:0:
437,35,143230,1,0,0:0:0:0:
380,42,143337,1,0,0:0:0:0:
324,57,143445,1,0,0:0:0:0:
271,81,143552,1,0,0:0:0:0:
227,118,143659,1,0,0:0:0:0:
205,171,143766,1,0,0:0:0:0:
234,217,143873,1,0,0:0:0:0:
290,215,143980,1,0,0:0:0:0:
316,166,144087,1,0,0:0:0:0:
295,113,144195,1,0,0:0:0:0:
250,77,144302,1,0,0:0:0:0:
196,55,144409,1,0,0:0:0:0:
139,46,144516,1,0,0:0:0:0:
81,44,144623,1,0,0:0:0:0:
23,47,144730,1,0,0:0:0:0:
16,144,144837,6,0,L|88:152,1,60.0000022888184
156,144,145051,1,0,0:0:0:0:
248,176,145158,1,0,0:0:0:0:
250,77,145265,2,0,L|237:-9,1,60.0000022888184
156,144,145480,5,0,0:0:0:0:
156,144,145587,2,0,L|170:225,1,60.0000022888184
72,248,145801,1,0,0:0:0:0:
152,296,145908,2,0,L|222:303,1,60.0000022888184
256,168,146122,5,0,0:0:0:0:
312,264,146230,1,0,0:0:0:0:
312,264,146337,2,0,L|391:262,1,60.0000022888184
499,303,146551,6,0,L|488:218,1,60.0000022888184
371,262,146765,1,0,0:0:0:0:
424,176,146872,1,0,0:0:0:0:
424,80,146980,2,0,L|345:82,1,60.0000022888184
304,168,147194,5,0,0:0:0:0:
264,63,147301,1,0,0:0:0:0:
201,149,147408,1,0,0:0:0:0:
240,248,147515,2,0,L|224:334,1,60.0000022888184
144,312,147730,1,0,0:0:0:0:
176,192,147837,6,0,L|107:198,1,60.0000022888184
64,272,148051,2,0,L|-19:275,1,60.0000022888184
9,174,148265,5,0,0:0:0:0:
104,138,148372,2,0,L|118:209,1,60.0000022888184
9,174,148587,5,0,0:0:0:0:
194,186,148694,2,0,L|206:256,1,60.0000022888184
9,174,148908,5,0,0:0:0:0:
281,247,149015,2,0,L|290:314,1,60.0000022888184
188,337,149230,5,0,0:0:0:0:
322,344,149337,2,0,L|386:343,1,60.0000022888184
509,247,149551,6,0,L|435:257,1,60.0000022888184
371,250,149765,1,0,0:0:0:0:
467,341,149872,1,0,0:0:0:0:
509,245,149980,6,0,L|501:176,1,60.0000022888184
371,250,150194,1,0,0:0:0:0:
461,191,150301,6,0,L|454:123,1,60.0000022888184
329,182,150515,1,0,0:0:0:0:
411,131,150622,6,0,L|401:60,1,60.0000022888184
288,111,150837,1,0,0:0:0:0:
229,51,150944,5,0,0:0:0:0:
288,111,151051,1,0,0:0:0:0:
329,182,151158,1,0,0:0:0:0:
187,147,151265,2,0,L|128:144,1,60.0000022888184
16,232,151480,2,0,L|75:224,1,60.0000022888184
152,56,151694,5,0,0:0:0:0:
48,80,151801,2,0,L|40:153,1,60.0000022888184
179,215,152015,5,0,0:0:0:0:
75,224,152122,1,0,0:0:0:0:
139,312,152230,1,0,0:0:0:0:
304,192,152337,5,0,0:0:0:0:
238,276,152444,1,0,0:0:0:0:
342,288,152551,1,0,0:0:0:0:
392,208,152658,6,0,L|461:225,1,60.0000022888184
456,320,152872,1,0,0:0:0:0:
496,224,152980,6,0,L|490:150,1,60.0000022888184
432,88,153194,5,0,0:0:0:0:
392,208,153301,1,0,0:0:0:0:
336,120,153408,5,0,0:0:0:0:
336,120,153515,2,0,L|249:125,1,60.0000022888184
47,139,153730,5,0,0:0:0:0:
135,98,153837,1,0,0:0:0:0:
200,168,153944,1,0,0:0:0:0:
31,235,154052,5,0,0:0:0:0:
96,305,154159,1,0,0:0:0:0:
184,264,154266,1,0,0:0:0:0:
244,326,154372,6,0,L|304:320,1,60.0000022888184
288,208,154587,1,0,0:0:0:0:
392,272,154694,6,0,L|397:331,1,60.0000022888184
200,168,154908,2,0,L|193:108,1,60.0000022888184
24,48,155122,5,0,0:0:0:0:
70,53,155230,1,0,0:0:0:0:
127,63,155337,1,0,0:0:0:0:
224,64,155444,5,0,0:0:0:0:
291,146,155551,1,0,0:0:0:0:
335,53,155658,1,0,0:0:0:0:
371,191,155765,5,0,0:0:0:0:
433,110,155872,1,0,0:0:0:0:
469,204,155980,1,0,0:0:0:0:
496,304,156087,6,0,L|424:299,1,60.0000022888184
344,336,156301,1,0,0:0:0:0:
371,191,156408,6,0,L|298:195,1,60.0000022888184
256,272,156622,2,0,L|178:269,1,60.0000022888184
122,331,156837,5,0,0:0:0:0:
134,214,156944,1,0,0:0:0:0:
26,263,157051,1,0,0:0:0:0:
100,306,157158,5,0,0:0:0:0:
133,193,157265,1,0,0:0:0:0:
18,223,157372,1,0,0:0:0:0:
76,262,157480,5,0,0:0:0:0:
137,161,157587,1,0,0:0:0:0:
19,160,157694,1,0,0:0:0:0:
72,75,157801,5,0,0:0:0:0:
72,75,157908,2,0,L|134:66,1,60.0000022888184
137,161,158122,5,0,0:0:0:0:
233,166,158230,1,0,0:0:0:0:
253,271,158337,6,0,L|334:277,1,60.0000022888184
389,357,158551,5,0,0:0:0:0:
493,328,158658,1,0,0:0:0:0:
422,259,158765,1,0,0:0:0:0:
331,286,158872,6,0,L|341:216,1,60.0000022888184
486,191,159087,1,0,0:0:0:0:
486,191,159194,6,0,L|480:116,1,60.0000022888184
368,104,159409,1,0,0:0:0:0:
368,104,159516,6,0,P|328:112|288:104,1,60.0000022888184
224,184,159730,1,0,0:0:0:0:
224,184,159837,6,0,L|160:184,1,60.0000022888184
24,216,160052,2,0,L|16:128,1,60.0000022888184
48,80,160266,5,0,0:0:0:0:
128,88,160373,1,0,0:0:0:0:
208,72,160480,1,0,0:0:0:0:
280,32,160587,1,0,0:0:0:0:
328,40,160695,6,0,L|400:48,1,60.0000022888184
192,176,160909,2,0,L|120:184,1,60.0000022888184
24,159,161123,5,0,0:0:0:0:
52,127,161230,1,0,0:0:0:0:
88,103,161337,1,0,0:0:0:0:
128,88,161444,1,0,0:0:0:0:
171,84,161551,1,0,0:0:0:0:
212,89,161658,1,0,0:0:0:0:
252,104,161765,1,0,0:0:0:0:
288,128,161873,1,0,0:0:0:0:
302,174,161980,5,0,0:0:0:0:
302,174,162087,1,0,0:0:0:0:
302,174,162195,2,0,L|310:246,1,60.0000022888184
192,336,162409,1,0,0:0:0:0:
192,336,162516,1,0,0:0:0:0:
192,336,162623,2,0,L|184:272,1,60.0000022888184
64,256,162838,5,0,0:0:0:0:
89,233,162945,1,0,0:0:0:0:
118,215,163052,1,0,0:0:0:0:
150,203,163159,1,0,0:0:0:0:
184,196,163266,1,0,0:0:0:0:
218,196,163373,1,0,0:0:0:0:
252,201,163480,1,0,0:0:0:0:
284,213,163588,1,0,0:0:0:0:
272,336,163695,5,0,0:0:0:0:
307,320,163802,1,0,0:0:0:0:
336,295,163909,1,0,0:0:0:0:
356,262,164016,1,0,0:0:0:0:
366,225,164123,1,0,0:0:0:0:
364,187,164230,1,0,0:0:0:0:
351,151,164337,1,0,0:0:0:0:
328,120,164445,1,0,0:0:0:0:
240,48,164552,5,0,0:0:0:0:
204,63,164659,1,0,0:0:0:0:
175,88,164766,1,0,0:0:0:0:
155,121,164873,1,0,0:0:0:0:
145,158,164980,1,0,0:0:0:0:
147,196,165087,1,0,0:0:0:0:
160,232,165194,1,0,0:0:0:0:
183,263,165302,1,0,0:0:0:0:
249,210,165409,5,0,0:0:0:0:
293,204,165516,1,0,0:0:0:0:
335,187,165623,1,0,0:0:0:0:
387,196,165731,1,0,0:0:0:0:
430,192,165838,2,0,L|497:185,1,60.0000022888184
482,353,166052,5,0,0:0:0:0:
452,311,166159,1,0,0:0:0:0:
404,296,166266,1,0,0:0:0:0:
356,314,166373,1,0,0:0:0:0:
312,340,166480,1,0,0:0:0:0:
263,353,166587,1,0,0:0:0:0:
215,336,166694,1,0,0:0:0:0:
179,300,166802,1,0,0:0:0:0:
270,266,166909,2,0,L|280:198,1,60.0000022888184
415,123,167123,5,0,0:0:0:0:
415,123,167231,1,0,0:0:0:0:
415,123,167338,2,0,L|348:120,1,60.0000022888184
312,29,167552,5,0,0:0:0:0:
312,29,167659,1,0,0:0:0:0:
312,29,167766,2,0,L|245:30,1,60.0000022888184
163,5,167981,5,0,0:0:0:0:
168,44,168088,1,0,0:0:0:0:
172,84,168195,1,0,0:0:0:0:
177,124,168302,1,0,0:0:0:0:
46,168,168409,6,0,L|55:86,1,60.0000022888184
236,195,168623,2,0,L|230:263,1,60.0000022888184
23,316,168838,5,0,0:0:0:0:
41,285,168945,1,0,0:0:0:0:
64,258,169052,1,0,0:0:0:0:
94,237,169159,1,0,0:0:0:0:
128,227,169266,1,0,0:0:0:0:
164,229,169373,1,0,0:0:0:0:
198,240,169481,1,0,0:0:0:0:
231,255,169588,1,0,0:0:0:0:
263,271,169695,1,0,0:0:0:0:
295,287,169802,1,0,0:0:0:0:
329,300,169909,1,0,0:0:0:0:
364,307,170016,1,0,0:0:0:0:
400,304,170123,1,0,0:0:0:0:
433,291,170231,1,0,0:0:0:0:
462,270,170338,1,0,0:0:0:0:
486,243,170445,1,0,0:0:0:0:
486,144,170552,5,0,0:0:0:0:
462,117,170659,1,0,0:0:0:0:
433,96,170766,1,0,0:0:0:0:
400,83,170873,1,0,0:0:0:0:
364,80,170981,1,0,0:0:0:0:
329,87,171088,1,0,0:0:0:0:
295,100,171195,1,0,0:0:0:0:
263,116,171302,1,0,0:0:0:0:
231,132,171409,1,0,0:0:0:0:
198,147,171516,1,0,0:0:0:0:
164,158,171623,1,0,0:0:0:0:
128,160,171731,1,0,0:0:0:0:
94,150,171838,1,0,0:0:0:0:
64,129,171945,1,0,0:0:0:0:
41,102,172052,1,0,0:0:0:0:
23,70,172159,1,0,0:0:0:0:
16,176,172266,6,0,L|0:256,1,60.0000022888184
64,352,172481,1,0,0:0:0:0:
112,256,172588,6,0,L|200:256,1,60.0000022888184
240,328,172802,1,0,0:0:0:0:
288,208,172909,5,0,0:0:0:0:
288,208,173016,2,0,L|376:200,1,60.0000022888184
441,152,173231,5,0,0:0:0:0:
447,109,173338,1,0,0:0:0:0:
453,63,173445,1,0,0:0:0:0:
351,75,173552,6,0,L|280:75,1,60.0000022888184
166,143,173766,2,0,L|103:134,1,60.0000022888184
156,41,173980,5,0,0:0:0:0:
114,36,174087,1,0,0:0:0:0:
74,47,174194,1,0,0:0:0:0:
40,72,174301,1,0,0:0:0:0:
18,108,174408,1,0,0:0:0:0:
11,149,174515,1,0,0:0:0:0:
107,135,174623,5,0,0:0:0:0:
140,148,174730,1,0,0:0:0:0:
175,155,174837,1,0,0:0:0:0:
211,156,174944,1,0,0:0:0:0:
247,151,175051,1,0,0:0:0:0:
281,141,175158,1,0,0:0:0:0:
362,56,175265,2,0,L|373:141,1,60.0000022888184
460,149,175480,2,0,L|467:208,1,60.0000022888184
373,210,175695,5,0,0:0:0:0:
373,210,175802,1,0,0:0:0:0:
373,210,175909,1,0,0:0:0:0:
421,327,176016,5,0,0:0:0:0:
421,327,176123,1,0,0:0:0:0:
421,327,176231,1,0,0:0:0:0:
294,302,176338,5,0,0:0:0:0:
294,302,176445,1,0,0:0:0:0:
294,302,176552,1,0,0:0:0:0:
208,234,176659,5,0,0:0:0:0:
142,324,176766,2,0,L|69:314,1,60.0000022888184
4,246,176980,5,0,0:0:0:0:
5,285,177087,1,0,0:0:0:0:
7,325,177194,1,0,0:0:0:0:
9,365,177301,1,0,0:0:0:0:
100,286,177409,5,0,0:0:0:0:
110,245,177516,1,0,0:0:0:0:
116,203,177623,1,0,0:0:0:0:
116,161,177730,1,0,0:0:0:0:
112,120,177837,1,0,0:0:0:0:
102,79,177944,1,0,0:0:0:0:
15,145,178052,5,0,0:0:0:0:
65,155,178159,1,0,0:0:0:0:
116,161,178266,1,0,0:0:0:0:
167,163,178373,1,0,0:0:0:0:
219,160,178480,1,0,0:0:0:0:
270,154,178587,1,0,0:0:0:0:
320,142,178694,1,0,0:0:0:0:
369,127,178802,1,0,0:0:0:0:
441,66,178909,5,0,0:0:0:0:
478,109,179016,1,0,0:0:0:0:
486,167,179123,5,0,0:0:0:0:
462,194,179231,1,0,0:0:0:0:
434,218,179338,1,0,0:0:0:0:
399,232,179445,1,0,0:0:0:0:
362,232,179552,1,0,0:0:0:0:
326,221,179659,1,0,0:0:0:0:
363,125,179766,6,0,L|296:132,1,60.0000022888184
263,24,179981,1,0,0:0:0:0:
188,88,180088,5,0,0:0:0:0:
188,88,180195,2,0,L|116:85,1,60.0000022888184
8,123,180409,5,0,0:0:0:0:
58,20,180516,1,0,0:0:0:0:
89,169,180623,6,0,L|80:247,1,60.0000022888184
8,309,180838,5,0,0:0:0:0:
44,315,180945,1,0,0:0:0:0:
80,321,181052,1,0,0:0:0:0:
115,327,181159,1,0,0:0:0:0:
151,333,181266,1,0,0:0:0:0:
186,338,181373,1,0,0:0:0:0:
227,237,181481,5,0,0:0:0:0:
269,240,181588,1,0,0:0:0:0:
311,243,181695,1,0,0:0:0:0:
353,245,181802,1,0,0:0:0:0:
395,248,181909,1,0,0:0:0:0:
437,250,182016,1,0,0:0:0:0:
505,184,182123,6,0,L|498:117,1,60.0000022888184
429,46,182338,2,0,L|346:33,1,60.0000022888184
286,94,182552,5,0,0:0:0:0:
262,193,182659,1,0,0:0:0:0:
207,37,182766,1,0,0:0:0:0:
171,226,182873,5,0,0:0:0:0:
171,226,182981,2,0,L|103:220,1,60.0000022888184
13,61,183195,5,0,0:0:0:0:
13,61,183302,2,0,L|99:69,1,60.0000022888184
253,150,183516,5,0,0:0:0:0:
142,133,183623,1,0,0:0:0:0:
211,49,183731,1,0,0:0:0:0:
328,82,183838,6,0,L|393:72,1,60.0000022888184
466,117,184052,2,0,L|465:187,1,60.0000022888184
354,188,184266,5,0,0:0:0:0:
325,213,184373,1,0,0:0:0:0:
293,235,184480,1,0,0:0:0:0:
258,252,184587,1,0,0:0:0:0:
222,264,184694,1,0,0:0:0:0:
184,270,184801,1,0,0:0:0:0:
145,271,184908,1,0,0:0:0:0:
107,266,185016,1,0,0:0:0:0:
2,178,185123,5,0,0:0:0:0:
58,158,185230,1,0,0:0:0:0:
118,151,185337,1,0,0:0:0:0:
177,155,185445,1,0,0:0:0:0:
256,188,185552,5,0,0:0:0:0:
225,74,185659,1,0,0:0:0:0:
347,169,185766,1,0,0:0:0:0:
347,169,185873,1,0,0:0:0:0:
355,49,185980,5,0,0:0:0:0:
472,118,186087,2,0,L|466:186,1,60.0000022888184
376,63,186302,5,0,0:0:0:0:
479,151,186409,2,0,L|461:216,1,60.0000022888184
403,92,186623,5,0,0:0:0:0:
480,204,186730,2,0,L|445:263,1,60.0000022888184
426,138,186945,5,0,0:0:0:0:
460,270,187052,2,0,L|407:313,1,60.0000022888184
370,217,187266,6,0,L|306:212,1,60.0000022888184
248,293,187480,2,0,L|170:282,1,60.0000022888184
6,202,187695,5,0,0:0:0:0:
79,64,187802,1,0,0:0:0:0:
161,196,187909,1,0,0:0:0:0:
158,106,188016,5,0,0:0:0:0:
85,244,188123,1,0,0:0:0:0:
2,112,188231,1,0,0:0:0:0:
161,196,188338,5,0,0:0:0:0:
79,64,188445,1,0,0:0:0:0:
6,202,188552,1,0,0:0:0:0:
2,112,188659,5,0,0:0:0:0:
85,244,188766,1,0,0:0:0:0:
158,106,188874,1,0,0:0:0:0:
247,200,188980,6,0,L|328:206,1,60.0000022888184
323,92,189195,2,0,L|391:85,1,60.0000022888184
497,42,189409,5,0,0:0:0:0:
493,86,189516,1,0,0:0:0:0:
490,131,189623,1,0,0:0:0:0:
405,290,189730,5,0,0:0:0:0:
400,245,189837,1,0,0:0:0:0:
396,200,189944,1,0,0:0:0:0:
330,3,190052,5,0,0:0:0:0:
326,47,190159,1,0,0:0:0:0:
323,92,190266,1,0,0:0:0:0:
238,251,190373,5,0,0:0:0:0:
233,206,190480,1,0,0:0:0:0:
229,161,190587,1,0,0:0:0:0:
222,53,190695,6,0,L|146:46,1,60.0000022888184
7,133,190909,2,0,L|90:125,1,60.0000022888184
69,33,191123,5,0,0:0:0:0:
162,146,191230,2,0,L|167:218,1,60.0000022888184
352,339,191445,5,0,0:0:0:0:
259,226,191552,2,0,L|254:154,1,60.0000022888184
56,19,191766,5,0,0:0:0:0:
149,132,191873,2,0,L|154:204,1,60.0000022888184
366,353,192088,5,0,0:0:0:0:
273,240,192195,2,0,L|268:168,1,60.0000022888184
148,43,192409,5,0,0:0:0:0:
148,43,192516,1,0,0:0:0:0:
148,43,192623,2,0,L|234:39,1,60.0000022888184
351,65,192837,5,0,0:0:0:0:
351,186,192945,1,0,0:0:0:0:
454,126,193052,1,0,0:0:0:0:
335,149,193159,5,0,0:0:0:0:
216,133,193266,1,0,0:0:0:0:
262,243,193373,1,0,0:0:0:0:
252,148,193480,5,0,0:0:0:0:
222,32,193587,1,0,0:0:0:0:
137,117,193695,1,0,0:0:0:0:
118,145,193802,5,0,0:0:0:0:
8,97,193909,1,0,0:0:0:0:
22,217,194016,1,0,0:0:0:0:
130,235,194123,6,0,L|122:321,1,60.0000022888184
216,359,194337,2,0,L|225:278,1,60.0000022888184
317,328,194552,6,0,P|376:343|414:335,1,60.0000022888184
341,183,194766,1,0,0:0:0:0:
347,350,194873,6,0,P|399:350|437:325,1,60.0000022888184
300,218,195087,1,0,0:0:0:0:
396,355,195195,6,0,P|441:343|474:310,1,60.0000022888184
280,267,195409,1,0,0:0:0:0:
443,350,195516,6,0,P|481:330|513:285,1,60.0000022888184
293,319,195730,1,0,0:0:0:0:
506,207,195837,6,0,P|477:160|444:132,1,60.0000022888184
365,252,196052,2,0,P|396:253|450:245,1,60.0000022888184
321,42,196266,5,0,0:0:0:0:
321,42,196373,1,0,0:0:0:0:
321,42,196480,1,0,0:0:0:0:
262,203,196587,5,0,0:0:0:0:
262,203,196695,1,0,0:0:0:0:
262,203,196802,1,0,0:0:0:0:
190,91,196909,5,0,0:0:0:0:
190,91,197016,1,0,0:0:0:0:
190,91,197123,1,0,0:0:0:0:
380,143,197230,5,0,0:0:0:0:
380,143,197337,1,0,0:0:0:0:
380,143,197445,1,0,0:0:0:0:
196,272,197552,6,0,L|121:277,1,60.0000022888184
55,323,197766,1,0,0:0:0:0:
17,223,197873,1,0,0:0:0:0:
91,152,197980,5,0,0:0:0:0:
150,155,198087,1,0,0:0:0:0:
212,157,198194,1,0,0:0:0:0:
228,62,198301,5,0,0:0:0:0:
302,65,198408,1,0,0:0:0:0:
377,67,198515,1,0,0:0:0:0:
505,174,198622,5,0,0:0:0:0:
471,85,198730,1,0,0:0:0:0:
377,67,198837,1,0,0:0:0:0:
316,152,198944,5,0,0:0:0:0:
360,251,199051,2,0,L|369:329,1,60.0000022888184
253,346,199265,5,0,0:0:0:0:
147,356,199372,1,0,0:0:0:0:
193,236,199480,5,0,0:0:0:0:
82,233,199587,1,0,0:0:0:0:
23,336,199695,5,0,0:0:0:0:
9,296,199802,1,0,0:0:0:0:
1,255,199909,1,0,0:0:0:0:
0,213,200016,1,0,0:0:0:0:
6,171,200123,1,0,0:0:0:0:
18,131,200230,1,0,0:0:0:0:
99,31,200337,5,0,0:0:0:0:
113,71,200444,1,0,0:0:0:0:
121,112,200551,1,0,0:0:0:0:
122,154,200658,1,0,0:0:0:0:
116,196,200765,1,0,0:0:0:0:
104,236,200872,1,0,0:0:0:0:
94,276,200980,6,0,L|24:284,1,60.0000022888184
174,337,201195,2,0,L|249:347,1,60.0000022888184
441,361,201409,5,0,0:0:0:0:
464,316,201516,1,0,0:0:0:0:
475,268,201623,1,0,0:0:0:0:
474,218,201730,1,0,0:0:0:0:
459,170,201837,1,0,0:0:0:0:
433,128,201944,1,0,0:0:0:0:
397,94,202051,5,0,0:0:0:0:
353,70,202159,1,0,0:0:0:0:
305,58,202266,1,0,0:0:0:0:
255,59,202373,1,0,0:0:0:0:
207,73,202480,1,0,0:0:0:0:
164,98,202587,1,0,0:0:0:0:
130,134,202695,6,0,L|98:190,1,60.0000022888184
38,245,202909,2,0,L|26:308,1,60.0000022888184
