osu file format v14

[General]
AudioFilename: audio.mp3
AudioLeadIn: 0
PreviewTime: 10495
Countdown: 0
SampleSet: Soft
StackLeniency: 0.7
Mode: 0
LetterboxInBreaks: 0
WidescreenStoryboard: 0

[Editor]
DistanceSpacing: 1.1
BeatDivisor: 2
GridSize: 4
TimelineZoom: 1.7

[Metadata]
Title:M.R.
TitleUnicode:M.R.
Artist:Triodust
ArtistUnicode:Triodust
Creator:Nozhomi
Version:Easy
Source:Rabi-Ribi
Tags:ăƒ©ăƒ“-ăƒȘビ RabiRibi Original Soundtrack Steam kano-bi CreSpirit Animen Sekai Project Plurk GemaYue Erina Ribbon rabbit bunny Doyak Pachiru
BeatmapID:1229733
BeatmapSetID:580867

[Difficulty]
HPDrainRate:2
CircleSize:2.5
OverallDifficulty:2.2
ApproachRate:3.7
SliderMultiplier:0.8
SliderTickRate:1

[Events]
//Background and Video events
0,0,"rabi.jpg",0,0
//Break Periods
//Storyboard Layer 0 (Background)
//Storyboard Layer 1 (Fail)
//Storyboard Layer 2 (Pass)
//Storyboard Layer 3 (Foreground)
//Storyboard Sound Samples

[TimingPoints]
895,300,4,2,1,40,1,0
10495,-100,4,2,1,60,0,0
38545,-100,4,2,1,50,0,0
39295,-100,4,2,1,60,0,0
70195,-100,4,2,1,40,0,0

[Colours]
Combo1 : 0,210,210
Combo2 : 128,0,255
Combo3 : 206,0,0
Combo4 : 255,128,255

[HitObjects]
107,239,895,6,0,P|113:161|166:102,1,160,4|2,0:3|0:0,0:0:0:0:
345,102,2095,2,0,P|397:161|404:239,1,160,2|2,0:0|0:0,0:0:0:0:
256,336,3295,2,0,L|88:328,2,160,4|2|2,0:3|0:0|0:0,0:0:0:0:
404,240,5095,1,2,0:0:0:0:
330,79,5695,6,0,P|255:53|181:79,1,160,4|2,0:3|0:0,0:0:0:0:
181,254,6895,2,0,P|255:279|329:253,1,160,2|2,0:0|0:0,0:0:0:0:
416,100,8095,2,0,L|410:20,1,80,2|0,0:0|0:0,0:0:0:0:
324,36,8695,2,0,L|329:115,1,80,2|0,0:0|0:0,0:0:0:0:
383,184,9295,2,0,P|308:270|194:253,1,240,2|2,0:0|0:0,0:0:0:0:
167,168,10495,6,0,P|105:259|180:343,1,240,4|0,3:1|1:0,0:0:0:0:
260,308,11695,2,0,P|336:287|413:306,1,160,4|2,0:3|0:0,0:0:0:0:
492,344,12595,1,0,1:0:0:0:
486,255,12895,6,0,P|405:211|240:225,1,240,4|0,0:3|1:0,0:0:0:0:
176,244,14095,2,0,P|100:257|35:176,1,160,4|2,0:3|0:0,0:0:0:0:
124,172,14995,1,0,1:0:0:0:
112,84,15295,6,0,P|221:42|331:83,1,240,4|0,0:3|1:0,0:0:0:0:
404,136,16495,2,0,L|396:324,1,160,4|2,0:3|0:0,0:0:0:0:
444,372,17395,1,2,1:2:0:0:
484,296,17695,6,0,L|486:216,1,80,4|0,0:3|1:0,0:0:0:0:
488,128,18295,2,0,L|490:48,1,80,2|0,0:0|1:0,0:0:0:0:
406,19,18895,2,0,P|384:94|411:168,1,160,4|2,0:3|0:0,0:0:0:0:
485,216,19795,1,2,1:2:0:0:
408,256,20095,6,0,B|332:280|332:280|160:252,1,240,4|0,0:3|1:0,0:0:0:0:
136,332,21295,2,0,L|294:358,1,160,4|2,0:3|0:0,0:0:0:0:
380,356,22195,1,0,1:0:0:0:
464,331,22495,6,0,P|496:224|405:157,1,240,4|0,0:3|1:0,0:0:0:0:
332,208,23695,2,0,P|255:228|179:207,1,160,4|2,0:3|0:0,0:0:0:0:
107,157,24595,1,0,1:0:0:0:
142,76,24895,6,0,P|255:42|369:76,1,240,4|0,0:3|1:0,0:0:0:0:
432,136,26095,2,0,P|452:213|431:289,1,160,4|2,0:3|0:0,0:0:0:0:
360,340,26995,1,2,1:2:0:0:
276,360,27295,6,0,L|196:356,1,80,4|0,0:3|1:0,0:0:0:0:
166,272,27895,2,0,L|246:276,1,80,2|0,0:0|1:0,0:0:0:0:
216,192,28495,2,0,L|296:196,2,80,4|0|2,0:3|1:0|0:0,0:0:0:0:
147,136,29395,1,2,1:2:0:0:
75,190,29695,6,0,P|75:79|183:51,1,240,4|0,0:3|1:0,0:0:0:0:
236,124,30895,2,0,L|224:296,1,160,4|2,0:3|0:0,0:0:0:0:
220,372,31795,1,0,1:0:0:0:
300,332,32095,6,0,P|340:236|312:92,1,240,4|0,0:3|1:0,0:0:0:0:
256,44,33295,2,0,L|88:36,1,160,4|2,0:3|0:0,0:0:0:0:
8,32,34195,1,0,1:0:0:0:
48,112,34495,6,0,B|84:228|84:228|48:341,1,240,4|0,0:3|1:0,0:0:0:0:
136,360,35695,2,0,L|185:202,1,160,4|2,0:3|0:0,0:0:0:0:
256,156,36595,1,0,1:0:0:0:
329,207,36896,6,0,P|403:232|477:205,1,160,4|2,0:3|0:0,0:0:0:0:
508,124,37795,1,0,1:0:0:0:
436,72,38095,2,0,L|332:68,1,80,4|0,0:3|1:0,0:0:0:0:
188,128,38995,1,0,1:0:0:0:
99,127,39295,6,0,P|87:70|111:16,2,120,4|0|0,3:1|0:0|1:0,0:0:0:0:
140,204,40495,2,0,P|165:278|139:351,1,160,4|2,0:3|0:0,0:0:0:0:
56,380,41395,1,0,1:0:0:0:
20,300,41695,6,0,L|32:132,1,160,4|2,0:3|0:0,0:0:0:0:
84,68,42595,1,0,1:0:0:0:
160,112,42895,2,0,P|235:135|311:113,1,160,4|2,0:3|0:0,0:0:0:0:
380,60,43795,1,0,1:0:0:0:
392,148,44095,6,0,P|407:205|386:260,2,120,4|0|0,0:3|0:0|1:0,0:0:0:0:
310,113,45295,2,0,P|283:187|299:264,1,160,4|2,0:3|0:0,0:0:0:0:
348,336,46195,1,0,1:0:0:0:
260,344,46495,6,0,L|80:332,1,160,4|2,0:3|0:0,0:0:0:0:
28,284,47395,1,0,1:0:0:0:
104,240,47695,2,0,L|263:250,1,160,4|2,0:3|0:0,0:0:0:0:
328,308,48595,1,0,1:0:0:0:
396,252,48895,6,0,P|408:204|388:152,1,80,4|2,0:3|1:2,0:0:0:0:
364,96,49495,2,0,P|338:53|287:30,1,80,2|2,0:0|1:2,0:0:0:0:
228,20,50095,1,4,0:3:0:0:
152,63,50395,2,0,P|108:140|136:216,1,160,2|0,1:2|1:0,0:0:0:0:
208,236,51295,6,0,L|464:248,1,240,4|0,0:3|1:0,0:0:0:0:
416,328,52495,1,4,0:3:0:0:
157,317,53395,1,0,1:0:0:0:
84,268,53695,6,0,P|66:227|83:165,1,80,4|2,0:3|1:2,0:0:0:0:
126,126,54295,2,0,P|170:123|223:160,1,80,2|2,0:0|1:2,0:0:0:0:
256,208,54895,1,4,0:3:0:0:
311,136,55195,2,0,P|387:125|443:178,1,160,2|0,1:2|1:0,0:0:0:0:
420,264,56095,6,0,B|368:308|312:280|312:280|250:321|191:273,1,240,4|0,0:3|1:0,0:0:0:0:
176,192,57295,1,4,0:3:0:0:
443,178,58195,1,0,1:0:0:0:
396,104,58495,6,0,L|400:8,1,80,4|2,0:3|1:2,0:0:0:0:
312,40,59095,2,0,L|308:119,1,80,2|2,0:0|1:2,0:0:0:0:
256,192,59695,1,4,0:3:0:0:
202,119,59995,2,0,P|128:95|53:120,1,160,2|0,1:2|1:0,0:0:0:0:
20,200,60895,6,0,B|16:240|40:272|96:296|96:296|152:284|152:284|204:296,1,240,4|0,0:3|1:0,0:0:0:0:
288,320,62095,1,4,0:3:0:0:
100,136,62995,1,0,1:0:0:0:
183,168,63295,6,0,P|221:177|260:167,1,80,4|2,0:3|1:2,0:0:0:0:
339,128,63895,2,0,P|377:118|416:127,1,80,2|2,0:0|1:2,0:0:0:0:
487,180,64495,1,4,0:3:0:0:
443,256,64795,2,0,B|367:268|367:268|284:255,1,160,2|0,1:2|1:0,0:0:0:0:
243,334,65695,6,0,B|368:354|368:354|480:336,1,240,4|0,0:3|1:0,0:0:0:0:
443,256,66895,1,4,0:3:0:0:
224,112,67795,1,0,1:0:0:0:
176,184,68095,5,2,0:0:0:0:
256,192,68245,12,0,70495,0:0:0:0:
