osu file format v14

[General]
AudioFilename: audio.mp3
AudioLeadIn: 0
PreviewTime: 10495
Countdown: 0
SampleSet: Soft
StackLeniency: 0.5
Mode: 0
LetterboxInBreaks: 0
WidescreenStoryboard: 1

[Editor]
DistanceSpacing: 1.3
BeatDivisor: 4
GridSize: 4
TimelineZoom: 1.7

[Metadata]
Title:M.R.
TitleUnicode:M.R.
Artist:Triodust
ArtistUnicode:Triodust
Creator:Nozhomi
Version:Doyak's Insane
Source:Rabi-Ribi
Tags:ăƒ©ăƒ“-ăƒȘビ RabiRibi Original Soundtrack Steam kano-bi CreSpirit Animen Sekai Project Plurk GemaYue Erina Ribbon rabbit bunny Doyak Pachiru
BeatmapID:1231408
BeatmapSetID:580867

[Difficulty]
HPDrainRate:6
CircleSize:4
OverallDifficulty:8
ApproachRate:9
SliderMultiplier:1.7
SliderTickRate:1

[Events]
//Background and Video events
0,0,"rabi.jpg",0,0
//Break Periods
//Storyboard Layer 0 (Background)
//Storyboard Layer 1 (Fail)
//Storyboard Layer 2 (Pass)
//Storyboard Layer 3 (Foreground)
//Storyboard Sound Samples

[TimingPoints]
895,300,4,2,1,35,1,0
895,-125,4,2,1,35,0,0
10495,-100,4,2,1,50,0,0
20095,-100,4,2,1,60,0,0
29695,-100,4,2,1,70,0,0
38545,-100,4,2,1,50,0,0
39295,-111.111111111111,4,2,1,50,0,0
48895,-100,4,2,1,60,0,0
70195,-100,4,2,1,40,0,0

[Colours]
Combo1 : 0,210,210
Combo2 : 128,0,255
Combo3 : 206,0,0
Combo4 : 255,128,255

[HitObjects]
98,243,895,6,0,L|165:252,1,68,4|0,0:3|0:0,0:0:0:0:
241,296,1195,2,0,L|250:229,1,68,2|0,0:0|0:0,0:0:0:0:
294,153,1495,2,0,L|227:144,1,68,2|0,0:0|0:0,0:0:0:0:
151,100,1795,2,0,L|142:167,1,68,2|0,0:0|0:0,0:0:0:0:
98,243,2095,5,2,0:0:0:0:
239,70,2395,2,0,L|306:79,1,68,2|0,0:0|0:0,0:0:0:0:
380,127,2695,1,2,0:0:0:0:
306,175,2845,1,0,0:0:0:0:
380,223,2995,1,2,0:0:0:0:
306,271,3145,1,0,0:0:0:0:
233,226,3295,6,0,L|98:244,1,136,4|2,0:3|0:0,0:0:0:0:
10,255,3745,1,0,0:0:0:0:
87,156,3895,2,0,L|221:137,1,136,2|2,0:0|0:0,0:0:0:0:
309,124,4345,1,0,0:0:0:0:
276,206,4495,6,0,P|273:239|285:271,1,68,2|0,0:0|0:0,0:0:0:0:
373,259,4795,2,0,P|375:225|363:193,1,68,2|0,0:0|0:0,0:0:0:0:
263,119,5095,1,2,0:0:0:0:
189,219,5245,2,0,L|54:200,1,136,2|2,0:0|0:0,0:0:0:0:
166,304,5695,6,0,L|233:295,1,68,4|0,0:3|0:0,0:0:0:0:
278,218,5995,2,0,L|345:227,1,68,2|0,0:0|0:0,0:0:0:0:
421,271,6295,2,0,L|430:204,1,68,2|0,0:0|0:0,0:0:0:0:
507,159,6595,2,0,L|498:92,1,68,2|0,0:0|0:0,0:0:0:0:
455,13,6895,5,2,0:0:0:0:
377,55,7045,1,0,0:0:0:0:
299,13,7195,1,2,0:0:0:0:
221,55,7345,1,0,0:0:0:0:
143,13,7495,2,0,P|131:44|133:78,1,68,2|0,0:0|0:0,0:0:0:0:
196,140,7795,2,0,P|229:144|261:133,1,68,2|0,0:0|0:0,0:0:0:0:
111,163,8095,5,2,0:0:0:0:
108,179,8170,1,0,0:0:0:0:
106,196,8245,1,0,0:0:0:0:
103,213,8320,1,0,0:0:0:0:
101,230,8395,1,2,0:0:0:0:
99,247,8470,1,0,0:0:0:0:
96,264,8545,1,0,0:0:0:0:
94,280,8620,1,0,0:0:0:0:
92,297,8695,6,0,L|125:301,3,34,2|0|0|0,0:0|0:0|0:0|0:0,0:0:0:0:
205,262,8995,2,0,L|238:257,3,34,2|0|0|0,0:0|0:0|0:0|0:0,0:0:0:0:
315,301,9295,5,2,0:0:0:0:
392,346,9445,1,0,0:0:0:0:
392,169,9595,1,2,0:0:0:0:
315,213,9745,1,0,0:0:0:0:
468,213,9895,2,0,P|480:181|477:147,1,68,2|0,0:0|0:0,0:0:0:0:
468,301,10195,2,0,P|480:332|477:366,1,68,2|0,0:0|0:0,0:0:0:0:
305,233,10495,6,0,P|283:152|326:81,1,170,4|0,3:1|1:0,0:0:0:0:
392,169,10945,1,0,0:0:0:0:
333,340,11095,2,0,L|248:328,1,85,2|4,0:0|0:3,0:0:0:0:
110,244,11395,2,0,L|194:232,1,85,2|0,1:2|0:0,0:0:0:0:
381,253,11695,6,0,P|445:219|394:168,1,170,4|0,0:3|1:0,0:0:0:0:
136,138,12295,2,0,L|148:53,1,85,2|4,0:0|0:3,0:0:0:0:
194,231,12595,2,0,L|206:316,1,85,2|0,1:2|0:0,0:0:0:0:
345,211,12895,6,0,P|264:189|193:232,1,170,4|0,0:3|1:0,0:0:0:0:
98,285,13345,1,0,0:0:0:0:
98,285,13420,1,0,0:0:0:0:
98,285,13495,2,0,L|86:200,1,85,2|4,0:0|0:3,0:0:0:0:
278,298,13795,2,0,L|266:383,1,85,2|0,1:2|0:0,0:0:0:0:
211,211,14095,6,0,P|292:189|363:232,1,170,4|0,0:3|1:0,0:0:0:0:
278,298,14545,1,0,0:0:0:0:
307,77,14695,2,0,L|392:89,1,85,2|4,0:0|0:3,0:0:0:0:
208,124,14995,2,0,L|123:112,1,85,2|0,1:2|0:0,0:0:0:0:
278,339,15295,6,0,P|319:267|297:187,2,170,4|0|2,0:3|1:0|0:0,0:0:0:0:
208,252,16045,1,4,0:3:0:0:
198,141,16195,2,0,L|210:56,1,85,2|2,1:2|0:0,0:0:0:0:
108,205,16495,5,4,0:3:0:0:
208,252,16645,1,2,0:0:0:0:
297,187,16795,1,2,1:2:0:0:
397,234,16945,1,2,0:0:0:0:
386,124,17095,2,0,L|374:39,1,85,2|4,0:0|0:3,0:0:0:0:
308,299,17395,2,0,L|320:384,1,85,2|0,1:2|0:0,0:0:0:0:
198,141,17695,6,0,L|155:135,3,42.5,4|0|0|0,0:3|0:0|0:0|0:0,0:0:0:0:
45,125,17995,2,0,L|50:167,3,42.5,2|0|0|0,1:2|0:0|0:0|0:0,0:0:0:0:
71,275,18295,5,2,0:0:0:0:
92,272,18370,1,0,0:0:0:0:
113,269,18445,1,4,0:3:0:0:
134,266,18520,1,0,0:0:0:0:
155,263,18595,1,2,1:2:0:0:
176,260,18670,1,0,0:0:0:0:
197,257,18745,1,0,0:0:0:0:
218,254,18820,1,0,0:0:0:0:
239,251,18895,6,0,P|242:293|262:330,1,85,4|0,0:3|0:0,0:0:0:0:
459,270,19195,2,0,P|456:228|436:191,1,85,2|0,1:2|0:0,0:0:0:0:
316,150,19495,1,2,0:0:0:0:
382,371,19645,1,4,0:3:0:0:
348,260,19795,1,2,1:2:0:0:
348,260,19945,1,2,0:0:0:0:
195,147,20095,6,0,L|26:170,2,170,4|0|2,0:3|1:0|0:0,0:0:0:0:
304,131,20845,1,4,0:3:0:0:
262,233,20995,2,0,L|274:318,1,85,2|0,1:2|0:0,0:0:0:0:
387,63,21295,6,0,P|315:22|236:44,1,170,4|0,0:3|1:0,0:0:0:0:
304,131,21745,1,0,0:0:0:0:
405,173,21895,2,0,L|490:161,1,85,2|4,0:0|0:3,0:0:0:0:
318,240,22195,2,0,L|233:228,1,85,2|0,1:2|0:0,0:0:0:0:
392,325,22495,6,0,P|430:252|405:173,2,170,4|0|2,0:3|1:0|0:0,0:0:0:0:
318,240,23245,1,4,0:3:0:0:
256,332,23395,1,2,1:2:0:0:
194,240,23545,1,0,0:0:0:0:
120,324,23695,6,0,P|82:251|107:172,1,170,4|0,0:3|1:0,0:0:0:0:
209,130,24145,1,0,0:0:0:0:
296,198,24295,2,0,P|316:160|319:119,1,85,2|4,0:0|0:3,0:0:0:0:
194,240,24595,2,0,P|197:282|217:319,1,85,2|0,1:2|0:0,0:0:0:0:
209,130,24895,6,0,L|40:153,2,170,4|0|2,0:3|1:0|0:0,0:0:0:0:
319,118,25645,1,4,0:3:0:0:
286,304,25795,2,0,L|274:219,1,85,2|0,1:2|0:0,0:0:0:0:
253,29,26095,5,4,0:3:0:0:
209,130,26245,1,2,0:0:0:0:
144,41,26395,1,2,1:2:0:0:
100,142,26545,1,2,0:0:0:0:
274,219,26695,2,0,L|359:207,1,85,2|4,0:0|0:3,0:0:0:0:
100,142,26995,2,0,L|15:130,1,85,2|0,1:2|0:0,0:0:0:0:
164,231,27295,6,0,L|170:274,3,42.5,4|0|0|0,0:3|0:0|0:0|0:0,0:0:0:0:
271,318,27595,2,0,L|277:361,3,42.5,2|0|0|0,1:2|0:0|0:0|0:0,0:0:0:0:
387,346,27895,5,2,0:0:0:0:
384,325,27970,1,0,0:0:0:0:
381,304,28045,1,4,0:3:0:0:
378,283,28120,1,0,0:0:0:0:
375,262,28195,1,2,1:2:0:0:
372,241,28270,1,0,0:0:0:0:
369,220,28345,1,0,0:0:0:0:
366,199,28420,1,0,0:0:0:0:
363,178,28495,6,0,P|403:165|434:138,1,85,4|2,0:3|0:0,0:0:0:0:
149,178,28795,2,0,P|109:165|78:138,1,85,0|0,1:0|0:0,0:0:0:0:
256,84,29095,1,2,0:0:0:0:
354,257,29245,1,4,0:3:0:0:
158,257,29395,1,2,1:2:0:0:
256,84,29545,1,2,0:0:0:0:
226,343,29695,6,0,P|147:369|74:331,1,170,4|0,0:3|1:0,0:0:0:0:
51,222,30145,1,0,0:0:0:0:
242,182,30295,1,2,0:0:0:0:
158,257,30445,1,4,0:3:0:0:
138,148,30595,2,0,P|104:120|63:110,1,85,2|0,1:2|0:0,0:0:0:0:
242,182,30895,6,0,P|321:156|394:194,1,170,4|0,0:3|1:0,0:0:0:0:
312,269,31345,1,0,0:0:0:0:
329,78,31495,1,2,0:0:0:0:
329,78,31645,1,4,0:3:0:0:
501,166,31795,2,0,L|489:251,1,85,2|0,1:2|0:0,0:0:0:0:
221,333,32095,6,0,P|199:253|241:181,2,170,4|0|2,0:3|1:0|0:0,0:0:0:0:
312,269,32845,1,4,0:3:0:0:
109,198,32995,2,0,L|24:210,1,85,2|0,1:2|0:0,0:0:0:0:
172,60,33295,6,0,L|257:72,1,85,4|0,0:3|0:0,0:0:0:0:
430,123,33595,2,0,L|345:135,1,85,0|0,1:0|0:0,0:0:0:0:
235,291,33895,1,2,0:0:0:0:
335,244,34045,1,4,0:3:0:0:
245,181,34195,2,0,L|160:169,1,85,2|0,1:2|0:0,0:0:0:0:
409,327,34495,6,0,P|447:253|421:174,1,170,4|0,0:3|1:0,0:0:0:0:
317,134,34945,1,0,0:0:0:0:
300,344,35095,1,2,0:0:0:0:
300,344,35245,1,4,0:3:0:0:
210,157,35395,2,0,P|207:114|222:75,1,85,2|0,1:2|0:0,0:0:0:0:
285,239,35695,6,0,L|116:262,1,170,4|0,0:3|1:0,0:0:0:0:
6,275,36145,1,0,0:0:0:0:
37,89,36295,2,0,L|49:174,1,85,2|4,0:0|0:3,0:0:0:0:
128,346,36595,2,0,L|116:261,1,85,2|0,1:2|0:0,0:0:0:0:
232,68,36895,6,0,P|274:65|313:80,1,85,4|0,0:3|0:0,0:0:0:0:
280,316,37195,2,0,P|237:318|198:303,1,85,2|0,1:2|0:0,0:0:0:0:
380,168,37495,2,0,P|382:210|367:249,1,85,2|4,0:0|0:3,0:0:0:0:
132,216,37795,2,0,P|129:173|144:134,1,85,2|0,1:2|0:0,0:0:0:0:
323,73,38095,6,0,L|408:61,1,85,4|0,0:3|0:0,0:0:0:0:
486,137,38395,1,0,1:0:0:0:
380,168,38545,2,0,L|382:189,10,21.25,2|0|0|0|0|0|0|0|0|0|0,0:0|0:0|0:0|0:0|0:0|0:0|0:0|0:0|0:0|0:0|0:0,0:0:0:0:
460,244,38995,2,0,L|448:329,1,85,2|0,1:2|0:0,0:0:0:0:
301,254,39295,6,0,P|237:214|165:233,1,152.999995330811,4|0,3:1|1:0,0:0:0:0:
223,314,39745,1,0,0:0:0:0:
254,120,39895,2,0,L|264:44,1,76.4999976654053,2|4,0:0|0:3,0:0:0:0:
80,91,40195,2,0,L|90:166,1,76.4999976654053,2|0,1:2|0:0,0:0:0:0:
223,314,40495,6,0,L|374:292,1,152.999995330811,4|0,0:3|1:0,0:0:0:0:
473,282,40945,1,0,0:0:0:0:
333,201,41095,1,2,0:0:0:0:
493,184,41245,1,4,0:3:0:0:
374,292,41395,1,2,1:2:0:0:
407,134,41545,1,0,0:0:0:0:
407,134,41695,6,0,L|396:58,1,76.4999976654053,4|0,0:3|0:0,0:0:0:0:
333,201,41995,1,0,1:0:0:0:
309,9,42145,1,2,0:0:0:0:
238,171,42295,2,0,P|201:182|163:178,1,76.4999976654053,2|4,0:0|0:3,0:0:0:0:
156,78,42595,2,0,P|192:66|230:70,1,76.4999976654053,2|0,1:2|0:0,0:0:0:0:
333,201,42895,6,0,L|322:277,1,76.4999976654053,4|0,0:3|0:0,0:0:0:0:
212,341,43195,2,0,L|223:265,1,76.4999976654053,0|0,1:0|0:0,0:0:0:0:
136,170,43495,2,0,L|125:246,1,76.4999976654053,2|4,0:0|0:3,0:0:0:0:
110,344,43795,1,2,1:2:0:0:
391,158,44095,6,0,P|426:221|403:298,1,152.999995330811,4|0,0:3|1:0,0:0:0:0:
326,234,44545,1,0,0:0:0:0:
341,71,44695,2,0,L|417:60,1,76.4999976654053,2|4,0:0|0:3,0:0:0:0:
326,234,44995,2,0,L|249:223,1,76.4999976654053,2|0,1:2|0:0,0:0:0:0:
186,143,45295,5,4,0:3:0:0:
186,143,45445,2,0,L|110:132,1,76.4999976654053,2|0,0:2|1:0,0:0:0:0:
11,119,45745,1,0,0:0:0:0:
37,287,45895,2,0,L|48:211,1,76.4999976654053,2|4,0:0|0:3,0:0:0:0:
135,303,46195,2,0,L|146:227,1,76.4999976654053,2|0,1:2|0:0,0:0:0:0:
313,224,46495,6,0,P|332:296|292:359,1,152.999995330811,4|0,0:3|1:0,0:0:0:0:
230,281,46945,1,0,0:0:0:0:
307,125,47095,2,0,L|458:147,1,152.999995330811,2|0,0:0|1:0,0:0:0:0:
412,235,47545,1,0,0:0:0:0:
205,125,47695,6,0,L|54:147,1,152.999995330811,4|0,0:3|1:0,0:0:0:0:
100,235,48145,1,0,0:0:0:0:
307,125,48295,2,0,P|319:89|315:51,1,76.4999976654053,2|4,0:0|0:3,0:0:0:0:
196,51,48595,2,0,P|192:88|205:125,1,76.4999976654053,2|0,1:2|0:0,0:0:0:0:
377,201,48895,6,0,L|462:189,1,85,4|0,0:3|0:0,0:0:0:0:
391,311,49195,2,0,L|306:323,1,85,2|0,1:2|0:0,0:0:0:0:
202,226,49495,2,0,L|287:214,1,85,2|4,0:0|0:3,0:0:0:0:
216,336,49795,2,0,L|131:348,1,85,2|0,1:2|0:0,0:0:0:0:
97,129,50095,5,4,0:3:0:0:
97,129,50245,1,0,0:0:0:0:
27,214,50395,2,0,P|106:240|179:202,1,170,2|0,1:2|0:0,0:0:0:0:
201,93,50845,1,4,0:3:0:0:
369,238,50995,2,0,L|454:226,1,85,2|0,1:2|0:0,0:0:0:0:
287,166,51295,6,0,P|258:244|293:318,2,170,4|0|2,0:3|1:0|0:0,0:0:0:0:
369,238,52045,1,4,0:3:0:0:
184,258,52195,2,0,L|99:270,1,85,2|0,1:2|0:0,0:0:0:0:
99,114,52495,6,0,L|184:126,1,85,4|0,0:3|0:0,0:0:0:0:
287,166,52795,2,0,P|294:122|286:82,1,85,0|0,1:0|0:0,0:0:0:0:
195,15,53095,1,2,0:0:0:0:
195,15,53245,1,4,0:3:0:0:
198,235,53395,2,0,L|210:320,1,85,2|0,1:2|0:0,0:0:0:0:
183,125,53695,6,0,L|98:137,1,85,4|0,0:3|0:0,0:0:0:0:
287,166,53995,2,0,L|372:154,1,85,2|0,1:2|0:0,0:0:0:0:
198,235,54295,2,0,L|113:247,1,85,2|4,0:0|0:3,0:0:0:0:
302,276,54595,2,0,L|387:264,1,85,2|0,1:2|0:0,0:0:0:0:
213,345,54895,5,4,0:3:0:0:
213,345,55045,1,0,0:0:0:0:
198,235,55195,2,0,L|177:67,1,170,2|0,1:2|0:0,0:0:0:0:
277,118,55645,1,4,0:3:0:0:
97,139,55795,2,0,L|12:151,1,85,2|0,1:2|0:0,0:0:0:0:
123,318,56095,6,0,P|201:347|276:311,2,170,4|0|2,0:3|1:0|0:0,0:0:0:0:
198,235,56845,1,4,0:3:0:0:
304,204,56995,2,0,L|389:216,1,85,2|0,1:2|0:0,0:0:0:0:
198,235,57295,6,0,P|195:192|207:152,1,85,4|0,0:3|0:0,0:0:0:0:
260,55,57595,2,0,P|217:57|177:45,1,85,0|0,1:0|0:0,0:0:0:0:
100,125,57895,1,2,0:0:0:0:
100,125,58045,1,4,0:3:0:0:
304,204,58195,2,0,L|389:192,1,85,2|0,1:2|0:0,0:0:0:0:
197,234,58495,6,0,L|209:319,1,85,4|0,0:3|0:0,0:0:0:0:
316,119,58795,2,0,L|304:204,1,85,2|0,1:2|0:0,0:0:0:0:
185,149,59095,2,0,L|197:234,1,85,2|4,0:0|0:3,0:0:0:0:
327,34,59395,2,0,L|315:119,1,85,2|0,1:2|0:0,0:0:0:0:
127,56,59695,5,4,0:3:0:0:
127,56,59845,1,0,0:0:0:0:
184,149,59995,2,0,P|103:164|36:116,1,170,2|0,1:2|0:0,0:0:0:0:
127,56,60445,1,4,0:3:0:0:
85,247,60595,2,0,L|97:332,1,85,2|0,1:2|0:0,0:0:0:0:
265,219,60895,6,0,L|241:49,2,170,4|0|2,0:3|1:0|0:0,0:0:0:0:
283,327,61645,1,4,0:3:0:0:
373,201,61795,2,0,L|361:116,1,85,2|0,1:2|0:0,0:0:0:0:
391,309,62095,6,0,P|434:311|474:299,1,85,4|0,0:3|0:0,0:0:0:0:
455,191,62395,2,0,P|412:189|372:201,1,85,0|0,1:0|0:0,0:0:0:0:
286,271,62695,1,2,0:0:0:0:
286,271,62845,1,4,0:3:0:0:
269,161,62995,2,0,L|281:76,1,85,2|0,1:2|0:0,0:0:0:0:
372,200,63295,6,0,L|384:285,1,85,4|0,0:3|0:0,0:0:0:0:
297,355,63595,2,0,L|285:270,1,85,2|0,1:2|0:0,0:0:0:0:
184,224,63895,2,0,L|196:309,1,85,2|4,0:0|0:3,0:0:0:0:
109,379,64195,2,0,L|97:294,1,85,2|0,1:2|0:0,0:0:0:0:
80,185,64495,5,4,0:3:0:0:
80,185,64645,1,0,0:0:0:0:
125,83,64795,2,0,P|184:141|184:224,1,170,2|0,1:2|0:0,0:0:0:0:
97,294,65245,1,4,0:3:0:0:
200,332,65395,2,0,L|285:322,1,85,2|0,1:2|0:0,0:0:0:0:
333,224,65695,6,0,P|333:141|392:83,2,170,4|0|2,0:3|1:0|0:0,0:0:0:0:
437,185,66445,1,4,0:3:0:0:
502,96,66595,2,0,L|490:11,1,85,2|0,1:2|0:0,0:0:0:0:
437,185,66895,6,0,L|425:270,1,85,4|0,0:3|0:0,0:0:0:0:
315,251,67195,2,0,L|327:166,1,85,0|0,1:0|0:0,0:0:0:0:
256,81,67495,1,2,0:0:0:0:
256,81,67645,1,4,0:3:0:0:
158,28,67795,2,0,P|145:68|148:110,1,85,2|0,1:2|0:0,0:0:0:0:
177,218,68095,5,2,0:0:0:0:
256,192,68170,12,0,70495,0:0:0:0:
