osu file format v14

[General]
AudioFilename: audio.mp3
AudioLeadIn: 0
PreviewTime: 10495
Countdown: 0
SampleSet: Soft
StackLeniency: 0.7
Mode: 0
LetterboxInBreaks: 0
WidescreenStoryboard: 0

[Editor]
Bookmarks: 48900
DistanceSpacing: 1.3
BeatDivisor: 4
GridSize: 4
TimelineZoom: 1.7

[Metadata]
Title:M.R.
TitleUnicode:M.R.
Artist:Triodust
ArtistUnicode:Triodust
Creator:Nozhomi
Version:Collab Hard
Source:Rabi-Ribi
Tags:ăƒ©ăƒ“-ăƒȘビ RabiRibi Original Soundtrack Steam kano-bi CreSpirit Animen Sekai Project Plurk GemaYue Erina Ribbon rabbit bunny Doyak Pachiru
BeatmapID:1230725
BeatmapSetID:580867

[Difficulty]
HPDrainRate:5
CircleSize:4
OverallDifficulty:6
ApproachRate:8
SliderMultiplier:1.4
SliderTickRate:1

[Events]
//Background and Video events
0,0,"rabi.jpg",0,0
//Break Periods
//Storyboard Layer 0 (Background)
//Storyboard Layer 1 (Fail)
//Storyboard Layer 2 (Pass)
//Storyboard Layer 3 (Foreground)
//Storyboard Sound Samples

[TimingPoints]
895,300,4,2,1,40,1,0
895,-125,4,2,1,40,0,0
10495,-100,4,2,1,60,0,0
38545,-100,4,2,1,50,0,0
39295,-100,4,2,1,60,0,0
70195,-100,4,2,1,40,0,0

[Colours]
Combo1 : 0,210,210
Combo2 : 128,0,255
Combo3 : 206,0,0
Combo4 : 255,128,255

[HitObjects]
264,160,895,6,0,P|210:147|181:101,1,112,4|2,0:3|0:0,0:0:0:0:
326,114,1495,2,0,P|341:166|316:214,1,112,2|2,0:0|0:0,0:0:0:0:
258,80,2095,2,0,P|295:40|349:38,1,112,2|2,0:0|0:0,0:0:0:0:
476,112,2695,2,0,L|472:172,1,56,2|0,0:0|0:0,0:0:0:0:
400,156,2995,2,0,L|396:220,1,56,2|2,0:0|0:0,0:0:0:0:
464,240,3295,6,0,L|456:376,1,112,4|2,0:3|0:0,0:0:0:0:
388,304,3745,1,0,0:0:0:0:
388,304,3895,2,0,P|336:292|264:316,1,112,2|2,0:0|0:0,0:0:0:0:
212,332,4345,1,0,0:0:0:0:
211,332,4495,2,0,P|156:343|103:330,1,112,2|2,0:0|0:0,0:0:0:0:
32,304,4945,1,0,0:0:0:0:
32,304,5095,2,0,L|36:228,2,56,2|0|2,0:0|0:0|0:0,0:0:0:0:
32,376,5545,1,2,0:0:0:0:
102,329,5695,6,0,L|110:205,1,112,4|2,0:3|0:0,0:0:0:0:
120,72,6294,2,0,B|156:64|180:40|180:40|204:40|219:55,1,112,2|2,0:0|0:0,0:0:0:0:
392,72,6895,2,0,B|356:64|332:40|332:40|308:40|292:55,1,112,2|2,0:0|0:0,0:0:0:0:
256,196,7495,2,0,B|236:252|276:252|256:316,1,112,2|2,0:0|0:0,0:0:0:0:
180,180,8095,6,0,P|192:152|216:128,3,56,2|0|0|0,0:0|0:0|0:0|0:0,0:0:0:0:
280,120,8695,2,0,P|304:133|323:154,3,56,2|0|0|0,0:0|0:0|0:0|0:0,0:0:0:0:
352,220,9295,2,0,L|348:284,1,56,2|0,0:0|0:0,0:0:0:0:
420,296,9595,2,0,L|423:240,1,56,2|0,0:0|0:0,0:0:0:0:
496,224,9895,2,0,L|492:280,1,56,2|0,0:0|0:0,0:0:0:0:
470,350,10195,1,2,0:0:0:0:
420,296,10345,1,2,0:0:0:0:
372,240,10495,6,0,P|308:218|239:238,1,140,4|0,3:1|1:0,0:0:0:0:
164,284,10945,1,0,0:0:0:0:
80,248,11095,2,0,L|89:169,1,70,2|4,0:0|0:3,0:0:0:0:
8,132,11395,2,0,L|20:58,1,70,0|2,1:0|0:0,0:0:0:0:
98,16,11695,2,0,B|150:19|150:19|179:37|179:37|233:38,1,140,4|0,0:3|1:0,0:0:0:0:
304,96,12145,1,0,0:0:0:0:
376,40,12295,2,0,L|451:39,1,70,2|4,0:0|0:3,0:0:0:0:
448,132,12595,2,0,L|378:132,1,70,0|2,1:0|0:0,0:0:0:0:
304,188,12895,6,0,P|284:232|308:324,1,140,4|0,0:3|1:0,0:0:0:0:
380,368,13345,1,2,0:0:0:0:
456,320,13495,2,0,P|464:284|460:248,1,70,2|4,0:0|0:3,0:0:0:0:
424,168,13795,2,0,P|416:132|420:96,1,70,0|2,1:0|0:0,0:0:0:0:
356,32,14095,2,0,B|284:16|284:16|212:32,1,140,4|0,0:3|1:0,0:0:0:0:
132,60,14545,1,0,0:0:0:0:
88,140,14695,2,0,B|91:239|91:239|124:208,1,140,2|0,0:0|1:0,0:0:0:0:
197,161,15145,1,2,0:0:0:0:
272,212,15295,6,0,P|296:272|268:344,1,140,4|0,0:3|1:0,0:0:0:0:
204,276,15745,1,0,0:0:0:0:
272,212,15895,2,0,L|348:212,1,70,2|4,0:0|0:3,0:0:0:0:
392,136,16195,2,0,L|468:136,1,70,0|2,1:0|0:0,0:0:0:0:
504,216,16495,2,0,L|492:284,1,70,4|0,0:3|0:0,0:0:0:0:
420,232,16795,2,0,L|408:300,1,70,2|0,1:2|0:0,0:0:0:0:
332,252,17095,2,0,L|324:308,2,35,2|0|4,0:0|0:0|0:3,0:0:0:0:
248,268,17395,2,0,L|236:336,1,70,2|2,1:2|0:0,0:0:0:0:
148,360,17695,6,0,P|124:308|148:232,1,140,4|0,0:3|1:0,0:0:0:0:
208,164,18145,1,0,0:0:0:0:
289,205,18295,2,0,B|357:229|357:229|420:204,1,140,2|0,0:0|1:0,0:0:0:0:
482,138,18745,1,2,0:0:0:0:
419,71,18895,2,0,B|356:46|356:46|288:70,1,140,4|0,0:3|1:0,0:0:0:0:
204,107,19345,1,0,0:0:0:0:
124,60,19495,2,0,L|40:64,1,70,2|4,0:0|0:3,0:0:0:0:
12,144,19795,1,2,1:2:0:0:
88,196,19945,1,2,0:0:0:0:
180,192,20095,6,0,B|205:260|205:260|182:324,1,140,4|0,0:3|1:0,0:0:0:0:
264,364,20545,1,0,0:0:0:0:
348,332,20695,2,0,L|392:332,2,35,2|0|4,0:0|0:0|0:3,0:0:0:0:
432,256,20995,2,0,L|348:256,1,70,0|2,1:0|0:0,0:0:0:0:
308,184,21295,2,0,P|284:120|312:48,1,140,4|0,0:3|1:0,0:0:0:0:
388,16,21745,1,0,0:0:0:0:
468,56,21895,2,0,P|476:88|468:128,1,70,2|4,0:0|0:3,0:0:0:0:
456,216,22195,2,0,P|448:248|456:288,1,70,0|2,1:0|0:0,0:0:0:0:
388,348,22495,6,0,P|336:320|256:320,1,140,4|0,0:3|1:0,0:0:0:0:
196,252,22945,1,2,0:0:0:0:
256,184,23095,2,0,P|325:186|387:155,1,140,2|0,0:0|1:0,0:0:0:0:
440,80,23545,1,2,0:0:0:0:
368,24,23695,2,0,B|292:12|292:12|224:24,1,140,4|0,0:3|1:0,0:0:0:0:
152,72,24145,1,0,0:0:0:0:
72,28,24295,2,0,P|60:64|68:112,1,70,2|4,0:0|0:3,0:0:0:0:
80,184,24595,2,0,L|24:184,2,35,0|0|2,1:0|0:0|0:0,0:0:0:0:
120,268,24895,6,0,B|166:321|166:321|244:348,1,140,4|0,0:3|1:0,0:0:0:0:
320,320,25345,1,0,0:0:0:0:
300,228,25495,2,0,P|280:160|300:96,1,140,2|0,0:0|1:0,0:0:0:0:
368,32,25945,1,2,0:0:0:0:
432,96,26095,2,0,L|508:96,2,70,4|2|2,0:3|0:0|1:2,0:0:0:0:
372,164,26545,1,0,0:0:0:0:
432,232,26695,2,0,L|508:232,2,70,2|4|2,0:0|0:3|1:2,0:0:0:0:
376,304,27145,1,2,0:0:0:0:
296,264,27295,6,0,P|224:244|156:264,1,140,4|0,0:3|1:0,0:0:0:0:
88,312,27745,1,0,0:0:0:0:
40,236,27895,1,2,0:0:0:0:
40,236,28045,1,4,0:3:0:0:
88,160,28195,2,0,L|91:90,1,70,0|2,1:0|0:0,0:0:0:0:
152,24,28495,2,0,P|192:20|228:32,1,70,4|2,0:3|0:0,0:0:0:0:
304,60,28795,2,0,P|337:68|372:63,1,70,0|0,1:0|0:0,0:0:0:0:
456,100,29095,2,0,L|453:170,1,70,2|4,0:0|0:3,0:0:0:0:
492,252,29395,1,2,1:2:0:0:
448,332,29545,1,2,0:0:0:0:
360,348,29695,6,0,B|340:276|340:276|348:208,1,140,4|0,0:3|1:0,0:0:0:0:
268,168,30145,1,0,0:0:0:0:
188,212,30295,2,0,B|196:277|196:277|176:349,1,140,2|0,0:0|1:0,0:0:0:0:
88,380,30745,1,2,0:0:0:0:
20,320,30895,2,0,B|12:284|12:284|20:248,1,70,4|0,0:3|0:0,0:0:0:0:
88,192,31195,2,0,B|96:156|96:156|88:123,1,70,0|0,1:0|0:0,0:0:0:0:
152,59,31495,1,2,0:0:0:0:
152,59,31645,1,4,0:3:0:0:
232,100,31795,2,0,L|312:100,1,70,0|2,1:0|0:0,0:0:0:0:
372,44,32095,6,0,P|388:80|356:172,1,140,4|0,0:3|1:0,0:0:0:0:
320,252,32545,1,0,0:0:0:0:
400,292,32695,2,0,L|484:292,1,70,2|4,0:0|0:3,0:0:0:0:
476,384,32995,2,0,L|392:384,1,70,0|2,1:0|0:0,0:0:0:0:
328,336,33295,2,0,B|260:316|260:316|192:336,1,140,4|0,0:3|1:0,0:0:0:0:
108,364,33745,1,0,0:0:0:0:
40,304,33895,2,0,B|36:192|36:192|56:220,1,140,2|0,0:0|1:0,0:0:0:0:
140,236,34345,1,2,0:0:0:0:
212,180,34495,6,0,P|280:160|348:180,1,140,4|0,0:3|1:0,0:0:0:0:
412,240,34945,1,0,0:0:0:0:
372,324,35095,2,0,P|332:332|292:324,1,70,2|4,0:0|0:3,0:0:0:0:
216,308,35395,2,0,P|176:300|136:308,1,70,0|2,1:0|0:0,0:0:0:0:
60,332,35695,2,0,B|36:264|36:264|48:192,1,140,4|0,0:3|1:0,0:0:0:0:
64,108,36145,1,0,0:0:0:0:
136,52,36295,2,0,L|132:8,2,35,2|0|4,0:0|0:0|0:3,0:0:0:0:
146,142,36595,2,0,L|216:136,1,70,0|2,1:0|0:0,0:0:0:0:
152,232,36895,6,0,B|256:220|256:220|288:192,1,140,4|0,0:3|1:0,0:0:0:0:
336,124,37345,1,0,0:0:0:0:
412,172,37495,2,0,L|488:180,1,70,2|4,0:0|0:3,0:0:0:0:
480,272,37795,2,0,L|410:264,1,70,0|2,1:0|0:0,0:0:0:0:
332,312,38095,2,0,B|280:336|228:312|228:312|176:288|124:312,1,210,4|2,0:3|0:0,0:0:0:0:
256,68,38995,1,0,1:0:0:0:
304,244,39295,6,0,P|370:263|437:246,1,140,4|0,3:1|1:0,0:0:0:0:
492,176,39745,1,0,0:0:0:0:
424,116,39895,2,0,L|332:108,1,70,2|4,0:0|0:3,0:0:0:0:
264,128,40195,2,0,P|196:180|184:236,1,140,0|4,1:0|0:3,0:0:0:0:
188,320,40645,1,0,0:0:0:0:
264,368,40795,2,0,L|336:364,1,70,0|0,1:0|0:0,0:0:0:0:
404,304,41095,2,0,L|384:260,2,35,2|0|4,0:0|0:0|0:3,0:0:0:0:
476,244,41395,2,0,P|480:204|464:160,1,70,0|2,1:0|0:0,0:0:0:0:
448,80,41695,6,0,B|440:44|440:44|448:8,2,70,4|0|0,0:3|0:0|1:0,0:0:0:0:
384,144,42145,1,2,0:0:0:0:
316,84,42295,2,0,B|324:48|324:48|316:12,1,70,2|4,0:0|0:3,0:0:0:0:
195,15,42595,2,0,B|188:48|188:48|196:84,1,70,0|2,1:0|0:0,0:0:0:0:
128,144,42895,2,0,P|92:136|56:144,1,70,4|0,0:3|0:0,0:0:0:0:
12,220,43195,2,0,P|16:268|16:296,1,70,0|0,1:0|0:0,0:0:0:0:
96,336,43495,2,0,P|132:344|168:336,1,70,2|4,0:0|0:3,0:0:0:0:
236,284,43795,1,0,1:0:0:0:
416,192,44095,6,0,P|436:120|412:56,1,140,4|0,0:3|1:0,0:0:0:0:
336,12,44545,1,0,0:0:0:0:
264,68,44695,2,0,L|264:108,2,35,2|0|4,0:0|0:0|0:3,0:0:0:0:
172,68,44995,2,0,P|152:120|152:204,1,140,0|4,1:0|0:3,0:0:0:0:
136,292,45445,1,0,0:0:0:0:
212,340,45595,1,0,1:0:0:0:
296,304,45745,1,0,0:0:0:0:
380,344,45895,2,0,L|460:340,1,70,2|4,0:0|0:3,0:0:0:0:
488,256,46195,2,0,L|418:259,1,70,0|2,1:0|0:0,0:0:0:0:
348,200,46495,6,0,L|278:203,2,70,4|0|0,0:3|0:0|1:0,0:0:0:0:
396,120,46945,1,2,0:0:0:0:
440,40,47095,2,0,L|509:36,1,70,2|4,0:0|0:3,0:0:0:0:
465,115,47395,2,0,L|396:119,1,70,0|2,1:0|0:0,0:0:0:0:
320,68,47695,2,0,P|288:60|240:64,1,70,4|0,0:3|0:0,0:0:0:0:
192,128,47995,2,0,L|96:124,1,70,0|0,1:0|0:0,0:0:0:0:
44,172,48295,2,0,P|28:216|40:264,1,70,2|4,0:0|0:3,0:0:0:0:
72,320,48595,1,0,1:0:0:0:
252,328,48895,6,0,P|252:284|236:252,1,70,4|0,0:3|0:0,0:0:0:0:
332,252,49195,2,0,P|316:210|290:186,1,70,2|0,1:2|0:0,0:0:0:0:
380,152,49495,2,0,P|351:118|318:104,1,70,2|4,0:0|0:3,0:0:0:0:
391,42,49795,2,0,P|352:20|317:17,1,70,2|0,1:2|0:0,0:0:0:0:
240,44,50095,2,0,L|247:183,2,140,4|2|2,0:3|1:2|0:0,0:0:0:0:
168,96,50845,1,4,0:3:0:0:
168,96,50995,2,0,L|171:165,1,70,0|2,1:0|0:0,0:0:0:0:
192,268,51295,6,0,P|258:285|319:255,1,140,4|0,0:3|1:0,0:0:0:0:
348,168,51745,2,0,L|336:120,2,35,2|0|2,0:0|0:0|0:0,0:0:0:0:
416,232,52045,1,4,0:3:0:0:
380,316,52195,2,0,P|352:340|299:361,1,70,0|2,1:0|0:0,0:0:0:0:
190,354,52495,2,0,P|124:320|107:258,1,140,4|0,0:3|1:0,0:0:0:0:
168,192,52945,2,0,L|203:192,2,35,2|0|2,0:0|0:0|0:0,0:0:0:0:
107,123,53245,1,4,0:3:0:0:
143,40,53395,2,0,P|173:22|208:15,1,70,0|2,1:0|0:0,0:0:0:0:
324,64,53695,6,0,L|320:144,1,70,4|0,0:3|0:0,0:0:0:0:
404,92,53995,2,0,L|400:172,1,70,2|0,1:2|0:0,0:0:0:0:
316,224,54295,2,0,L|312:304,1,70,2|4,0:0|0:3,0:0:0:0:
396,252,54595,2,0,L|392:332,1,70,2|0,1:2|0:0,0:0:0:0:
484,307,54895,2,0,P|506:242|493:174,2,140,4|2|2,0:3|1:2|0:0,0:0:0:0:
396,252,55645,1,4,0:3:0:0:
396,252,55795,2,0,L|400:172,1,70,0|2,1:0|0:0,0:0:0:0:
299,132,56095,6,0,B|251:144|251:144|143:124,1,140,4|0,0:3|1:0,0:0:0:0:
79,88,56545,2,0,L|67:44,2,35,2|0|2,0:0|0:0|0:0,0:0:0:0:
80,180,56845,1,4,0:3:0:0:
64,268,56995,2,0,L|52:352,1,70,0|2,1:0|0:0,0:0:0:0:
136,236,57295,2,0,L|157:374,1,140,4|0,0:3|1:0,0:0:0:0:
220,308,57745,2,0,L|214:273,2,35,2|0|2,0:0|0:0|0:0,0:0:0:0:
296,360,58045,1,4,0:3:0:0:
372,308,58195,2,0,P|380:274|371:240,1,70,0|2,1:0|0:0,0:0:0:0:
296,192,58495,6,0,L|216:192,1,70,4|0,0:3|0:0,0:0:0:0:
264,108,58795,2,0,L|264:28,1,70,2|0,1:2|0:0,0:0:0:0:
348,76,59095,2,0,L|428:76,1,70,2|4,0:0|0:3,0:0:0:0:
380,160,59395,2,0,L|380:240,1,70,2|0,1:2|0:0,0:0:0:0:
336,312,59695,2,0,P|292:260|296:192,2,140,4|2|2,0:3|1:2|0:0,0:0:0:0:
256,352,60445,1,4,0:3:0:0:
256,352,60595,2,0,P|224:315|216:284,1,70,0|2,1:0|0:0,0:0:0:0:
212,203,60895,6,0,P|149:231|87:203,1,140,4|0,0:3|1:0,0:0:0:0:
24,140,61345,2,0,P|11:155|4:172,2,35,2|0|2,0:0|0:0|0:0,0:0:0:0:
76,68,61645,1,4,0:3:0:0:
150,120,61795,2,0,L|226:116,1,70,0|2,1:0|0:0,0:0:0:0:
300,32,62095,2,0,L|376:28,1,70,4|0,0:3|0:0,0:0:0:0:
432,96,62395,1,0,1:0:0:0:
364,156,62545,2,0,L|332:144,2,35,2|0|2,0:0|0:0|0:0,0:0:0:0:
440,204,62845,1,4,0:3:0:0:
356,236,62995,2,0,P|312:228|280:196,1,70,0|2,1:0|0:0,0:0:0:0:
156,236,63295,6,0,P|200:228|232:196,1,70,4|0,0:3|0:0,0:0:0:0:
240,124,63595,2,0,P|232:80|200:48,1,70,2|0,1:2|0:0,0:0:0:0:
128,40,63895,2,0,P|84:48|52:80,1,70,2|4,0:0|0:3,0:0:0:0:
44,152,64195,2,0,P|52:196|84:228,1,70,2|0,1:2|0:0,0:0:0:0:
156,236,64495,2,0,L|295:228,2,140,4|2|2,0:3|1:2|0:0,0:0:0:0:
216,312,65245,1,4,0:3:0:0:
216,312,65395,2,0,L|285:308,1,70,0|2,1:0|0:0,0:0:0:0:
383,244,65695,6,0,P|371:176|316:136,1,140,4|0,0:3|1:0,0:0:0:0:
256,204,66145,2,0,L|256:240,2,35,2|0|2,0:0|0:0|0:0,0:0:0:0:
195,137,66445,1,4,0:3:0:0:
116,184,66595,2,0,P|81:191|47:184,1,70,0|2,1:0|0:0,0:0:0:0:
47,79,66895,2,0,P|82:72|116:79,1,70,4|0,0:3|0:0,0:0:0:0:
195,137,67195,1,0,1:0:0:0:
268,192,67345,2,0,L|312:192,2,35,2|0|2,0:0|0:0|0:0,0:0:0:0:
195,247,67645,1,4,0:3:0:0:
256,316,67795,2,0,P|289:324|323:316,1,70,0|2,1:0|0:0,0:0:0:0:
392,256,68095,5,2,0:0:0:0:
256,192,68170,12,0,70495,0:0:0:0:
