osu file format v14

[General]
AudioFilename: audio.mp3
AudioLeadIn: 0
PreviewTime: 10495
Countdown: 0
SampleSet: Soft
StackLeniency: 0.5
Mode: 0
LetterboxInBreaks: 0
WidescreenStoryboard: 0

[Editor]
DistanceSpacing: 1.3
BeatDivisor: 4
GridSize: 4
TimelineZoom: 1.7

[Metadata]
Title:M.R.
TitleUnicode:M.R.
Artist:Triodust
ArtistUnicode:Triodust
Creator:Nozhomi
Version:Bunny Extinction
Source:Rabi-Ribi
Tags:ăƒ©ăƒ“-ăƒȘビ RabiRibi Original Soundtrack Steam kano-bi CreSpirit Animen Sekai Project Plurk GemaYue Erina Ribbon rabbit bunny Doyak Pachiru
BeatmapID:1229732
BeatmapSetID:580867

[Difficulty]
HPDrainRate:6
CircleSize:5
OverallDifficulty:8.5
ApproachRate:9.3
SliderMultiplier:1.8
SliderTickRate:1

[Events]
//Background and Video events
0,0,"rabi.jpg",0,0
//Break Periods
//Storyboard Layer 0 (Background)
//Storyboard Layer 1 (Fail)
//Storyboard Layer 2 (Pass)
//Storyboard Layer 3 (Foreground)
//Storyboard Sound Samples

[TimingPoints]
895,300,4,2,1,40,1,0
895,-133.333333333333,4,2,1,40,0,0
10495,-100,4,2,1,60,0,0
20095,-90.9090909090909,4,2,1,60,0,0
29695,-83.3333333333333,4,2,1,60,0,0
38545,-83.3333333333333,4,2,1,50,0,0
39220,-83.3333333333333,4,2,1,20,0,0
39295,-100,4,2,1,60,0,0
70195,-100,4,2,1,40,0,0

[Colours]
Combo1 : 0,210,210
Combo2 : 128,0,255
Combo3 : 206,0,0
Combo4 : 255,128,255

[HitObjects]
328,332,895,5,4,0:3:0:0:
392,112,1195,2,0,L|380:24,1,67.5000025749208,2|0,0:0|0:0,0:0:0:0:
292,148,1495,2,0,L|304:60,1,67.5000025749208,2|0,0:0|0:0,0:0:0:0:
401,178,1795,2,0,L|392:112,1,67.5000025749208,2|0,0:0|0:0,0:0:0:0:
282,215,2095,2,0,L|292:149,1,67.5000025749208,2|0,0:0|0:0,0:0:0:0:
410,245,2395,2,0,L|401:179,1,67.5000025749208,2|0,0:0|0:0,0:0:0:0:
332,288,2695,1,2,0:0:0:0:
282,215,2845,1,0,0:0:0:0:
208,276,2995,1,2,0:0:0:0:
116,248,3145,1,2,0:0:0:0:
156,376,3295,5,4,0:3:0:0:
204,184,3595,1,2,0:0:0:0:
204,184,3745,2,0,P|192:136|156:116,1,67.5000025749208,0|2,0:0|0:0,0:0:0:0:
244,92,4195,1,2,0:0:0:0:
244,92,4345,2,0,P|206:61|168:50,1,67.5000025749208,0|2,0:0|0:0,0:0:0:0:
280,148,4795,1,2,0:0:0:0:
296,40,4945,1,0,0:0:0:0:
189,54,5095,1,2,0:0:0:0:
280,148,5245,2,0,P|291:179|292:213,1,67.5000025749208,0|2,0:0|0:0,0:0:0:0:
256,292,5545,1,2,0:0:0:0:
140,224,5695,5,4,0:3:0:0:
292,213,5995,2,0,L|388:220,1,67.5000025749208,2|0,0:0|0:0,0:0:0:0:
404,128,6295,2,0,P|372:116|318:130,1,67.5000025749208,2|0,0:0|0:0,0:0:0:0:
359,217,6595,1,2,0:0:0:0:
460,212,6745,1,0,0:0:0:0:
404,128,6895,5,2,0:0:0:0:
448,16,7045,1,0,0:0:0:0:
404,128,7195,1,2,0:0:0:0:
504,112,7345,1,2,0:0:0:0:
472,228,7495,1,2,0:0:0:0:
404,128,7645,1,0,0:0:0:0:
472,228,7795,2,0,L|468:304,1,67.5000025749208,2|2,0:0|0:0,0:0:0:0:
362,244,8095,5,2,0:0:0:0:
341,230,8170,1,0,0:0:0:0:
319,221,8245,1,0,0:0:0:0:
296,216,8320,1,0,0:0:0:0:
272,216,8395,1,0,0:0:0:0:
248,220,8470,1,0,0:0:0:0:
225,229,8545,1,0,0:0:0:0:
205,242,8620,1,0,0:0:0:0:
144,300,8695,5,2,0:0:0:0:
141,276,8770,1,0,0:0:0:0:
139,252,8845,1,0,0:0:0:0:
137,228,8920,1,0,0:0:0:0:
135,204,8995,1,0,0:0:0:0:
133,180,9070,1,0,0:0:0:0:
131,156,9145,1,0,0:0:0:0:
129,132,9220,1,0,0:0:0:0:
68,168,9295,6,0,L|74:236,1,67.5000025749208,2|0,0:0|0:0,0:0:0:0:
206,243,9595,2,0,L|200:175,1,67.5000025749208,2|0,0:0|0:0,0:0:0:0:
124,64,9895,1,2,0:0:0:0:
68,168,10045,1,0,0:0:0:0:
200,176,10195,1,2,0:0:0:0:
256,72,10345,1,2,0:0:0:0:
356,200,10495,6,0,B|404:224|404:224|532:200,1,180,4|0,3:1|1:0,0:0:0:0:
500,68,10945,1,0,0:0:0:0:
412,156,11095,1,2,0:0:0:0:
476,276,11245,1,4,0:3:0:0:
480,136,11395,1,0,1:0:0:0:
416,288,11545,1,2,0:0:0:0:
398,291,11620,1,2,0:0:0:0:
380,295,11695,6,0,L|292:280,1,90,4|0,0:3|0:0,0:0:0:0:
132,295,11995,2,0,L|220:280,1,90,0|0,1:0|0:0,0:0:0:0:
320,176,12295,1,2,0:0:0:0:
174,136,12445,1,4,0:3:0:0:
221,280,12595,1,0,1:0:0:0:
256,128,12745,1,2,0:0:0:0:
104,215,12895,6,0,P|59:224|8:208,1,90,4|0,0:3|0:0,0:0:0:0:
64,96,13195,1,0,1:0:0:0:
172,204,13345,1,2,0:0:0:0:
170,227,13420,1,0,0:0:0:0:
169,251,13495,1,2,0:0:0:0:
168,275,13570,1,0,0:0:0:0:
166,299,13645,1,4,0:3:0:0:
153,108,13795,2,0,L|64:96,1,90,0|2,1:0|0:0,0:0:0:0:
261,92,14095,6,0,B|375:76|375:76|365:111|380:144,1,180,4|0,0:3|1:0,0:0:0:0:
416,252,14545,1,0,0:0:0:0:
448,140,14695,2,0,P|456:100|436:44,1,90,2|4,0:0|0:3,0:0:0:0:
336,4,14995,1,0,1:0:0:0:
260,108,15145,1,2,0:0:0:0:
240,100,15220,1,2,0:0:0:0:
220,92,15295,6,0,P|188:168|232:260,1,180,4|0,0:3|1:0,0:0:0:0:
332,304,15745,1,0,0:0:0:0:
208,356,15895,1,2,0:0:0:0:
184,352,15970,1,0,0:0:0:0:
160,348,16045,1,4,0:3:0:0:
47,290,16195,1,0,1:0:0:0:
152,220,16345,1,2,0:0:0:0:
160,348,16495,5,4,0:3:0:0:
71,212,16645,1,0,0:0:0:0:
85,356,16795,1,2,1:2:0:0:
208,281,16945,1,0,0:0:0:0:
206,130,17095,1,2,0:0:0:0:
71,212,17245,1,4,0:3:0:0:
104,64,17395,2,0,P|68:36|-4:44,1,90,2|2,1:2|0:0,0:0:0:0:
157,135,17695,5,4,0:3:0:0:
181,132,17770,1,0,0:0:0:0:
206,130,17845,1,0,0:0:0:0:
231,127,17920,1,0,0:0:0:0:
256,126,17995,1,0,1:0:0:0:
281,123,18070,1,0,0:0:0:0:
307,121,18145,1,0,0:0:0:0:
332,118,18220,1,0,0:0:0:0:
327,199,18295,5,2,0:0:0:0:
297,191,18370,1,0,0:0:0:0:
272,171,18445,1,4,0:3:0:0:
256,143,18520,1,0,0:0:0:0:
252,112,18595,1,0,1:0:0:0:
260,81,18670,1,0,0:0:0:0:
280,56,18745,1,2,0:0:0:0:
307,40,18820,1,0,0:0:0:0:
388,68,18895,6,0,P|404:108|384:172,1,90,4|0,0:3|0:0,0:0:0:0:
388,316,19195,2,0,P|372:276|392:212,1,90,0|0,1:0|0:0,0:0:0:0:
480,128,19495,1,2,0:0:0:0:
453,267,19645,1,4,0:3:0:0:
292,184,19795,1,2,1:2:0:0:
319,323,19945,1,2,0:0:0:0:
148,252,20095,6,0,B|96:232|52:252|52:252|80:201|64:152,1,198.000006042481,4|0,0:3|1:0,0:0:0:0:
32,32,20545,1,0,0:0:0:0:
156,64,20695,1,2,0:0:0:0:
65,156,20845,1,4,0:3:0:0:
188,120,20995,1,0,1:0:0:0:
156,244,21145,1,2,0:0:0:0:
172,252,21220,1,2,0:0:0:0:
184,268,21295,6,0,P|196:312|176:376,1,99.0000030212403,4|0,0:3|0:0,0:0:0:0:
327,363,21595,2,0,P|315:315|328:268,1,99.0000030212403,0|0,1:0|0:0,0:0:0:0:
432,136,21895,1,2,0:0:0:0:
496,292,22045,1,4,0:3:0:0:
328,268,22195,1,0,1:0:0:0:
496,208,22345,1,2,0:0:0:0:
340,84,22495,6,0,P|292:71|245:84,1,99.0000030212403,4|0,0:3|0:0,0:0:0:0:
139,173,22795,1,0,1:0:0:0:
277,249,22945,1,2,0:0:0:0:
289,273,23020,1,0,0:0:0:0:
293,301,23095,1,2,0:0:0:0:
289,329,23170,1,0,0:0:0:0:
277,353,23245,1,4,0:3:0:0:
241,177,23395,2,0,P|228:130|245:84,1,99.0000030212403,0|2,1:0|0:0,0:0:0:0:
428,110,23695,6,0,B|465:126|465:126|308:133,1,198.000006042481,4|0,0:3|1:0,0:0:0:0:
212,236,24145,1,0,0:0:0:0:
136,132,24295,2,0,L|144:20,1,99.0000030212403,2|4,0:0|0:3,0:0:0:0:
32,100,24595,1,0,1:0:0:0:
40,232,24745,1,2,0:0:0:0:
56,244,24820,1,2,0:0:0:0:
72,256,24895,6,0,P|143:296|248:256,1,198.000006042481,4|0,0:3|1:0,0:0:0:0:
340,168,25345,1,0,0:0:0:0:
304,312,25495,1,2,0:0:0:0:
308,336,25570,1,0,0:0:0:0:
312,360,25645,1,4,0:3:0:0:
436,312,25795,1,0,1:0:0:0:
300,292,25945,1,2,0:0:0:0:
455,223,26095,5,4,0:3:0:0:
284,199,26245,1,2,0:0:0:0:
467,125,26395,1,2,1:2:0:0:
297,101,26545,1,0,0:0:0:0:
362,260,26695,1,2,0:0:0:0:
389,64,26845,1,4,0:3:0:0:
258,215,26995,2,0,P|211:228|165:214,1,99.0000030212403,2|2,1:2|0:0,0:0:0:0:
47,107,27295,5,4,0:3:0:0:
49,130,27370,1,0,0:0:0:0:
51,154,27445,1,0,0:0:0:0:
53,178,27520,1,0,0:0:0:0:
55,202,27595,1,0,1:0:0:0:
57,226,27670,1,0,0:0:0:0:
59,250,27745,1,0,0:0:0:0:
61,274,27820,1,0,0:0:0:0:
152,272,27895,5,2,0:0:0:0:
154,243,27970,1,0,0:0:0:0:
156,214,28045,1,4,0:3:0:0:
159,185,28120,1,0,0:0:0:0:
161,156,28195,1,0,1:0:0:0:
164,127,28270,1,0,0:0:0:0:
166,99,28345,1,2,0:0:0:0:
168,71,28420,1,0,0:0:0:0:
96,44,28495,5,4,0:3:0:0:
272,36,28645,1,2,0:0:0:0:
161,156,28795,1,0,1:0:0:0:
96,44,28945,1,0,0:0:0:0:
242,163,29095,1,2,0:0:0:0:
78,155,29245,1,4,0:3:0:0:
238,247,29395,1,2,1:2:0:0:
40,268,29545,1,2,0:0:0:0:
215,355,29695,6,0,P|325:318|348:227,1,215.999993408203,4|0,0:3|1:0,0:0:0:0:
311,111,30145,1,0,0:0:0:0:
192,212,30295,1,2,0:0:0:0:
164,208,30370,1,0,0:0:0:0:
136,204,30445,1,4,0:3:0:0:
104,64,30595,2,0,B|142:57|162:25|162:25|182:25|196:37,1,107.999996704102,0|2,1:0|0:0,0:0:0:0:
408,64,30895,6,0,B|369:57|349:25|349:25|329:25|315:37,1,107.999996704102,4|0,0:3|0:0,0:0:0:0:
460,116,31195,2,0,P|481:60|461:13,1,107.999996704102,0|0,1:0|0:0,0:0:0:0:
384,140,31495,1,2,0:0:0:0:
464,292,31645,1,4,0:3:0:0:
292,304,31795,1,0,1:0:0:0:
446,204,31945,1,2,0:0:0:0:
252,216,32095,6,0,B|160:226|160:226|182:256,1,107.999996704102,4|0,0:3|0:0,0:0:0:0:
248,364,32395,1,0,1:0:0:0:
336,220,32545,1,0,0:0:0:0:
169,238,32695,1,2,0:0:0:0:
141,233,32770,1,0,0:0:0:0:
113,228,32845,1,4,0:3:0:0:
252,111,32995,2,0,P|264:163|252:216,1,107.999996704102,0|2,1:0|0:0,0:0:0:0:
286,19,33295,6,0,P|338:113|336:220,1,215.999993408203,4|0,0:3|1:0,0:0:0:0:
276,336,33745,1,0,0:0:0:0:
396,284,33895,2,0,B|432:276|432:276|512:288,1,107.999996704102,2|4,0:0|0:3,0:0:0:0:
502,97,34195,2,0,B|432:108|432:108|396:100,1,107.999996704102,0|2,1:0|0:0,0:0:0:0:
236,32,34495,6,0,P|311:56|220:73,1,215.999993408203,4|0,0:3|1:0,0:0:0:0:
119,38,34945,1,0,0:0:0:0:
181,188,35095,1,2,0:0:0:0:
177,216,35170,1,0,0:0:0:0:
173,244,35245,1,4,0:3:0:0:
233,99,35395,2,0,P|282:79|331:99,1,107.999996704102,0|2,1:0|0:0,0:0:0:0:
231,272,35695,6,0,P|189:239|181:187,1,107.999996704102,4|0,0:3|0:0,0:0:0:0:
382,188,35995,2,0,P|373:240|332:272,1,107.999996704102,0|0,1:0|0:0,0:0:0:0:
233,99,36295,1,2,0:0:0:0:
231,272,36445,1,4,0:3:0:0:
382,188,36595,1,0,1:0:0:0:
233,99,36745,1,2,0:0:0:0:
331,272,36895,6,0,L|444:264,1,107.999996704102,4|0,0:3|0:0,0:0:0:0:
340,348,37195,1,0,1:0:0:0:
288,196,37345,1,0,0:0:0:0:
439,264,37495,1,2,0:0:0:0:
465,262,37570,1,0,0:0:0:0:
492,260,37645,1,4,0:3:0:0:
340,348,37795,2,0,L|232:340,1,107.999996704102,0|2,1:0|0:0,0:0:0:0:
80,220,38095,6,0,P|63:169|78:118,1,107.999996704102,4|0,0:3|0:0,0:0:0:0:
164,36,38395,1,0,1:0:0:0:
284,84,38545,2,0,L|324:80,10,26.9999991760254,2|0|0|0|0|0|0|0|0|0|0,0:0|0:0|0:0|0:0|0:0|0:0|0:0|0:0|0:0|0:0|0:0,0:0:0:0:
244,172,38995,2,0,P|321:186|387:136,1,161.999995056153,0|0,1:0|0:0,0:0:0:0:
424,56,39295,6,0,L|420:240,1,180,4|0,3:1|1:0,0:0:0:0:
340,336,39745,1,0,0:0:0:0:
256,268,39895,1,2,0:0:0:0:
256,244,39970,1,0,0:0:0:0:
256,220,40045,1,4,0:3:0:0:
261,348,40195,2,0,P|211:360|171:344,1,90,0|2,1:0|0:0,0:0:0:0:
92,240,40495,6,0,P|106:190|140:164,1,90,4|0,0:3|0:0,0:0:0:0:
240,140,40795,2,0,L|344:148,1,90,0|0,1:0|0:0,0:0:0:0:
212,204,41095,1,2,0:0:0:0:
268,72,41245,1,4,0:3:0:0:
300,220,41395,1,0,1:0:0:0:
356,88,41545,1,2,0:0:0:0:
496,168,41695,6,0,B|508:212|508:212|492:272,1,90,4|0,0:3|0:0,0:0:0:0:
444,372,41995,1,0,1:0:0:0:
392,254,42145,1,2,0:0:0:0:
416,238,42220,1,0,0:0:0:0:
444,234,42295,1,2,0:0:0:0:
472,238,42370,1,0,0:0:0:0:
496,254,42445,1,4,0:3:0:0:
340,296,42595,2,0,P|285:308|228:280,1,90,0|2,1:0|0:0,0:0:0:0:
392,254,42895,6,0,L|384:354,1,90,4|0,0:3|0:0,0:0:0:0:
329,228,43195,2,0,L|321:128,1,90,0|0,1:0|0:0,0:0:0:0:
256,52,43495,1,2,0:0:0:0:
191,138,43645,1,4,0:3:0:0:
168,144,43720,1,0,0:0:0:0:
145,138,43795,1,0,1:0:0:0:
48,88,43945,1,2,0:0:0:0:
116,212,44095,6,0,B|182:232|238:199|238:199|256:216|296:216,1,180,4|0,0:3|1:0,0:0:0:0:
408,175,44545,1,0,0:0:0:0:
327,103,44695,1,2,0:0:0:0:
331,79,44770,1,0,0:0:0:0:
335,55,44845,1,4,0:3:0:0:
215,15,44995,2,0,P|197:56|200:100,1,90,0|2,1:0|0:0,0:0:0:0:
288,216,45295,6,0,P|261:180|221:160,1,90,4|0,0:3|0:0,0:0:0:0:
76,179,45595,2,0,P|120:173|157:148,1,90,0|0,1:0|0:0,0:0:0:0:
215,15,45895,1,2,0:0:0:0:
71,31,46045,1,4,0:3:0:0:
157,148,46195,1,0,1:0:0:0:
300,132,46345,1,2,0:0:0:0:
260,280,46495,6,0,P|252:328|276:384,1,90,4|0,0:3|0:0,0:0:0:0:
380,320,46795,1,0,1:0:0:0:
308,220,46945,1,2,0:0:0:0:
289,207,47020,1,0,0:0:0:0:
268,201,47095,1,2,0:0:0:0:
245,202,47170,1,0,0:0:0:0:
224,210,47245,1,4,0:3:0:0:
372,244,47395,2,0,L|368:140,1,90,0|2,1:0|0:0,0:0:0:0:
364,16,47695,6,0,P|348:56|300:92,1,90,4|0,0:3|0:0,0:0:0:0:
198,86,47995,2,0,P|164:57|148:16,1,90,0|0,1:0|0:0,0:0:0:0:
256,112,48295,1,2,0:0:0:0:
256,136,48370,1,0,0:0:0:0:
256,160,48445,1,4,0:3:0:0:
256,184,48520,1,0,0:0:0:0:
256,208,48595,1,0,1:0:0:0:
148,154,48745,1,2,0:0:0:0:
148,130,48820,1,2,0:0:0:0:
148,106,48895,6,0,L|148:16,1,90,4|0,0:3|0:0,0:0:0:0:
83,110,49195,2,0,P|71:153|81:197,1,90,2|0,1:2|0:0,0:0:0:0:
213,197,49495,2,0,P|223:153|212:111,1,90,2|4,0:0|0:3,0:0:0:0:
152,232,49795,2,0,P|184:262|228:266,1,90,2|0,1:2|0:0,0:0:0:0:
92,264,50095,2,0,L|100:360,1,90,4|0,0:3|0:0,0:0:0:0:
3,307,50395,2,0,P|1:221|69:166,1,180,2|2,1:2|0:0,0:0:0:0:
88,162,50770,1,0,0:0:0:0:
108,162,50845,1,4,0:3:0:0:
213,197,50995,2,0,P|256:208|299:197,1,90,0|2,1:0|0:0,0:0:0:0:
338,67,51295,6,0,P|256:34|174:67,1,180,4|0,0:3|1:0,0:0:0:0:
120,192,51745,1,2,0:0:0:0:
125,215,51820,1,0,0:0:0:0:
129,239,51895,1,2,0:0:0:0:
133,263,51970,1,0,0:0:0:0:
137,287,52045,1,4,0:3:0:0:
252,364,52195,2,0,L|255:274,1,90,0|2,1:0|0:0,0:0:0:0:
376,228,52495,6,0,P|388:275|374:323,1,90,4|0,0:3|0:0,0:0:0:0:
256,274,52795,1,0,1:0:0:0:
316,172,52945,1,2,0:0:0:0:
340,168,53020,1,0,0:0:0:0:
364,164,53095,1,2,0:0:0:0:
388,160,53170,1,0,0:0:0:0:
412,156,53245,1,4,0:3:0:0:
336,56,53395,1,0,1:0:0:0:
316,172,53545,1,2,0:0:0:0:
203,102,53695,6,0,P|150:90|99:110,1,90,4|0,0:3|0:0,0:0:0:0:
274,95,53995,2,0,P|246:45|195:30,1,90,2|0,1:2|0:0,0:0:0:0:
330,140,54295,2,0,P|346:98|336:56,1,90,2|4,0:0|0:3,0:0:0:0:
338,213,54595,2,0,P|378:195|401:157,1,90,2|0,1:2|0:0,0:0:0:0:
292,269,54895,2,0,P|333:285|376:274,1,90,4|0,0:3|0:0,0:0:0:0:
256,192,55195,2,0,B|248:324|248:324|208:284,1,180,2|2,1:2|0:0,0:0:0:0:
192,280,55570,1,0,0:0:0:0:
168,276,55645,1,4,0:3:0:0:
44,292,55795,2,0,P|64:252|64:200,1,90,0|2,1:0|0:0,0:0:0:0:
155,107,56095,6,0,B|196:144|196:212|196:212|220:192|256:192,1,180,4|0,0:3|1:0,0:0:0:0:
380,216,56545,1,2,0:0:0:0:
400,224,56620,1,0,0:0:0:0:
424,224,56695,1,2,0:0:0:0:
444,212,56770,1,0,0:0:0:0:
456,192,56845,1,4,0:3:0:0:
336,168,56995,2,0,P|316:219|331:258,1,90,0|2,1:0|0:0,0:0:0:0:
252,364,57295,6,0,P|272:313|257:274,1,90,4|0,0:3|0:0,0:0:0:0:
172,224,57595,1,0,1:0:0:0:
64,268,57745,1,2,0:0:0:0:
52,248,57820,1,0,0:0:0:0:
48,224,57895,1,2,0:0:0:0:
52,200,57970,1,0,0:0:0:0:
64,180,58045,1,4,0:3:0:0:
164,88,58195,1,0,1:0:0:0:
172,224,58345,1,2,0:0:0:0:
64,180,58495,6,0,P|48:130|78:78,1,90,4|0,0:3|0:0,0:0:0:0:
156,16,58795,2,0,L|245:12,1,90,2|0,1:2|0:0,0:0:0:0:
320,116,59095,2,0,P|332:156|312:216,1,90,2|4,0:0|0:3,0:0:0:0:
190,202,59395,2,0,P|179:158|192:116,1,90,2|0,1:2|0:0,0:0:0:0:
266,12,59695,2,0,L|356:16,1,90,4|0,0:3|0:0,0:0:0:0:
472,88,59995,2,0,P|500:171|471:255,1,180,2|2,1:2|0:0,0:0:0:0:
456,272,60370,1,0,0:0:0:0:
436,284,60445,1,4,0:3:0:0:
340,216,60595,2,0,P|328:172|339:129,1,90,0|2,1:0|0:0,0:0:0:0:
368,276,60895,6,0,B|280:296|280:296|192:276,1,180,4|0,0:3|1:0,0:0:0:0:
324,352,61345,1,2,0:0:0:0:
302,356,61420,1,0,0:0:0:0:
280,361,61495,1,2,0:0:0:0:
258,357,61570,1,0,0:0:0:0:
236,352,61645,1,4,0:3:0:0:
172,216,61795,2,0,P|184:172|173:129,1,90,0|2,1:0|0:0,0:0:0:0:
102,282,62095,6,0,L|192:276,1,90,4|0,0:3|0:0,0:0:0:0:
256,176,62395,1,0,1:0:0:0:
320,276,62545,1,2,0:0:0:0:
342,277,62620,1,0,0:0:0:0:
364,279,62695,1,2,0:0:0:0:
387,280,62770,1,0,0:0:0:0:
409,282,62845,1,4,0:3:0:0:
374,162,62995,1,0,1:0:0:0:
320,276,63145,1,2,0:0:0:0:
304,148,63295,6,0,P|308:96|332:60,1,90,4|0,0:3|0:0,0:0:0:0:
208,148,63595,2,0,P|204:96|180:60,1,90,2|0,1:2|0:0,0:0:0:0:
304,148,63895,2,0,P|343:114|386:105,1,90,2|4,0:0|0:3,0:0:0:0:
208,148,64195,2,0,P|175:117|132:105,1,90,2|0,1:2|0:0,0:0:0:0:
256,200,64495,2,0,B|244:240|268:240|256:288,1,90,4|0,0:3|0:0,0:0:0:0:
139,333,64795,2,0,P|99:256|140:180,1,180,2|2,1:2|0:0,0:0:0:0:
160,168,65170,1,0,0:0:0:0:
184,164,65245,1,4,0:3:0:0:
312,208,65395,2,0,P|324:256|312:306,1,90,0|2,1:0|0:0,0:0:0:0:
444,340,65695,6,0,P|463:253|437:167,1,180,4|0,0:3|1:0,0:0:0:0:
308,84,66145,1,2,0:0:0:0:
284,92,66220,1,0,0:0:0:0:
264,108,66295,1,2,0:0:0:0:
244,92,66370,1,0,0:0:0:0:
220,84,66445,1,4,0:3:0:0:
84,92,66595,2,0,P|68:140|84:196,1,90,0|2,1:0|0:0,0:0:0:0:
152,288,66895,6,0,P|161:330|151:380,1,90,4|0,0:3|0:0,0:0:0:0:
44,332,67195,1,0,1:0:0:0:
120,232,67345,1,2,0:0:0:0:
141,224,67420,1,0,0:0:0:0:
163,224,67495,1,2,0:0:0:0:
184,232,67570,1,0,0:0:0:0:
201,246,67645,1,4,0:3:0:0:
256,360,67795,1,0,1:0:0:0:
152,288,67945,1,2,0:0:0:0:
311,246,68095,5,2,0:0:0:0:
256,192,68170,12,0,70495,0:0:0:0:
