osu file format v14

[General]
AudioFilename: audio.mp3
AudioLeadIn: 0
PreviewTime: 10495
Countdown: 0
SampleSet: Soft
StackLeniency: 0.7
Mode: 0
LetterboxInBreaks: 0
WidescreenStoryboard: 0

[Editor]
DistanceSpacing: 1.2
BeatDivisor: 2
GridSize: 4
TimelineZoom: 1.7

[Metadata]
Title:M.R.
TitleUnicode:M.R.
Artist:Triodust
ArtistUnicode:Triodust
Creator:Nozhomi
Version:Normal
Source:Rabi-Ribi
Tags:ăƒ©ăƒ“-ăƒȘビ RabiRibi Original Soundtrack Steam kano-bi CreSpirit Animen Sekai Project Plurk GemaYue Erina Ribbon rabbit bunny Doyak Pachiru
BeatmapID:1229734
BeatmapSetID:580867

[Difficulty]
HPDrainRate:3
CircleSize:3
OverallDifficulty:4.2
ApproachRate:6
SliderMultiplier:1.1
SliderTickRate:1

[Events]
//Background and Video events
0,0,"rabi.jpg",0,0
//Break Periods
//Storyboard Layer 0 (Background)
//Storyboard Layer 1 (Fail)
//Storyboard Layer 2 (Pass)
//Storyboard Layer 3 (Foreground)
//Storyboard Sound Samples

[TimingPoints]
895,300,4,2,1,40,1,0
10495,-100,4,2,1,60,0,0
38545,-100,4,2,1,50,0,0
39295,-100,4,2,1,60,0,0
70195,-100,4,2,1,40,0,0

[Colours]
Combo1 : 0,210,210
Combo2 : 128,0,255
Combo3 : 206,0,0
Combo4 : 255,128,255

[HitObjects]
192,204,895,6,0,P|179:242|196:320,1,110,4|2,0:3|0:0,0:0:0:0:
322,309,1495,2,0,P|334:256|320:204,1,110,2|2,0:0|0:0,0:0:0:0:
256,88,2095,2,0,L|136:92,1,110,2|2,0:0|0:0,0:0:0:0:
82,207,2695,2,0,L|192:204,1,110,2|2,0:0|0:0,0:0:0:0:
320,204,3295,6,0,P|288:300|156:336,1,220,4|2,0:3|0:0,0:0:0:0:
56,308,4195,1,2,0:0:0:0:
44,176,4495,2,0,P|76:80|208:44,1,220,2|2,0:0|0:0,0:0:0:0:
308,72,5395,1,2,0:0:0:0:
256,192,5695,6,0,L|147:186,1,110,4|2,0:3|0:0,0:0:0:0:
84,304,6294,2,0,L|193:309,1,110,2|2,0:0|0:0,0:0:0:0:
256,192,6895,2,0,L|366:186,1,110,2|2,0:0|0:0,0:0:0:0:
428,304,7495,2,0,L|318:309,1,110,2|2,0:0|0:0,0:0:0:0:
188,308,8095,6,0,P|180:332|148:364,2,55,2|0|0,0:0|0:0|0:0,0:0:0:0:
76,236,8695,2,0,P|53:247|8:247,2,55,2|0|0,0:0|0:0|0:0,0:0:0:0:
156,132,9295,2,0,P|168:80|148:16,1,110,2|2,0:0|0:0,0:0:0:0:
21,26,9895,2,0,P|8:78|20:132,1,110,2|2,0:0|0:0,0:0:0:0:
60,192,10345,1,2,0:0:0:0:
60,192,10495,6,0,L|280:180,1,220,4|2,3:1|0:0,0:0:0:0:
404,224,11395,1,0,1:0:0:0:
277,262,11695,2,0,L|168:268,1,110,4|0,0:3|1:0,0:0:0:0:
48,324,12295,1,2,0:0:0:0:
60,192,12595,1,0,1:0:0:0:
167,268,12895,6,0,P|188:164|106:68,1,220,4|2,0:3|0:0,0:0:0:0:
60,192,13795,1,0,1:0:0:0:
167,268,14095,2,0,P|220:278|274:267,1,110,4|0,0:3|1:0,0:0:0:0:
396,216,14695,1,2,0:0:0:0:
292,136,14995,1,0,1:0:0:0:
275,267,15295,6,0,P|352:342|459:335,1,220,4|2,0:3|0:0,0:0:0:0:
396,216,16195,1,0,1:0:0:0:
484,120,16495,2,0,P|437:91|372:87,1,110,4|2,0:3|1:2,0:0:0:0:
252,100,17095,2,0,P|204:125|173:170,1,110,2|2,0:0|1:2,0:0:0:0:
188,300,17695,6,0,P|189:325|178:357,2,55,4|0|0,0:3|0:0|1:0,0:0:0:0:
324,300,18295,2,0,P|323:325|334:357,2,55,2|4|0,0:0|0:3|1:0,0:0:0:0:
368,176,18895,2,0,P|384:120|364:64,1,110,4|0,0:3|1:0,0:0:0:0:
312,40,19345,1,0,0:0:0:0:
312,40,19495,2,0,L|180:44,1,110,2|2,0:0|1:2,0:0:0:0:
144,76,19945,1,2,0:0:0:0:
144,76,20095,6,0,P|100:173|144:270,1,220,4|2,0:3|0:0,0:0:0:0:
232,172,20995,1,0,1:0:0:0:
314,274,21295,2,0,P|367:285|421:274,1,110,4|0,0:3|1:0,0:0:0:0:
499,167,21895,1,2,0:0:0:0:
368,152,22195,1,0,1:0:0:0:
444,44,22495,6,0,P|323:27|247:101,1,220,4|2,0:3|0:0,0:0:0:0:
308,208,23395,1,0,1:0:0:0:
176,204,23695,2,0,L|52:200,1,110,4|0,0:3|1:0,0:0:0:0:
88,332,24295,1,2,0:0:0:0:
218,336,24595,1,0,1:0:0:0:
304,236,24895,6,0,P|351:142|303:48,1,220,4|2,0:3|0:0,0:0:0:0:
176,8,25795,1,0,1:0:0:0:
140,136,26095,2,0,L|148:248,1,110,4|2,0:3|1:2,0:0:0:0:
20,276,26695,2,0,L|12:166,1,110,2|2,0:0|1:2,0:0:0:0:
52,40,27295,6,0,L|116:32,2,55,4|0|0,0:3|0:0|1:0,0:0:0:0:
140,136,27895,2,0,L|194:129,2,55,2|4|0,0:0|0:3|1:0,0:0:0:0:
216,28,28495,2,0,P|245:39|282:78,1,55,4|2,0:3|0:0,0:0:0:0:
296,112,28795,2,0,P|297:141|289:167,1,55,0|0,1:0|0:0,0:0:0:0:
259,224,29095,2,0,P|246:276|264:328,1,110,2|2,0:0|1:2,0:0:0:0:
317,371,29545,1,2,0:0:0:0:
317,371,29695,6,0,B|360:352|424:368|424:368|384:308|404:262,1,220,4|2,0:3|0:0,0:0:0:0:
480,156,30595,1,0,1:0:0:0:
352,184,30895,2,0,L|240:172,1,110,4|0,0:3|1:0,0:0:0:0:
132,104,31495,1,2,0:0:0:0:
128,236,31795,1,0,1:0:0:0:
243,172,32095,6,0,P|259:223|251:279,2,110,4|0|2,0:3|1:0|0:0,0:0:0:0:
132,104,32995,1,0,1:0:0:0:
260,68,33295,2,0,L|380:80,1,110,4|0,0:3|1:0,0:0:0:0:
472,164,33895,1,2,0:0:0:0:
360,236,34195,1,0,1:0:0:0:
244,172,34495,6,0,B|166:165|166:165|81:181|85:262,1,220,4|2,0:3|0:0,0:0:0:0:
184,352,35395,1,0,1:0:0:0:
288,272,35695,2,0,P|338:227|348:160,1,110,4|0,0:3|1:0,0:0:0:0:
280,76,36295,2,0,L|125:60,1,110,2|0,0:0|1:0,0:0:0:0:
147,195,36895,6,0,L|37:206,2,110,4|0|2,0:3|1:0|0:0,0:0:0:0:
259,265,37795,1,0,1:0:0:0:
371,196,38095,2,0,P|455:205|448:292,1,165,4|2,0:3|0:0,0:0:0:0:
288,368,38996,1,0,1:0:0:0:
204,268,39295,6,0,B|176:188|228:188|204:84,2,165,4|0|0,3:1|0:0|1:0,0:0:0:0:
303,180,40495,2,0,P|306:125|295:71,1,110,4|0,0:3|1:0,0:0:0:0:
168,28,41095,2,0,L|96:24,2,55,2|4|0,0:0|0:3|1:0,0:0:0:0:
295,71,41695,5,4,0:3:0:0:
177,137,41995,2,0,L|105:133,2,55,0|2|2,1:0|0:0|0:0,0:0:0:0:
304,180,42595,1,0,1:0:0:0:
425,127,42895,2,0,P|437:180|424:233,1,110,4|0,0:3|1:0,0:0:0:0:
357,347,43495,2,0,P|303:359|250:346,1,110,2|0,0:0|1:0,0:0:0:0:
144,268,44095,6,0,B|136:212|136:212|144:160|144:160|134:95,2,165,4|0|0,0:3|0:0|1:0,0:0:0:0:
20,312,45295,2,0,L|4:203,1,110,4|0,0:3|1:0,0:0:0:0:
28,72,45895,2,0,L|19:17,2,55,2|4|0,0:0|0:3|1:0,0:0:0:0:
141,139,46495,5,4,0:3:0:0:
256,72,46795,2,0,L|247:17,2,55,0|2|2,1:0|0:0|0:0,0:0:0:0:
372,132,47395,1,0,1:0:0:0:
272,220,47695,2,0,P|241:274|254:340,1,110,4|0,0:3|1:0,0:0:0:0:
370,362,48295,2,0,P|401:308|388:242,1,110,2|0,0:0|1:0,0:0:0:0:
372,132,48895,5,4,0:3:0:0:
276,44,49195,1,2,1:2:0:0:
156,100,49495,2,0,P|100:112|28:88,1,110,2|2,0:0|1:2,0:0:0:0:
52,232,50095,2,0,P|103:239|168:227,1,110,4|2,0:3|1:2,0:0:0:0:
256,140,50695,1,2,0:0:0:0:
352,229,50995,1,0,1:0:0:0:
450,141,51295,6,0,P|353:96|256:140,1,220,4|2,0:3|0:0,0:0:0:0:
352,229,52195,1,0,1:0:0:0:
450,316,52495,2,0,P|353:361|255:317,1,220,4|2,0:3|0:0,0:0:0:0:
188,204,53395,1,0,1:0:0:0:
256,92,53695,5,4,0:3:0:0:
320,208,53995,1,2,1:2:0:0:
188,204,54295,2,0,L|48:192,1,110,2|2,0:0|1:2,0:0:0:0:
28,316,54895,2,0,L|137:325,1,110,4|2,0:3|1:2,0:0:0:0:
268,308,55495,1,2,0:0:0:0:
188,204,55795,1,0,1:0:0:0:
275,107,56095,6,0,P|175:73|82:127,1,220,4|2,0:3|0:0,0:0:0:0:
28,248,56995,1,0,1:0:0:0:
137,325,57295,2,0,L|377:293,1,220,4|2,0:3|0:0,0:0:0:0:
468,224,58195,1,0,1:0:0:0:
352,164,58495,5,4,0:3:0:0:
355,295,58795,1,2,1:2:0:0:
468,224,59095,1,2,0:0:0:0:
465,93,59395,1,2,1:2:0:0:
352,164,59695,2,0,P|299:177|246:164,1,110,4|2,0:3|1:2,0:0:0:0:
176,52,60295,1,2,0:0:0:0:
107,163,60595,1,0,1:0:0:0:
192,264,60895,6,0,P|288:309|404:272,1,220,4|2,0:3|0:0,0:0:0:0:
492,192,61795,1,0,1:0:0:0:
393,103,62095,2,0,P|289:74|192:119,1,220,4|2,0:3|0:0,0:0:0:0:
112,228,62995,1,0,1:0:0:0:
180,340,63295,5,4,0:3:0:0:
256,232,63595,1,2,1:2:0:0:
332,340,63895,1,2,0:0:0:0:
400,228,64195,1,2,1:2:0:0:
320,124,64495,2,0,L|192:132,1,110,4|2,0:3|1:2,0:0:0:0:
100,204,65095,1,2,0:0:0:0:
216,268,65395,1,0,1:0:0:0:
210,130,65695,6,0,P|80:72|0:120,1,220,4|2,0:3|0:0,0:0:0:0:
100,204,66595,1,0,1:0:0:0:
224,248,66895,2,0,B|308:268|308:268|472:244,1,220,4|2,0:3|0:0,0:0:0:0:
500,132,67795,1,0,1:0:0:0:
368,136,68095,5,2,0:0:0:0:
256,192,68170,12,0,70495,0:0:0:0:
