osu file format v14

[General]
AudioFilename: audio.mp3
AudioLeadIn: 0
PreviewTime: 47000
Countdown: 1
SampleSet: Soft
StackLeniency: 0.7
Mode: 0
LetterboxInBreaks: 0
WidescreenStoryboard: 1

[Editor]
Bookmarks: 18500,22500,57500,64000
DistanceSpacing: 0.3
BeatDivisor: 4
GridSize: 32
TimelineZoom: 2.3

[Metadata]
Title:Golden Riverbank
TitleUnicode:Golden Riverbank
Artist:Triodust
ArtistUnicode:Triodust
Creator:Inazuma
Version:Hell
Source:Rabi-Ribi
Tags:ost bgm ăƒ©ăƒ“ăƒȘビ PantyDev King Hong
BeatmapID:2139347
BeatmapSetID:986456

[Difficulty]
HPDrainRate:6
CircleSize:5.6
OverallDifficulty:9
ApproachRate:8.5
SliderMultiplier:1.2
SliderTickRate:1

[Events]
//Background and Video events
0,0,"20190612212141_1.jpg",0,0
//Break Periods
//Storyboard Layer 0 (Background)
//Storyboard Layer 1 (Fail)
//Storyboard Layer 2 (Pass)
//Storyboard Layer 3 (Foreground)
//Storyboard Layer 4 (Overlay)
//Storyboard Sound Samples

[TimingPoints]
875,500,4,2,1,70,1,0
2750,-100,4,2,1,5,0,0
2875,-100,4,2,1,70,0,0
4750,-100,4,2,1,5,0,0
4875,-100,4,2,1,70,0,0
6750,-100,4,2,1,5,0,0
6875,-100,4,2,1,70,0,0
8750,-100,4,2,1,5,0,0
8875,-71.4285714285714,4,2,1,70,0,0
10750,-71.4285714285714,4,2,1,5,0,0
10875,-71.4285714285714,4,2,1,70,0,0
12750,-71.4285714285714,4,2,1,5,0,0
12875,-71.4285714285714,4,2,1,70,0,0
14750,-71.4285714285714,4,2,1,5,0,0
14875,-71.4285714285714,4,2,1,70,0,0
16750,-71.4285714285714,4,2,1,5,0,0
16875,-51.2820512820513,4,2,1,70,0,0
18000,-51.2820512820513,4,2,1,5,0,0
18125,-51.2820512820513,4,2,1,70,0,0
18250,-51.2820512820513,4,2,1,5,0,0
18375,-51.2820512820513,4,2,1,70,0,0
20000,-51.2820512820513,4,2,1,5,0,0
20125,-51.2820512820513,4,2,1,70,0,0
20250,-51.2820512820513,4,2,1,5,0,0
20375,-51.2820512820513,4,2,1,70,0,0
22000,-51.2820512820513,4,2,1,5,0,0
22125,-51.2820512820513,4,2,1,70,0,0
22250,-51.2820512820513,4,2,1,5,0,0
22375,-51.2820512820513,4,2,1,70,0,0
24000,-51.2820512820513,4,2,1,5,0,0
24125,-51.2820512820513,4,2,1,70,0,0
24250,-51.2820512820513,4,2,1,5,0,0
24375,-51.2820512820513,4,2,1,70,0,0
26000,-51.2820512820513,4,2,1,5,0,0
26125,-51.2820512820513,4,2,1,70,0,0
26250,-51.2820512820513,4,2,1,5,0,0
26375,-51.2820512820513,4,2,1,70,0,0
28000,-51.2820512820513,4,2,1,5,0,0
28125,-51.2820512820513,4,2,1,70,0,0
28250,-51.2820512820513,4,2,1,5,0,0
28375,-51.2820512820513,4,2,1,70,0,0
30000,-51.2820512820513,4,2,1,5,0,0
30125,-51.2820512820513,4,2,1,70,0,0
30250,-51.2820512820513,4,2,1,5,0,0
30375,-51.2820512820513,4,2,1,70,0,0
32000,-51.2820512820513,4,2,1,5,0,0
32125,-51.2820512820513,4,2,1,70,0,0
32250,-51.2820512820513,4,2,1,5,0,0
32375,-51.2820512820513,4,2,1,70,0,0
32875,-83.3333333333333,4,2,1,70,0,0
40000,-83.3333333333333,4,2,1,5,0,0
40125,-83.3333333333333,4,2,1,70,0,0
48000,-83.3333333333333,4,2,1,5,0,0
48125,-83.3333333333333,4,2,11,70,0,0
48375,-83.3333333333333,4,2,13,70,0,0
48625,-83.3333333333333,4,2,15,70,0,0
48875,-43.4782608695652,4,2,18,70,0,1
49375,-43.4782608695652,4,2,11,70,0,1
49875,-43.4782608695652,4,2,13,70,0,1
50375,-43.4782608695652,4,2,15,70,0,1
50875,-43.4782608695652,4,2,16,70,0,1
51625,-43.4782608695652,4,2,1,70,0,1
52125,-43.4782608695652,4,2,11,70,0,1
52375,-43.4782608695652,4,2,13,70,0,1
52625,-43.4782608695652,4,2,15,70,0,1
52875,-43.4782608695652,4,2,18,70,0,1
53375,-43.4782608695652,4,2,11,70,0,1
53875,-43.4782608695652,4,2,13,70,0,1
54375,-43.4782608695652,4,2,15,70,0,1
54875,-43.4782608695652,4,2,13,70,0,1
55625,-43.4782608695652,4,2,10,70,0,1
56375,-43.4782608695652,4,2,23,70,0,1
56500,-43.4782608695652,4,2,23,5,0,1
56625,-43.4782608695652,4,2,23,70,0,1
56750,-43.4782608695652,4,2,23,5,0,1
56875,-43.4782608695652,4,2,20,70,0,1
57375,-43.4782608695652,4,2,15,70,0,1
57500,-43.4782608695652,4,2,15,5,0,1
57625,-43.4782608695652,4,2,14,70,0,1
58875,-43.4782608695652,4,2,22,70,0,1
59375,-43.4782608695652,4,2,17,70,0,1
59500,-43.4782608695652,4,2,17,5,0,1
59625,-43.4782608695652,4,2,16,70,0,1
60125,-43.4782608695652,4,2,15,70,0,1
60250,-43.4782608695652,4,2,15,5,0,1
60375,-43.4782608695652,4,2,13,70,0,1
60500,-43.4782608695652,4,2,13,5,0,1
60625,-43.4782608695652,4,2,15,70,0,1
60750,-43.4782608695652,4,2,15,5,0,1
60875,-43.4782608695652,4,2,12,70,0,1
61875,-43.4782608695652,4,2,1,70,0,1
62875,-43.4782608695652,4,2,10,70,0,1
63375,-43.4782608695652,4,2,24,70,0,1
63875,-43.4782608695652,4,2,25,70,0,1
64125,-43.4782608695652,4,2,11,70,0,1
64375,-43.4782608695652,4,2,13,70,0,1
64625,-43.4782608695652,4,2,15,70,0,1
64875,-43.4782608695652,4,2,18,70,0,1
65375,-43.4782608695652,4,2,11,70,0,1
65875,-43.4782608695652,4,2,13,70,0,1
66375,-43.4782608695652,4,2,14,70,0,1
66875,-43.4782608695652,4,2,17,70,0,1
67250,-43.4782608695652,4,2,17,5,0,1
67375,-43.4782608695652,4,2,17,70,0,1
67625,-43.4782608695652,4,2,19,70,0,1
68125,-43.4782608695652,4,2,11,70,0,1
68250,-43.4782608695652,4,2,11,5,0,1
68375,-43.4782608695652,4,2,13,70,0,1
68500,-43.4782608695652,4,2,13,5,0,1
68625,-43.4782608695652,4,2,15,70,0,1
68750,-43.4782608695652,4,2,15,5,0,1
68875,-43.4782608695652,4,2,19,70,0,1
69375,-43.4782608695652,4,2,11,70,0,1
69875,-43.4782608695652,4,2,26,70,0,1
70250,-43.4782608695652,4,2,26,5,0,1
70375,-43.4782608695652,4,2,15,70,0,1
70875,-43.4782608695652,4,2,12,70,0,1
71625,-43.4782608695652,4,2,10,70,0,1
72250,-43.4782608695652,4,2,10,5,0,1
72375,-43.4782608695652,4,2,23,70,0,1
72875,-43.4782608695652,4,2,21,70,0,1
73375,-43.4782608695652,4,2,15,70,0,1
73625,-43.4782608695652,4,2,12,70,0,1
74250,-43.4782608695652,4,2,12,5,0,1
74375,-43.4782608695652,4,2,12,70,0,1
74875,-43.4782608695652,4,2,19,70,0,1
75375,-43.4782608695652,4,2,17,70,0,1
75625,-43.4782608695652,4,2,14,70,0,1
76375,-43.4782608695652,4,2,13,70,0,1
76500,-43.4782608695652,4,2,13,5,0,1
76625,-43.4782608695652,4,2,15,70,0,1
76750,-43.4782608695652,4,2,15,5,0,1
76875,-43.4782608695652,4,2,12,70,0,1
77625,-43.4782608695652,4,2,1,70,0,1
78875,-43.4782608695652,4,2,14,70,0,1
79250,-43.4782608695652,4,2,1,70,0,1
80250,-43.4782608695652,4,2,1,5,0,1
80375,-43.4782608695652,4,2,1,70,0,1
80875,-90.9090909090909,4,2,1,70,0,0
82125,-90.9090909090909,4,2,1,40,0,0
82375,-90.9090909090909,4,2,1,60,0,0
82500,-90.9090909090909,4,2,1,30,0,0
82750,-90.9090909090909,4,2,1,20,0,0
82875,-90.9090909090909,4,2,1,50,0,0
83000,-90.9090909090909,4,2,1,15,0,0
83250,-90.9090909090909,4,2,1,10,0,0
83500,-90.9090909090909,4,2,1,5,0,0

[Colours]
Combo1 : 255,162,117
Combo2 : 255,255,0
Combo3 : 255,128,64
Combo4 : 128,64,64

[HitObjects]
136,102,875,5,2,0:0:0:0:
208,66,1125,1,0,0:0:0:0:
154,304,1375,1,0,0:0:0:0:
167,320,1625,2,0,L|160:260,2,60
123,198,2375,2,0,B|147:187|147:187|230:194,1,90,0|0,0:0|0:0,0:0:0:0:
223,204,2875,5,2,0:0:0:0:
303,178,3125,1,0,0:0:0:0:
512,314,3375,1,0,0:0:0:0:
339,253,3625,1,0,0:0:0:0:
389,343,3791,1,0,0:0:0:0:
399,334,3875,2,0,L|403:274,1,60,0|0,0:0|0:0,0:0:0:0:
505,138,4375,2,0,P|474:105|430:93,1,90,0|0,0:0|0:0,0:0:0:0:
379,49,4875,5,2,0:0:0:0:
305,72,5125,1,0,0:0:0:0:
80,44,5375,1,0,0:0:0:0:
97,39,5625,2,0,L|33:27,2,60,0|0|0,0:0|0:0|0:0,0:0:0:0:
180,119,6375,2,0,L|272:136,1,90,0|0,0:0|0:0,0:0:0:0:
345,124,6875,5,2,0:0:0:0:
391,201,7125,1,0,0:0:0:0:
245,360,7375,1,0,0:0:0:0:
393,265,7625,1,0,0:0:0:0:
299,254,7791,1,0,0:0:0:0:
295,267,7875,2,0,L|220:276,1,60,0|0,0:0|0:0,0:0:0:0:
42,366,8375,2,0,B|30:345|30:345|38:279,1,90,0|0,0:0|0:0,0:0:0:0:
13,174,8875,5,2,0:0:0:0:
81,197,9125,1,0,0:0:0:0:
21,169,9375,1,0,0:0:0:0:
159,229,9625,2,0,L|268:212,2,83.9999974365235,0|2|0,0:0|0:0|0:0,0:0:0:0:
322,275,10375,2,0,P|346:218|328:159,1,125.999996154785,0|0,0:0|0:0,0:0:0:0:
310,66,10875,5,2,0:0:0:0:
235,81,11125,1,0,0:0:0:0:
322,69,11375,1,0,0:0:0:0:
180,138,11625,1,0,0:0:0:0:
106,79,11791,1,0,0:0:0:0:
118,86,11875,2,0,L|128:203,1,83.9999974365235,2|0,0:0|0:0,0:0:0:0:
97,331,12375,2,0,P|152:304|211:321,1,125.999996154785,0|0,0:0|0:0,0:0:0:0:
288,279,12875,5,2,0:0:0:0:
366,311,13125,1,0,0:0:0:0:
285,268,13375,1,0,0:0:0:0:
450,347,13625,2,0,L|435:261,2,83.9999974365235,0|2|0,0:0|0:0|0:0,0:0:0:0:
468,158,14375,2,0,P|407:146|357:181,1,125.999996154785,0|0,0:0|0:0,0:0:0:0:
284,156,14875,5,2,0:0:0:0:
262,61,15125,1,0,0:0:0:0:
273,164,15375,1,0,0:0:0:0:
306,7,15625,1,0,0:0:0:0:
372,67,15791,1,0,0:0:0:0:
359,59,15875,2,0,L|275:70,1,83.9999974365235,2|0,0:0|0:0,0:0:0:0:
150,189,16375,2,0,P|91:169|72:110,1,125.999996154785,0|0,0:0|0:0,0:0:0:0:
155,0,16875,6,0,L|141:153,1,117.00000044632,4|0,0:0|0:0,0:0:0:0:
63,341,17375,1,8,0:0:0:0:
47,272,17625,1,0,0:0:0:0:
123,276,17875,2,0,L|62:267,1,58.5000002231598,2|0,0:0|0:0,0:0:0:0:
0,351,18125,2,0,L|57:359,1,58.5000002231598
176,340,18375,2,0,P|224:308|282:308,1,117.00000044632,8|0,0:0|0:0,0:0:0:0:
367,354,18791,1,0,0:0:0:0:
375,362,18875,6,0,L|357:246,1,117.00000044632,4|0,0:1|0:0,0:0:0:0:
326,31,19375,1,8,0:0:0:0:
387,91,19625,1,0,0:0:0:0:
375,169,19791,1,0,0:0:0:0:
369,155,19875,2,0,L|292:140,1,58.5000002231598,2|0,0:0|0:0,0:0:0:0:
343,19,20125,2,0,L|400:30,1,58.5000002231598,0|0,0:0|0:0,0:0:0:0:
495,118,20375,2,0,B|505:147|505:147|493:233,1,117.00000044632,8|0,0:0|0:0,0:0:0:0:
482,326,20875,6,0,L|355:335,1,117.00000044632,4|0,0:1|0:0,0:0:0:0:
189,340,21375,1,8,0:0:0:0:
244,306,21625,1,0,0:0:0:0:
147,384,21875,2,0,L|154:315,1,58.5000002231598,2|0,0:0|0:0,0:0:0:0:
279,239,22125,2,0,L|271:307,1,58.5000002231598,2|0,0:0|0:0,0:0:0:0:
59,256,22375,2,0,P|97:222|130:221,1,58.5000002231598,8|0,0:0|0:0,0:0:0:0:
189,260,22791,1,0,0:0:0:0:
196,272,22875,6,0,L|212:129,1,117.00000044632,4|0,0:1|0:0,0:0:0:0:
332,95,23375,2,0,P|288:57|231:54,1,117.00000044632,8|0,0:0|0:0,0:0:0:0:
124,39,23791,1,0,0:0:0:0:
131,48,23875,2,0,L|66:35,1,58.5000002231598,2|0,0:0|0:0,0:0:0:0:
0,147,24125,2,0,L|65:134,1,58.5000002231598,0|0,0:0|0:0,0:0:0:0:
259,124,24375,2,0,L|144:143,1,117.00000044632,8|0,0:0|0:0,0:0:0:0:
38,307,24875,6,0,B|55:286|55:286|143:300,1,117.00000044632,4|0,0:0|0:0,0:0:0:0:
349,327,25375,1,8,0:0:0:0:
272,340,25625,1,0,0:0:0:0:
396,374,25875,2,0,P|411:342|405:295,1,58.5000002231598,2|0,0:0|0:0,0:0:0:0:
212,328,26125,2,0,P|214:356|228:382,1,58.5000002231598
494,289,26375,2,0,P|465:239|413:212,1,117.00000044632,8|0,0:0|0:0,0:0:0:0:
294,267,26791,1,0,0:0:0:0:
301,276,26875,6,0,L|294:144,1,117.00000044632,4|0,0:1|0:0,0:0:0:0:
219,6,27375,1,8,0:0:0:0:
292,37,27625,1,0,0:0:0:0:
366,63,27791,1,0,0:0:0:0:
360,72,27875,2,0,L|430:61,1,58.5000002231598,2|0,0:0|0:0,0:0:0:0:
512,142,28125,2,0,L|454:151,1,58.5000002231598,0|0,0:0|0:0,0:0:0:0:
314,207,28375,2,0,B|294:188|294:188|201:204,1,117.00000044632,8|0,0:0|0:0,0:0:0:0:
7,74,28875,6,0,L|28:195,1,117.00000044632,4|0,0:1|0:0,0:0:0:0:
59,318,29375,1,8,0:0:0:0:
151,341,29625,1,0,0:0:0:0:
8,305,29875,2,0,L|72:303,1,58.5000002231598,2|0,0:0|0:0,0:0:0:0:
163,353,30125,2,0,L|221:351,1,58.5000002231598,0|0,0:0|0:0,0:0:0:0:
330,377,30375,2,0,B|310:349|310:349|314:245,1,117.00000044632,8|0,0:0|0:0,0:0:0:0:
274,166,30791,1,0,0:0:0:0:
268,178,30875,6,0,P|322:159|377:183,1,117.00000044632,4|0,0:1|0:0,0:0:0:0:
483,364,31375,1,8,0:0:0:0:
455,293,31625,1,0,0:0:0:0:
386,261,31791,1,0,0:0:0:0:
393,268,31875,2,0,L|397:209,1,58.5000002231598,2|0,0:0|0:0,0:0:0:0:
486,91,32125,2,0,L|481:149,1,58.5000002231598,0|0,0:0|0:0,0:0:0:0:
326,163,32375,2,0,P|276:126|218:130,1,117.00000044632,8|0,0:0|0:0,0:0:0:0:
34,44,32875,5,4,0:1:0:0:
81,127,33374,1,0,0:0:0:0:
81,127,33625,2,0,L|71:208,1,71.9999978027344,2|0,0:0|0:0,0:0:0:0:
35,267,34125,2,0,L|45:348,1,71.9999978027344,2|0,0:0|0:0,0:0:0:0:
203,5,34875,5,4,0:1:0:0:
162,98,35375,1,0,0:0:0:0:
231,255,35791,1,0,0:0:0:0:
234,249,35875,1,0,0:0:0:0:
146,238,36125,1,2,0:0:0:0:
284,187,36375,1,2,0:0:0:0:
259,332,36625,1,0,0:0:0:0:
43,165,36875,5,4,0:1:0:0:
205,202,37375,1,0,0:0:0:0:
205,202,37625,2,0,L|276:210,1,71.9999978027344,2|0,0:0|0:0,0:0:0:0:
360,172,38125,2,0,L|431:180,1,71.9999978027344,2|0,0:0|0:0,0:0:0:0:
507,41,38875,6,2,P|445:20|357:48,1,143.999995605469,4|0,0:0|0:0,0:0:0:0:
318,130,39625,1,0,0:0:0:0:
248,127,39791,1,0,0:0:0:0:
259,123,39875,2,0,L|196:116,1,35.9999989013672
130,73,40125,2,2,P|135:108|137:144,2,71.9999978027344,2|0|0,0:0|0:0|0:0,0:0:0:0:
46,355,40875,5,4,0:1:0:0:
323,311,41375,1,0,0:0:0:0:
323,311,41625,2,0,L|252:294,1,71.9999978027344,2|0,0:0|0:0,0:0:0:0:
125,364,42125,2,0,L|54:347,1,71.9999978027344,2|0,0:0|0:0,0:0:0:0:
491,213,42875,5,4,0:1:0:0:
232,248,43375,1,0,0:0:0:0:
364,272,43791,1,0,0:0:0:0:
366,279,43875,1,0,0:0:0:0:
290,297,44125,1,2,0:0:0:0:
374,199,44375,1,2,0:0:0:0:
422,323,44625,1,0,0:0:0:0:
255,53,44875,5,4,0:1:0:0:
238,337,45375,1,0,0:0:0:0:
238,337,45625,2,0,L|230:253,1,71.9999978027344,2|0,0:0|0:0,0:0:0:0:
255,135,46125,2,0,L|247:51,1,71.9999978027344,2|0,0:0|0:0,0:0:0:0:
442,2,46875,6,2,L|456:145,1,143.999995605469,4|0,0:0|0:0,0:0:0:0:
498,214,47625,1,0,0:0:0:0:
499,285,47791,1,0,0:0:0:0:
494,277,47875,2,0,L|487:337,1,35.9999989013672
440,364,48125,1,2,0:0:0:0:
383,296,48375,1,2,0:0:0:0:
508,381,48625,1,2,0:0:0:0:
297,352,48875,6,0,P|312:287|280:228,1,138.000002632141,6|0,0:0|0:0,0:0:0:0:
266,135,49250,1,0,0:0:0:0:
266,134,49375,2,0,P|208:169|142:157,1,138.000002632141,10|0,0:0|0:0,0:0:0:0:
25,24,49875,5,2,0:0:0:0:
34,42,50000,1,0,0:0:0:0:
42,61,50125,2,0,L|32:145,1,69.0000013160706,0|0,0:0|0:0,0:0:0:0:
2,255,50375,2,0,P|99:229|178:319,1,230.000004386902,10|0,0:0|0:0,0:0:0:0:
257,370,50875,6,0,P|256:329|269:297,1,69.0000013160706,6|0,0:0|0:0,0:0:0:0:
234,242,51125,2,0,P|269:220|303:215,1,69.0000013160706
349,276,51375,1,8,0:0:0:0:
276,96,51625,5,2,0:0:0:0:
241,150,51791,1,0,0:0:0:0:
234,142,51875,2,0,L|159:139,1,69.0000013160706,0|0,0:0|0:0,0:0:0:0:
243,38,52125,6,0,P|281:32|311:40,1,69.0000013160706,2|0,0:0|0:0,0:0:0:0:
384,11,52375,2,0,P|408:40|416:72,1,69.0000013160706,10|0,0:0|0:0,0:0:0:0:
485,106,52625,2,0,P|471:141|448:164,1,69.0000013160706,2|0,0:0|0:0,0:0:0:0:
411,260,52875,6,0,P|365:213|298:215,1,138.000002632141,6|0,0:0|0:0,0:0:0:0:
252,300,53250,1,0,0:0:0:0:
251,300,53375,2,0,P|191:330|129:306,1,138.000002632141,10|0,0:0|0:0,0:0:0:0:
1,351,53875,5,2,0:0:0:0:
14,335,54000,1,0,0:0:0:0:
28,320,54125,2,0,L|22:251,1,69.0000013160706,0|0,0:0|0:0,0:0:0:0:
3,103,54375,2,0,P|97:74|171:168,1,230.000004386902,10|0,0:0|0:0,0:0:0:0:
258,165,54875,6,0,P|248:197|245:232,1,69.0000013160706,6|0,0:0|0:0,0:0:0:0:
172,276,55125,2,0,P|195:301|224:320,1,69.0000013160706,0|0,0:0|0:0,0:0:0:0:
310,290,55375,1,8,0:0:0:0:
506,382,55625,1,2,0:0:0:0:
449,343,55791,1,0,0:0:0:0:
455,339,55875,2,0,L|461:251,2,69.0000013160706,0|0|0,0:0|0:0|0:0,0:0:0:0:
512,137,56375,2,0,P|479:124|445:124,1,69.0000013160706,10|0,0:0|0:0,0:0:0:0:
378,201,56625,2,0,P|345:213|311:213,1,69.0000013160706
188,263,56875,6,0,B|207:244|207:244|198:130,1,138.000002632141,6|0,0:0|0:0,0:0:0:0:
152,52,57250,1,0,0:0:0:0:
152,52,57375,2,0,P|184:40|218:43,1,69.0000013160706,10|0,0:0|0:0,0:0:0:0:
124,117,57625,2,0,P|43:120|0:73,1,138.000002632141,2|0,0:0|0:0,0:0:0:0:
12,64,58000,1,0,0:0:0:0:
20,45,58125,1,0,0:0:0:0:
44,189,58375,2,0,L|24:339,1,138.000002632141,8|0,0:0|0:0,0:0:0:0:
90,359,58791,1,0,0:0:0:0:
86,369,58875,6,0,P|146:336|214:344,1,138.000002632141,6|0,0:0|0:0,0:0:0:0:
293,376,59250,1,0,0:0:0:0:
293,376,59375,2,0,P|280:344|278:309,1,69.0000013160706,10|0,0:0|0:0,0:0:0:0:
357,232,59625,2,0,P|386:170|374:103,1,138.000002632141,2|0,0:0|0:0,0:0:0:0:
397,23,60000,1,0,0:0:0:0:
397,23,60125,6,0,L|307:33,1,69.0000013160706,2|0,0:0|0:0,0:0:0:0:
292,110,60375,2,0,L|202:120,1,69.0000013160706,10|0,0:0|0:0,0:0:0:0:
154,186,60625,2,0,P|130:161|121:128,1,69.0000013160706,2|0,0:0|0:0,0:0:0:0:
236,205,60875,6,0,P|251:270|222:332,1,138.000002632141,6|0,0:0|0:0,0:0:0:0:
129,370,61250,1,0,0:0:0:0:
129,370,61375,2,0,P|64:350|25:294,1,138.000002632141,8|0,0:0|0:0,0:0:0:0:
4,93,61875,1,2,0:0:0:0:
19,107,62000,1,0,0:0:0:0:
34,120,62125,2,0,L|119:115,1,69.0000013160706,0|0,0:0|0:0,0:0:0:0:
182,48,62375,2,0,P|247:25|311:48,1,138.000002632141,8|0,0:0|0:0,0:0:0:0:
400,25,62791,1,0,0:0:0:0:
397,13,62875,6,0,P|384:45|412:164,1,138.000002632141,6|0,0:0|0:0,0:0:0:0:
476,223,63250,1,0,0:0:0:0:
476,223,63375,2,0,P|414:252|347:243,1,138.000002632141,10|0,0:0|0:0,0:0:0:0:
260,307,63791,1,0,0:0:0:0:
270,311,63875,2,0,P|242:290|210:277,1,69.0000013160706,2|0,0:0|0:0,0:0:0:0:
89,284,64125,1,2,0:0:0:0:
204,361,64375,1,10,0:0:0:0:
108,142,64625,1,2,0:0:0:0:
96,355,64875,6,0,P|155:309|142:240,1,138.000002632141,6|0,0:0|0:0,0:0:0:0:
69,200,65250,1,0,0:0:0:0:
69,200,65375,2,0,P|38:131|82:76,1,138.000002632141,10|0,0:0|0:0,0:0:0:0:
197,13,65875,1,2,0:0:0:0:
211,27,66000,1,0,0:0:0:0:
225,41,66125,2,0,L|329:35,1,69.0000013160706,0|0,0:0|0:0,0:0:0:0:
387,0,66375,2,0,L|356:237,1,230.000004386902,10|0,0:0|0:0,0:0:0:0:
294,278,66875,6,0,P|275:249|271:215,1,69.0000013160706,6|0,0:0|0:0,0:0:0:0:
439,244,67125,2,0,P|423:274|395:294,1,69.0000013160706,0|0,0:0|0:0,0:0:0:0:
357,228,67375,1,8,0:0:0:0:
149,376,67625,5,2,0:0:0:0:
207,329,67791,1,0,0:0:0:0:
198,334,67875,2,0,L|184:245,1,69.0000013160706,0|0,0:0|0:0,0:0:0:0:
136,154,68125,2,0,P|106:172|88:201,1,69.0000013160706,2|0,0:0|0:0,0:0:0:0:
191,82,68375,2,0,P|161:66|127:64,1,69.0000013160706,10|0,0:0|0:0,0:0:0:0:
280,92,68625,2,0,P|279:58|264:28,1,69.0000013160706,2|0,0:0|0:0,0:0:0:0:
315,171,68875,6,0,P|372:134|397:71,1,138.000002632141,6|0,0:0|0:0,0:0:0:0:
483,15,69250,1,0,0:0:0:0:
483,15,69375,2,0,P|491:83|472:154,1,138.000002632141,10|0,0:0|0:0,0:0:0:0:
489,304,69875,1,6,0:0:0:0:
472,291,70000,1,0,0:0:0:0:
456,277,70125,2,0,L|387:280,1,69.0000013160706,0|0,0:0|0:0,0:0:0:0:
288,351,70375,2,0,P|204:294|97:348,1,230.000004386902,10|0,0:0|0:0,0:0:0:0:
0,384,70875,6,0,B|19:371|19:371|14:247,1,138.000002632141,6|0,0:0|0:0,0:0:0:0:
0,150,71250,1,0,0:0:0:0:
0,150,71375,2,0,P|27:130|61:126,2,69.0000013160706,8|0|2,0:0|0:0|0:0,0:0:0:0:
172,175,71875,1,0,0:0:0:0:
187,160,72000,1,0,0:0:0:0:
202,146,72125,2,0,L|199:66,1,69.0000013160706,0|0,0:0|0:0,0:0:0:0:
298,206,72375,2,0,L|288:0,1,207.000003948212,10|0,0:0|0:0,0:0:0:0:
371,73,72875,6,0,P|437:57|492:95,1,138.000002632141,6|0,0:0|0:0,0:0:0:0:
439,174,73250,1,0,0:0:0:0:
439,174,73375,2,0,P|424:205|420:239,1,69.0000013160706,10|0,0:0|0:0,0:0:0:0:
456,366,73625,2,0,P|436:337|408:317,1,69.0000013160706,2|0,0:0|0:0,0:0:0:0:
323,270,73875,1,0,0:0:0:0:
315,289,74000,1,0,0:0:0:0:
306,308,74125,2,0,P|273:317|239:311,1,69.0000013160706,0|0,0:0|0:0,0:0:0:0:
146,375,74375,2,0,P|105:282|177:182,1,230.000004386902,8|0,0:0|0:0,0:0:0:0:
64,130,74875,6,0,P|124:99|191:109,1,138.000002632141,6|0,0:0|0:0,0:0:0:0:
303,55,75250,1,0,0:0:0:0:
303,55,75375,2,0,P|283:84|276:117,1,69.0000013160706,10|0,0:0|0:0,0:0:0:0:
230,179,75625,2,0,P|245:209|270:233,1,69.0000013160706,2|0,0:0|0:0,0:0:0:0:
379,299,75875,1,0,0:0:0:0:
390,281,76000,1,0,0:0:0:0:
401,264,76125,2,0,L|395:189,1,69.0000013160706,0|0,0:0|0:0,0:0:0:0:
435,120,76375,2,0,P|402:111|367:116,1,69.0000013160706,10|0,0:0|0:0,0:0:0:0:
512,113,76625,2,0,P|503:80|481:52,1,69.0000013160706,2|0,0:0|0:0,0:0:0:0:
371,8,76875,6,0,P|302:4|234:32,1,138.000002632141,6|0,0:0|0:0,0:0:0:0:
139,38,77250,1,0,0:0:0:0:
139,38,77375,2,0,P|158:103|141:169,1,138.000002632141,8|2,0:0|0:0,0:0:0:0:
25,247,77875,1,2,0:0:0:0:
31,266,78000,1,0,0:0:0:0:
37,285,78125,2,0,L|105:277,1,69.0000013160706,2|0,0:0|0:0,0:0:0:0:
172,352,78375,2,0,L|412:328,1,230.000004386902,8|0,0:0|0:0,0:0:0:0:
462,382,78875,6,0,P|480:317|447:258,1,138.000002632141,6|0,0:0|0:0,0:0:0:0:
444,169,79250,1,0,0:0:0:0:
444,169,79375,2,0,P|385:200|307:184,1,138.000002632141,8|0,0:0|0:0,0:0:0:0:
231,140,79791,1,0,0:0:0:0:
232,133,79875,2,0,P|244:166|244:200,1,69.0000013160706
139,137,80125,2,0,P|139:102|150:70,1,69.0000013160706,2|0,0:0|0:0,0:0:0:0:
248,31,80375,1,8,0:0:0:0:
248,31,80625,1,2,0:0:0:0:
256,192,80875,12,2,84125,0:0:0:0:
