osu file format v14

[General]
AudioFilename: audio.mp3
AudioLeadIn: 0
PreviewTime: 51215
Countdown: 0
SampleSet: Soft
StackLeniency: 0.5
Mode: 0
LetterboxInBreaks: 0
WidescreenStoryboard: 1

[Editor]
DistanceSpacing: 1.2
BeatDivisor: 4
GridSize: 4
TimelineZoom: 1

[Metadata]
Title:FINALE
TitleUnicode:FINALE
Artist:Triodust
ArtistUnicode:Triodust
Creator:DalouBot
Version:Impossible
Source:Rabi-Ribi
Tags:Rabi-Ribi Original Soundtrack
BeatmapID:1519950
BeatmapSetID:676046

[Difficulty]
HPDrainRate:7.5
CircleSize:4
OverallDifficulty:8.5
ApproachRate:9.2
SliderMultiplier:1.8
SliderTickRate:1

[Events]
//Background and Video events
0,0,"background.jpg",0,0
//Break Periods
2,123540,129840
//Storyboard Layer 0 (Background)
//Storyboard Layer 1 (Fail)
//Storyboard Layer 2 (Pass)
//Storyboard Layer 3 (Foreground)
//Storyboard Sound Samples

[TimingPoints]
1840,500,4,2,1,20,1,0
1840,-125,4,2,1,20,0,0
27340,500,3,2,1,50,1,0
51340,-100,3,2,1,50,0,1
75340,-100,3,2,1,40,0,0
87340,-100,3,2,1,50,0,1
111340,-100,3,2,1,50,0,0
123340,500,4,2,1,40,1,0
141340,-111.111111111111,4,2,1,30,0,0
152840,-100,4,2,1,40,0,0
153340,500,4,2,1,50,1,1
153340,-100,4,2,1,50,0,1
169090,-100,4,2,1,50,0,0
169340,-100,4,2,1,50,0,1
170090,-100,4,2,1,45,0,1
170590,-100,4,2,1,50,0,1
174090,-100,4,2,1,45,0,1
174590,-100,4,2,1,50,0,1
189340,-100,4,2,1,30,0,0
198340,500,3,2,1,50,1,0

[HitObjects]
192,200,1840,5,0,0:0:0:0:
120,76,2340,1,0,0:0:0:0:
264,76,2840,1,0,0:0:0:0:
192,200,3840,6,0,P|304:212|380:144,1,216,2|0,0:0|0:0,0:0:0:0:
264,76,4840,1,0,0:0:0:0:
380,276,5840,1,0,0:0:0:0:
148,276,6840,1,0,0:0:0:0:
264,76,7840,2,0,P|336:44|408:48,1,144
380,276,8840,1,0,0:0:0:0:
260,200,9340,5,0,0:0:0:0:
160,228,9590,1,0,0:0:0:0:
184,128,9840,1,2,0:0:0:0:
232,304,10340,1,0,0:0:0:0:
56,264,10840,1,0,0:0:0:0:
184,128,11340,1,0,0:0:0:0:
56,264,11840,1,2,0:0:0:0:
208,360,12340,1,0,0:0:0:0:
360,264,12840,1,0,0:0:0:0:
304,60,13840,5,2,0:0:0:0:
420,60,14340,1,2,0:0:0:0:
420,176,14840,1,2,0:0:0:0:
304,176,15340,2,0,B|244:180|203:132|203:132|172:95|122:71|71:83|33:111,1,288
104,204,16840,1,0,0:0:0:0:
32,292,17340,5,0,0:0:0:0:
144,312,17590,1,0,0:0:0:0:
104,204,17840,1,2,0:0:0:0:
264,324,18840,5,0,0:0:0:0:
296,96,19340,1,0,0:0:0:0:
176,112,19840,5,0,0:0:0:0:
352,272,20340,1,0,0:0:0:0:
404,156,20840,5,0,0:0:0:0:
160,184,21340,1,0,0:0:0:0:
184,296,21840,5,2,0:0:0:0:
208,52,22340,1,0,0:0:0:0:
416,176,22840,5,2,0:0:0:0:
159,231,23340,1,0,0:0:0:0:
339,86,23840,6,0,P|188:117|161:238,1,288,2|0,0:0|0:0,0:0:0:0:
284,208,25340,1,0,0:0:0:0:
339,86,25840,2,0,P|397:45|468:49,2,144,2|0|0,0:0|0:0|0:0,0:0:0:0:
284,208,27340,5,4,0:0:0:0:
120,217,27590,2,0,L|106:272,1,45
148,120,27840,1,0,0:0:0:0:
200,332,28090,1,0,0:0:0:0:
252,344,28215,1,0,0:0:0:0:
304,340,28340,1,0,0:0:0:0:
352,316,28465,1,0,0:0:0:0:
388,276,28590,1,0,0:0:0:0:
408,224,28715,1,0,0:0:0:0:
408,172,28840,5,0,0:0:0:0:
244,96,29090,2,0,L|176:108,1,45
352,80,29340,1,0,0:0:0:0:
264,236,29590,1,0,0:0:0:0:
264,236,29715,1,0,0:0:0:0:
264,236,29840,2,0,P|212:236|170:210,1,90
72,316,30340,5,2,0:0:0:0:
116,136,30590,2,0,L|192:124,1,45
16,148,30840,1,0,0:0:0:0:
188,32,31090,1,0,0:0:0:0:
240,24,31215,1,0,0:0:0:0:
292,32,31340,1,0,0:0:0:0:
336,60,31465,1,0,0:0:0:0:
372,100,31590,1,0,0:0:0:0:
380,152,31715,1,0,0:0:0:0:
372,204,31840,5,2,0:0:0:0:
180,168,32090,2,0,L|176:116,1,45
188,266,32340,1,0,0:0:0:0:
288,76,32590,2,0,L|284:24,1,45
354,136,32840,2,0,L|358:196,1,45
426,80,33090,2,0,L|422:28,1,45
482,152,33340,5,4,0:0:0:0:
372,312,33590,2,0,L|336:360,1,45
428,232,33840,1,0,0:0:0:0:
354,136,34090,1,0,0:0:0:0:
308,112,34215,1,0,0:0:0:0:
256,108,34340,1,0,0:0:0:0:
204,124,34465,1,0,0:0:0:0:
164,160,34590,1,0,0:0:0:0:
148,212,34715,1,0,0:0:0:0:
156,264,34840,5,0,0:0:0:0:
80,96,35090,2,0,L|60:48,1,45
24,208,35340,1,0,0:0:0:0:
192,68,35590,1,0,0:0:0:0:
244,84,35715,1,0,0:0:0:0:
280,124,35840,1,0,0:0:0:0:
296,176,35965,1,0,0:0:0:0:
292,228,36090,1,0,0:0:0:0:
264,276,36215,1,0,0:0:0:0:
216,300,36340,5,2,0:0:0:0:
197,112,36590,2,0,L|189:44,1,45
320,124,36840,1,0,0:0:0:0:
112,200,37090,1,0,0:0:0:0:
108,252,37215,1,0,0:0:0:0:
124,304,37340,1,0,0:0:0:0:
160,344,37465,1,0,0:0:0:0:
208,368,37590,1,0,0:0:0:0:
260,372,37715,1,0,0:0:0:0:
312,356,37840,5,2,0:0:0:0:
248,144,38090,2,0,L|188:152,1,45
368,132,38340,1,0,0:0:0:0:
380,228,38590,2,0,L|388:280,1,45
360,80,38840,1,0,0:0:0:0:
212,88,39090,1,0,0:0:0:0:
172,124,39215,1,0,0:0:0:0:
152,172,39340,6,0,P|147:216|172:276,1,90,4|0,0:0|0:0,0:0:0:0:
188,304,39715,1,0,0:0:0:0:
236,332,39840,1,0,0:0:0:0:
288,336,39965,1,0,0:0:0:0:
104,140,40090,6,0,P|69:167|44:227,1,90,2|0,0:0|0:0,0:0:0:0:
34,256,40465,1,0,0:0:0:0:
44,308,40590,1,0,0:0:0:0:
82,349,40715,1,0,0:0:0:0:
240,228,40840,6,0,P|241:183|211:126,1,90,2|0,0:0|0:0,0:0:0:0:
195,99,41215,1,0,0:0:0:0:
143,76,41340,1,0,0:0:0:0:
92,77,41465,1,0,0:0:0:0:
288,260,41590,6,0,P|320:229|339:167,1,90,2|0,0:0|0:0,0:0:0:0:
347,136,41965,1,0,0:0:0:0:
326,83,42090,1,0,0:0:0:0:
290,48,42215,1,0,0:0:0:0:
240,32,42340,1,0,0:0:0:0:
136,216,42590,6,0,L|128:280,1,45
148,116,42840,1,0,0:0:0:0:
368,132,43090,5,2,0:0:0:0:
402,173,43215,1,0,0:0:0:0:
410,225,43340,1,0,0:0:0:0:
402,277,43465,1,0,0:0:0:0:
370,321,43590,1,0,0:0:0:0:
326,349,43715,1,0,0:0:0:0:
274,353,43840,5,0,0:0:0:0:
222,345,43965,1,0,0:0:0:0:
182,305,44090,1,0,0:0:0:0:
130,285,44215,1,0,0:0:0:0:
82,309,44340,1,0,0:0:0:0:
26,301,44465,1,0,0:0:0:0:
2,253,44590,1,2,0:0:0:0:
22,201,44715,1,0,0:0:0:0:
74,181,44840,5,0,0:0:0:0:
122,201,44965,1,0,0:0:0:0:
174,197,45090,1,0,0:0:0:0:
214,161,45215,1,0,0:0:0:0:
222,109,45340,6,0,P|214:61|174:21,1,90,4|0,0:0|0:0,0:0:0:0:
138,13,45715,1,0,0:0:0:0:
86,21,45840,1,0,0:0:0:0:
46,61,45965,1,0,0:0:0:0:
279,188,46090,6,0,P|307:148|307:91,1,90,2|0,0:0|0:0,0:0:0:0:
287,60,46465,1,0,0:0:0:0:
245,29,46590,1,0,0:0:0:0:
188,29,46715,1,0,0:0:0:0:
263,285,46840,6,0,P|311:276|351:236,1,90,2|0,0:0|0:0,0:0:0:0:
359,200,47215,1,0,0:0:0:0:
351,148,47340,1,0,0:0:0:0:
311,108,47465,1,0,0:0:0:0:
183,343,47590,6,0,P|222:371|279:371,1,90,2|0,0:0|0:0,0:0:0:0:
310,350,47965,1,0,0:0:0:0:
342,308,48090,1,0,0:0:0:0:
342,251,48215,1,0,0:0:0:0:
320,204,48340,1,0,0:0:0:0:
180,84,48590,6,0,L|120:96,1,45
280,68,48840,1,0,0:0:0:0:
148,224,49090,1,2,0:0:0:0:
200,240,49215,1,0,0:0:0:0:
252,232,49340,1,0,0:0:0:0:
296,204,49465,1,0,0:0:0:0:
332,164,49590,1,0,0:0:0:0:
336,112,49715,1,0,0:0:0:0:
320,60,49840,5,0,0:0:0:0:
352,16,49965,1,0,0:0:0:0:
404,12,50090,1,0,0:0:0:0:
448,44,50215,1,0,0:0:0:0:
456,96,50340,1,0,0:0:0:0:
424,140,50465,1,0,0:0:0:0:
372,152,50590,1,2,0:0:0:0:
324,128,50715,1,0,0:0:0:0:
272,124,50840,5,0,0:0:0:0:
220,136,50965,1,0,0:0:0:0:
168,152,51090,1,0,0:0:0:0:
116,152,51215,1,0,0:0:0:0:
64,132,51340,5,4,0:0:0:0:
24,280,51590,1,0,0:0:0:0:
24,280,51715,1,0,0:0:0:0:
24,280,51840,2,0,P|64:292|116:284,1,90
268,244,52340,2,0,L|288:200,1,45,2|0,0:0|0:0,0:0:0:0:
468,196,52590,2,0,L|504:252,1,45,2|0,0:0|0:0,0:0:0:0:
364,40,52840,5,2,0:0:0:0:
286,203,53090,1,0,0:0:0:0:
286,203,53215,1,0,0:0:0:0:
286,203,53340,2,0,P|234:215|186:195,1,90
48,136,53840,2,0,L|12:84,1,45,2|0,0:0|0:0,0:0:0:0:
244,120,54090,2,0,L|264:68,1,45,2|0,0:0|0:0,0:0:0:0:
164,296,54340,5,2,0:0:0:0:
124,112,54590,1,0,0:0:0:0:
124,112,54715,1,0,0:0:0:0:
124,112,54840,2,0,P|172:64|212:56,1,90
268,244,55340,5,2,0:0:0:0:
268,244,55465,1,0,0:0:0:0:
84,208,55590,1,2,0:0:0:0:
84,208,55715,1,0,0:0:0:0:
276,124,55840,6,0,L|336:100,1,45,2|0,0:0|0:0,0:0:0:0:
388,355,56090,1,0,0:0:0:0:
388,355,56215,1,0,0:0:0:0:
360,259,56340,2,0,L|347:215,1,45,2|0,0:0|0:0,0:0:0:0:
276,365,56590,5,0,0:0:0:0:
276,365,56715,1,0,0:0:0:0:
272,269,56840,2,0,L|272:224,1,45,2|0,0:0|0:0,0:0:0:0:
155,355,57090,5,0,0:0:0:0:
155,355,57215,1,0,0:0:0:0:
84,208,57340,5,4,0:0:0:0:
236,84,57590,1,0,0:0:0:0:
236,84,57715,1,0,0:0:0:0:
236,84,57840,2,0,P|185:43|148:45,1,90
84,208,58340,2,0,L|96:272,1,45,2|0,0:0|0:0,0:0:0:0:
56,64,58590,2,0,L|44:8,1,45,2|0,0:0|0:0,0:0:0:0:
20,288,58840,5,2,0:0:0:0:
132,96,59090,1,0,0:0:0:0:
132,96,59215,1,0,0:0:0:0:
132,96,59340,2,0,P|192:56|232:60,1,90
268,212,59840,2,0,L|256:284,1,45,2|0,0:0|0:0,0:0:0:0:
296,68,60090,2,0,L|308:-4,1,45,2|0,0:0|0:0,0:0:0:0:
340,268,60340,5,2,0:0:0:0:
146,167,60590,1,0,0:0:0:0:
146,167,60715,1,0,0:0:0:0:
146,167,60840,2,0,P|114:127|106:87,1,90
108,264,61340,2,0,L|84:328,1,45,2|0,0:0|0:0,0:0:0:0:
244,180,61590,2,0,L|264:128,1,45,2|0,0:0|0:0,0:0:0:0:
184,348,61840,5,2,0:0:0:0:
348,324,62090,1,0,0:0:0:0:
404,316,62215,1,0,0:0:0:0:
456,308,62340,1,2,0:0:0:0:
244,180,62590,1,0,0:0:0:0:
268,132,62715,1,0,0:0:0:0:
312,100,62840,1,2,0:0:0:0:
364,84,62965,1,0,0:0:0:0:
416,88,63090,1,0,0:0:0:0:
460,116,63215,1,0,0:0:0:0:
492,160,63340,5,4,0:0:0:0:
368,272,63590,1,0,0:0:0:0:
368,272,63715,1,0,0:0:0:0:
368,272,63840,2,0,P|404:312|456:320,1,90
256,344,64340,2,0,L|176:352,1,45,2|0,0:0|0:0,0:0:0:0:
112,192,64590,2,0,L|136:132,1,45,2|0,0:0|0:0,0:0:0:0:
40,368,64840,5,2,0:0:0:0:
212,196,65090,1,0,0:0:0:0:
212,196,65215,1,0,0:0:0:0:
212,196,65340,2,0,P|223:141|213:102,1,90
116,124,65840,2,0,L|84:88,1,45,2|0,0:0|0:0,0:0:0:0:
308,88,66090,2,0,L|324:36,1,45,2|0,0:0|0:0,0:0:0:0:
244,276,66340,5,2,0:0:0:0:
308,88,66590,1,0,0:0:0:0:
308,88,66715,1,0,0:0:0:0:
308,88,66840,2,0,P|352:72|404:84,1,90
368,240,67340,5,2,0:0:0:0:
368,240,67465,1,0,0:0:0:0:
152,252,67590,1,2,0:0:0:0:
152,252,67715,1,0,0:0:0:0:
224,88,67840,6,0,L|252:24,1,45,2|0,0:0|0:0,0:0:0:0:
264,248,68090,1,0,0:0:0:0:
264,248,68215,1,0,0:0:0:0:
152,164,68340,2,0,L|100:128,1,45,2|0,0:0|0:0,0:0:0:0:
152,252,68590,5,0,0:0:0:0:
152,252,68715,1,0,0:0:0:0:
280,156,68840,2,0,L|320:124,1,45,2|0,0:0|0:0,0:0:0:0:
212,340,69090,5,0,0:0:0:0:
212,340,69215,1,0,0:0:0:0:
48,160,69340,5,4,0:0:0:0:
236,52,69590,1,0,0:0:0:0:
236,52,69715,1,0,0:0:0:0:
236,52,69840,2,0,P|256:88|248:148,1,90
176,240,70340,2,0,L|232:276,1,45,2|0,0:0|0:0,0:0:0:0:
380,180,70590,2,0,L|384:116,1,45,2|0,0:0|0:0,0:0:0:0:
372,368,70840,5,2,0:0:0:0:
284,204,71090,1,0,0:0:0:0:
284,204,71215,1,0,0:0:0:0:
284,204,71340,2,0,P|228:228|192:224,1,90
56,168,71840,2,0,L|44:104,1,45,2|0,0:0|0:0,0:0:0:0:
80,324,72090,2,0,L|88:372,1,45,2|0,0:0|0:0,0:0:0:0:
124,96,72340,5,2,0:0:0:0:
200,226,72590,1,0,0:0:0:0:
200,226,72715,1,0,0:0:0:0:
200,226,72840,2,0,P|262:237|303:212,1,90
289,136,73340,5,2,0:0:0:0:
438,184,73465,1,0,0:0:0:0:
285,227,73590,1,2,0:0:0:0:
434,275,73715,1,0,0:0:0:0:
280,316,73840,5,2,0:0:0:0:
228,308,73965,1,0,0:0:0:0:
188,272,74090,1,0,0:0:0:0:
180,220,74215,1,0,0:0:0:0:
204,172,74340,1,2,0:0:0:0:
208,120,74465,1,0,0:0:0:0:
184,72,74590,1,0,0:0:0:0:
132,56,74715,1,0,0:0:0:0:
84,76,74840,5,2,0:0:0:0:
64,124,74965,1,0,0:0:0:0:
80,176,75090,1,0,0:0:0:0:
128,196,75215,1,0,0:0:0:0:
180,184,75340,1,4,0:0:0:0:
56,268,75840,6,0,P|76:320|108:348,1,90,2|0,0:0|0:0,0:0:0:0:
240,196,76340,1,0,0:0:0:0:
316,348,76590,1,0,0:0:0:0:
316,348,76715,1,0,0:0:0:0:
316,348,76840,2,0,P|364:356|408:348,1,90,2|0,0:0|0:0,0:0:0:0:
408,168,77340,2,0,P|416:124|448:84,1,90
240,196,77840,1,2,0:0:0:0:
208,48,78090,5,0,0:0:0:0:
208,48,78215,1,0,0:0:0:0:
208,48,78340,2,0,P|256:28|308:32,1,90,2|0,0:0|0:0,0:0:0:0:
240,196,78840,1,0,0:0:0:0:
456,175,79090,1,2,0:0:0:0:
456,175,79215,1,0,0:0:0:0:
456,175,79340,2,0,P|456:127|436:79,1,90,2|0,0:0|0:0,0:0:0:0:
376,316,79840,5,2,0:0:0:0:
216,272,80090,2,0,L|220:228,1,45
144,316,80340,2,0,L|140:364,1,45
72,272,80590,2,0,L|76:224,1,45
8,320,80840,1,2,0:0:0:0:
32,132,81090,5,0,0:0:0:0:
32,132,81215,1,0,0:0:0:0:
32,132,81340,2,0,P|64:96|112:88,1,90,4|0,0:0|0:0,0:0:0:0:
244,112,81840,1,0,0:0:0:0:
384,44,82090,6,0,L|400:148,1,90,2|0,0:0|0:0,0:0:0:0:
412,184,82465,1,0,0:0:0:0:
444,228,82590,1,0,0:0:0:0:
496,244,82715,1,0,0:0:0:0:
318,79,82840,6,0,L|309:183,1,90,2|0,0:0|0:0,0:0:0:0:
312,221,83215,1,0,0:0:0:0:
334,271,83340,1,0,0:0:0:0:
381,298,83465,1,0,0:0:0:0:
244,112,83590,6,0,L|213:213,1,90,2|0,0:0|0:0,0:0:0:0:
209,250,83965,1,0,0:0:0:0:
219,303,84090,1,0,0:0:0:0:
259,340,84215,1,0,0:0:0:0:
313,354,84340,1,0,0:0:0:0:
4,264,84590,5,0,0:0:0:0:
4,264,84715,1,0,0:0:0:0:
4,264,84840,1,0,0:0:0:0:
32,40,85090,1,2,0:0:0:0:
212,176,85340,1,0,0:0:0:0:
212,176,85465,1,0,0:0:0:0:
212,176,85590,1,0,0:0:0:0:
472,136,85840,5,2,0:0:0:0:
276,56,86090,2,0,L|268:4,2,45
312,268,86590,1,2,0:0:0:0:
472,136,86840,1,2,0:0:0:0:
472,136,87340,5,4,0:0:0:0:
472,188,87465,1,0,0:0:0:0:
452,236,87590,1,0,0:0:0:0:
412,272,87715,1,0,0:0:0:0:
360,280,87840,1,0,0:0:0:0:
308,272,87965,1,0,0:0:0:0:
260,244,88090,1,0,0:0:0:0:
208,236,88215,1,0,0:0:0:0:
156,236,88340,2,0,L|100:244,1,45
76,152,88590,2,0,L|144:144,1,45
228,156,88840,5,2,0:0:0:0:
280,164,88965,1,0,0:0:0:0:
332,152,89090,1,0,0:0:0:0:
368,112,89215,1,0,0:0:0:0:
372,60,89340,1,0,0:0:0:0:
336,20,89465,1,0,0:0:0:0:
284,12,89590,1,0,0:0:0:0:
232,28,89715,1,0,0:0:0:0:
208,76,89840,2,0,L|200:132,1,45
112,96,90090,2,0,L|119:47,1,45
20,72,90340,5,2,0:0:0:0:
0,124,90465,1,0,0:0:0:0:
4,176,90590,1,0,0:0:0:0:
28,224,90715,1,0,0:0:0:0:
76,248,90840,1,0,0:0:0:0:
128,248,90965,1,0,0:0:0:0:
180,228,91090,1,0,0:0:0:0:
232,220,91215,1,0,0:0:0:0:
284,228,91340,2,0,L|344:244,1,45
324,332,91590,2,0,L|252:312,1,45
168,312,91840,5,2,0:0:0:0:
136,268,91965,1,0,0:0:0:0:
124,216,92090,1,0,0:0:0:0:
132,164,92215,1,0,0:0:0:0:
156,116,92340,1,0,0:0:0:0:
200,84,92465,1,0,0:0:0:0:
264,160,92590,5,2,0:0:0:0:
316,172,92715,1,0,0:0:0:0:
368,164,92840,1,0,0:0:0:0:
416,140,92965,1,0,0:0:0:0:
452,100,93090,1,0,0:0:0:0:
468,48,93215,1,0,0:0:0:0:
360,24,93340,5,2,0:0:0:0:
328,68,93465,1,0,0:0:0:0:
320,120,93590,1,0,0:0:0:0:
336,172,93715,1,0,0:0:0:0:
368,216,93840,1,0,0:0:0:0:
388,268,93965,1,0,0:0:0:0:
372,320,94090,1,0,0:0:0:0:
324,344,94215,1,0,0:0:0:0:
268,340,94340,2,0,L|208:332,1,45
164,244,94590,2,0,L|172:188,1,45,2|0,0:0|0:0,0:0:0:0:
272,240,94840,5,2,0:0:0:0:
324,252,94965,1,0,0:0:0:0:
376,244,95090,1,0,0:0:0:0:
420,212,95215,1,0,0:0:0:0:
440,160,95340,1,0,0:0:0:0:
436,108,95465,1,0,0:0:0:0:
400,68,95590,1,0,0:0:0:0:
348,52,95715,1,0,0:0:0:0:
296,60,95840,2,0,L|240:100,1,45
180,148,96090,2,0,L|200:200,1,45
272,256,96340,5,2,0:0:0:0:
272,308,96465,1,0,0:0:0:0:
236,348,96590,1,0,0:0:0:0:
184,360,96715,1,0,0:0:0:0:
132,352,96840,1,0,0:0:0:0:
84,328,96965,1,0,0:0:0:0:
56,280,97090,1,0,0:0:0:0:
48,228,97215,1,0,0:0:0:0:
56,176,97340,2,0,L|64:120,1,45
159,139,97590,2,0,L|147:211,1,45
240,224,97840,5,2,0:0:0:0:
292,224,97965,1,0,0:0:0:0:
340,200,98090,1,0,0:0:0:0:
376,160,98215,1,0,0:0:0:0:
380,108,98340,1,0,0:0:0:0:
356,60,98465,1,0,0:0:0:0:
308,36,98590,5,2,0:0:0:0:
256,28,98715,1,0,0:0:0:0:
204,32,98840,1,0,0:0:0:0:
156,60,98965,1,0,0:0:0:0:
120,100,99090,1,2,0:0:0:0:
104,152,99215,1,0,0:0:0:0:
104,204,99340,5,4,0:0:0:0:
124,256,99465,1,0,0:0:0:0:
164,292,99590,1,0,0:0:0:0:
216,304,99715,1,0,0:0:0:0:
268,292,99840,1,0,0:0:0:0:
296,248,99965,1,0,0:0:0:0:
296,196,100090,1,0,0:0:0:0:
272,148,100215,1,0,0:0:0:0:
260,96,100340,2,0,L|264:44,1,45
360,40,100590,2,0,L|356:104,1,45
428,160,100840,5,2,0:0:0:0:
408,212,100965,1,0,0:0:0:0:
364,244,101090,1,0,0:0:0:0:
312,248,101215,1,0,0:0:0:0:
260,232,101340,1,0,0:0:0:0:
216,200,101465,1,0,0:0:0:0:
164,204,101590,1,0,0:0:0:0:
116,228,101715,1,0,0:0:0:0:
92,276,101840,2,0,L|72:336,1,45
172,348,102090,2,0,L|188:292,1,45
216,200,102340,5,2,0:0:0:0:
188,152,102465,1,0,0:0:0:0:
136,144,102590,1,0,0:0:0:0:
84,160,102715,1,0,0:0:0:0:
32,148,102840,1,0,0:0:0:0:
12,96,102965,1,0,0:0:0:0:
32,44,103090,1,0,0:0:0:0:
80,20,103215,1,0,0:0:0:0:
132,28,103340,2,0,L|184:48,1,45
188,152,103590,2,0,L|136:132,1,45
60,196,103840,5,2,0:0:0:0:
48,248,103965,1,0,0:0:0:0:
60,300,104090,1,0,0:0:0:0:
96,340,104215,1,0,0:0:0:0:
148,356,104340,1,0,0:0:0:0:
200,352,104465,1,0,0:0:0:0:
204,248,104590,5,2,0:0:0:0:
252,220,104715,1,0,0:0:0:0:
304,216,104840,1,0,0:0:0:0:
356,228,104965,1,0,0:0:0:0:
400,256,105090,1,0,0:0:0:0:
432,300,105215,1,0,0:0:0:0:
336,348,105340,5,2,0:0:0:0:
304,304,105465,1,0,0:0:0:0:
296,252,105590,1,0,0:0:0:0:
312,200,105715,1,0,0:0:0:0:
344,156,105840,1,0,0:0:0:0:
364,104,105965,1,0,0:0:0:0:
348,52,106090,1,0,0:0:0:0:
300,28,106215,1,0,0:0:0:0:
244,32,106340,2,0,L|184:40,1,45
136,124,106590,2,0,L|148:192,1,45,2|0,0:0|0:0,0:0:0:0:
264,160,106840,5,2,0:0:0:0:
316,160,106965,1,0,0:0:0:0:
364,184,107090,1,0,0:0:0:0:
392,232,107215,1,0,0:0:0:0:
392,284,107340,1,0,0:0:0:0:
360,328,107465,1,0,0:0:0:0:
308,340,107590,1,0,0:0:0:0:
256,324,107715,1,0,0:0:0:0:
232,276,107840,2,0,L|220:220,1,45
160,152,108090,2,0,L|188:100,1,45
104,44,108340,5,2,0:0:0:0:
52,56,108465,1,0,0:0:0:0:
20,100,108590,1,0,0:0:0:0:
20,152,108715,1,0,0:0:0:0:
36,204,108840,1,0,0:0:0:0:
80,236,108965,1,0,0:0:0:0:
132,248,109090,1,0,0:0:0:0:
184,244,109215,1,0,0:0:0:0:
236,224,109340,2,0,L|284:200,1,45
328,288,109590,2,0,L|280:312,1,45
168,344,109840,5,2,0:0:0:0:
140,296,109965,1,0,0:0:0:0:
128,244,110090,1,0,0:0:0:0:
132,192,110215,1,0,0:0:0:0:
152,140,110340,1,0,0:0:0:0:
188,100,110465,1,0,0:0:0:0:
236,76,110590,5,2,0:0:0:0:
288,72,110715,1,0,0:0:0:0:
332,104,110840,1,0,0:0:0:0:
332,156,110965,1,0,0:0:0:0:
292,192,111090,1,2,0:0:0:0:
240,184,111215,1,0,0:0:0:0:
212,136,111340,6,0,B|180:100|176:48|176:48|92:60,1,180,4|0,0:0|0:0,0:0:0:0:
299,247,112090,2,0,B|332:283|335:336|335:336|418:324,1,180
200,235,112841,2,0,B|164:268|112:271|112:271|123:354,1,180
311,148,113591,2,0,B|348:116|400:112|400:112|388:29,1,180
256,192,114340,5,2,0:0:0:0:
24,320,114590,5,0,0:0:0:0:
12,268,114715,1,0,0:0:0:0:
84,183,114840,1,0,0:0:0:0:
84,238,114965,1,0,0:0:0:0:
160,160,115090,5,0,0:0:0:0:
164,108,115215,1,0,0:0:0:0:
264,48,115340,1,0,0:0:0:0:
244,100,115465,1,0,0:0:0:0:
340,64,115590,5,0,0:0:0:0:
384,36,115715,1,0,0:0:0:0:
484,80,115840,5,0,0:0:0:0:
496,132,115965,1,0,0:0:0:0:
424,217,116090,1,0,0:0:0:0:
424,162,116215,1,0,0:0:0:0:
348,240,116340,5,0,0:0:0:0:
344,292,116465,1,0,0:0:0:0:
244,352,116590,1,0,0:0:0:0:
264,300,116715,1,0,0:0:0:0:
168,336,116840,5,0,0:0:0:0:
120,364,116965,1,0,0:0:0:0:
16,320,117090,1,0,0:0:0:0:
68,308,117215,1,0,0:0:0:0:
210,184,117340,6,0,P|150:118|63:110,1,180,4|0,0:0|0:0,0:0:0:0:
272,280,118090,2,0,P|368:236|396:172,1,180
244,28,118840,2,0,P|196:88|216:192,1,180
396,171,119590,2,0,P|440:264|416:344,1,180
304,180,120340,5,2,0:0:0:0:
324,40,120590,5,0,0:0:0:0:
316,92,120715,1,0,0:0:0:0:
116,120,120840,1,0,0:0:0:0:
116,68,120965,1,0,0:0:0:0:
216,112,121090,5,0,0:0:0:0:
220,164,121215,1,0,0:0:0:0:
28,208,121340,1,0,0:0:0:0:
20,156,121465,1,0,0:0:0:0:
192,248,121590,5,0,0:0:0:0:
208,300,121715,1,0,0:0:0:0:
112,320,121840,5,0,0:0:0:0:
60,332,121965,1,0,0:0:0:0:
296,288,122090,1,0,0:0:0:0:
348,304,122215,1,0,0:0:0:0:
108,228,122340,5,0,0:0:0:0:
56,240,122465,1,0,0:0:0:0:
292,196,122590,1,0,0:0:0:0:
344,212,122715,1,0,0:0:0:0:
104,136,122840,5,0,0:0:0:0:
52,148,122965,1,0,0:0:0:0:
288,104,123090,1,0,0:0:0:0:
340,120,123215,1,0,0:0:0:0:
100,44,123340,5,0,0:0:0:0:
284,56,130590,5,0,0:0:0:0:
260,188,130840,1,0,0:0:0:0:
236,320,131090,1,0,0:0:0:0:
102,164,131340,6,0,P|186:140|270:208,1,180,2|0,0:0|0:0,0:0:0:0:
236,320,132090,2,0,P|309:367|393:343,1,180
400,156,132840,1,0,0:0:0:0:
260,188,133090,1,0,0:0:0:0:
120,220,133340,6,0,P|64:190|105:151,2,135,2|2|2,0:0|0:0|0:0,0:0:0:0:
400,156,134590,1,0,0:0:0:0:
184,336,134965,1,0,0:0:0:0:
144,72,135340,1,2,0:0:0:0:
184,336,137340,5,2,0:0:0:0:
376,144,139340,6,0,P|297:72|218:78,1,180
95,176,140090,2,0,P|178:151|257:193,1,180
256,280,140840,2,0,P|193:292|164:279,1,90
256,192,141340,5,2,0:0:0:0:
256,192,141590,12,0,142840,0:0:0:0:
256,192,143340,5,2,0:0:0:0:
256,192,143590,12,0,144840,0:0:0:0:
256,192,145340,5,2,0:0:0:0:
256,192,145590,12,0,146840,0:0:0:0:
256,192,147340,5,2,0:0:0:0:
256,192,147590,12,0,148840,0:0:0:0:
256,192,149340,5,2,0:0:0:0:
256,192,149590,12,0,151090,0:0:0:0:
256,192,151340,12,0,152715,0:0:0:0:
206,184,152965,5,2,0:0:0:0:
230,232,153090,1,2,0:0:0:0:
282,232,153215,1,2,0:0:0:0:
300,112,153340,5,4,0:0:0:0:
180,296,153590,1,0,0:0:0:0:
128,312,153715,1,0,0:0:0:0:
76,296,153840,2,0,P|48:252|52:208,1,90,8|0,0:0|0:0,0:0:0:0:
100,144,154215,1,0,0:0:0:0:
152,152,154340,1,0,0:0:0:0:
204,160,154590,5,2,0:0:0:0:
152,152,154715,1,2,0:0:0:0:
204,160,154965,5,2,0:0:0:0:
256,168,155090,1,2,0:0:0:0:
412,244,155340,6,0,P|436:172|428:140,1,90
420,108,155715,1,0,0:0:0:0:
384,68,155840,1,8,0:0:0:0:
244,268,156090,1,0,0:0:0:0:
296,264,156215,1,0,0:0:0:0:
348,272,156340,2,0,P|392:284|432:324,1,90,2|0,0:0|0:0,0:0:0:0:
448,360,156715,1,2,0:0:0:0:
296,156,156965,5,2,0:0:0:0:
244,140,157090,1,2,0:0:0:0:
192,156,157215,1,2,0:0:0:0:
244,268,157340,5,0,0:0:0:0:
196,64,157590,1,0,0:0:0:0:
144,76,157715,1,0,0:0:0:0:
108,116,157840,2,0,P|96:164|124:220,1,90,8|0,0:0|0:0,0:0:0:0:
172,260,158215,1,0,0:0:0:0:
224,248,158340,1,0,0:0:0:0:
276,236,158590,5,2,0:0:0:0:
224,248,158715,1,2,0:0:0:0:
276,236,158965,5,2,0:0:0:0:
328,224,159090,1,2,0:0:0:0:
332,40,159340,6,0,P|260:48|228:76,1,90
200,84,159715,1,0,0:0:0:0:
148,76,159840,1,8,0:0:0:0:
32,184,160090,1,0,0:0:0:0:
20,236,160215,1,0,0:0:0:0:
36,288,160340,2,0,P|88:328|136:328,1,90,2|0,0:0|0:0,0:0:0:0:
156,304,160715,1,0,0:0:0:0:
204,276,160840,1,0,0:0:0:0:
256,272,160965,5,2,0:0:0:0:
308,288,161090,1,2,0:0:0:0:
348,324,161215,1,2,0:0:0:0:
380,368,161340,6,0,P|428:332|444:292,1,90,4|0,0:0|0:0,0:0:0:0:
452,252,161715,1,0,0:0:0:0:
440,200,161840,1,8,0:0:0:0:
188,76,162090,1,0,0:0:0:0:
184,128,162215,1,0,0:0:0:0:
200,180,162340,1,0,0:0:0:0:
300,120,162590,5,2,0:0:0:0:
200,180,162715,1,2,0:0:0:0:
304,236,162965,5,2,0:0:0:0:
200,180,163090,1,2,0:0:0:0:
408,176,163340,6,0,P|424:224|416:276,1,90
304,336,163715,1,0,0:0:0:0:
252,316,163840,2,0,P|168:320|148:332,1,90,8|0,0:0|0:0,0:0:0:0:
140,188,164215,1,0,0:0:0:0:
88,204,164340,2,0,P|16:192|0:176,1,90,2|2,0:0|0:0,0:0:0:0:
232,76,164715,2,0,P|260:92|280:160,1,90,2|0,0:0|0:0,0:0:0:0:
124,96,165090,2,0,P|120:68|128:44,1,45
248,252,165340,6,0,P|300:260|352:240,1,90,4|0,0:0|0:0,0:0:0:0:
400,88,165715,1,0,0:0:0:0:
348,88,165840,2,0,P|314:101|277:154,1,90,8|0,0:0|0:0,0:0:0:0:
448,216,166215,1,0,0:0:0:0:
456,268,166340,2,0,P|444:308|400:348,1,90,2|2,0:0|0:0,0:0:0:0:
248,252,166715,2,0,P|196:240|156:256,1,90,2|0,0:0|0:0,0:0:0:0:
224,92,167090,2,0,L|200:144,1,45
108,36,167340,6,0,P|62:80|55:128,1,90,2|0,0:0|0:0,0:0:0:0:
64,232,167715,1,0,0:0:0:0:
92,280,167840,2,0,P|109:342|85:385,1,90,8|0,0:0|0:0,0:0:0:0:
16,260,168215,1,0,0:0:0:0:
64,232,168340,2,0,P|114:213|160:224,1,90,2|0,0:0|0:0,0:0:0:0:
196,248,168715,1,0,0:0:0:0:
248,264,168840,1,8,0:0:0:0:
300,256,168965,1,2,0:0:0:0:
348,228,169090,1,2,0:0:0:0:
376,184,169215,1,2,0:0:0:0:
384,132,169340,5,4,0:0:0:0:
212,128,169590,1,0,0:0:0:0:
268,52,169715,1,0,0:0:0:0:
256,212,169840,1,0,0:0:0:0:
256,212,170090,5,2,0:0:0:0:
144,192,170215,1,2,0:0:0:0:
292,324,170340,1,2,0:0:0:0:
292,324,170590,5,0,0:0:0:0:
384,232,170715,1,0,0:0:0:0:
168,304,170840,1,0,0:0:0:0:
168,304,171090,5,2,0:0:0:0:
256,176,171215,1,0,0:0:0:0:
32,240,171340,1,2,0:0:0:0:
4,192,171465,1,0,0:0:0:0:
4,140,171590,1,0,0:0:0:0:
32,92,171715,1,0,0:0:0:0:
80,68,171840,1,0,0:0:0:0:
132,68,171965,1,0,0:0:0:0:
180,96,172090,1,0,0:0:0:0:
232,96,172215,1,0,0:0:0:0:
284,76,172340,6,0,P|332:72|384:104,1,90,2|2,0:0|0:0,0:0:0:0:
232,260,172840,2,0,P|188:269|146:254,1,90,2|2,0:0|0:0,0:0:0:0:
368,304,173340,6,0,P|368:200|304:148,1,180,2|0,0:0|0:0,0:0:0:0:
146,254,174090,1,2,0:0:0:0:
144,152,174215,1,2,0:0:0:0:
232,204,174340,1,2,0:0:0:0:
232,204,174590,5,0,0:0:0:0:
60,208,174715,1,0,0:0:0:0:
152,352,174840,1,0,0:0:0:0:
152,352,175090,5,2,0:0:0:0:
144,152,175215,1,0,0:0:0:0:
324,240,175340,2,0,L|352:256,4,22.5
152,352,175840,1,2,0:0:0:0:
28,156,176090,2,0,L|44:120,4,22.5
164,36,176590,1,2,0:0:0:0:
384,184,176840,1,2,0:0:0:0:
80,292,177090,1,2,0:0:0:0:
312,328,177340,6,0,P|364:304|388:272,1,90,4|0,0:0|0:0,0:0:0:0:
200,224,177715,1,0,0:0:0:0:
200,224,177840,2,0,P|176:168|184:124,1,90,8|0,0:0|0:0,0:0:0:0:
352,112,178215,1,0,0:0:0:0:
352,112,178340,2,0,P|340:56|316:28,1,90,2|0,0:0|0:0,0:0:0:0:
268,20,178715,1,0,0:0:0:0:
216,32,178840,1,8,0:0:0:0:
384,184,179090,1,0,0:0:0:0:
168,332,179340,5,2,0:0:0:0:
116,336,179465,1,0,0:0:0:0:
64,316,179590,1,0,0:0:0:0:
32,272,179715,1,0,0:0:0:0:
24,220,179840,1,8,0:0:0:0:
284,164,180090,1,2,0:0:0:0:
336,164,180215,1,0,0:0:0:0:
384,184,180340,1,0,0:0:0:0:
420,224,180465,1,0,0:0:0:0:
432,276,180590,1,0,0:0:0:0:
216,104,180840,5,8,0:0:0:0:
108,140,180965,1,2,0:0:0:0:
128,28,181090,1,2,0:0:0:0:
20,64,181215,1,2,0:0:0:0:
24,256,181340,5,2,0:0:0:0:
71,281,181465,1,0,0:0:0:0:
123,286,181590,1,0,0:0:0:0:
174,267,181715,1,0,0:0:0:0:
212,232,181840,1,8,0:0:0:0:
416,136,182090,1,2,0:0:0:0:
449,180,182215,1,0,0:0:0:0:
459,231,182340,1,0,0:0:0:0:
450,284,182465,1,0,0:0:0:0:
419,329,182590,1,0,0:0:0:0:
320,64,182840,5,10,0:0:0:0:
320,64,182965,1,2,0:0:0:0:
264,172,183090,1,2,0:0:0:0:
264,172,183215,1,2,0:0:0:0:
196,72,183340,5,2,0:0:0:0:
144,60,183465,1,0,0:0:0:0:
92,64,183590,1,0,0:0:0:0:
44,88,183715,1,0,0:0:0:0:
12,132,183840,1,8,0:0:0:0:
144,248,184090,1,2,0:0:0:0:
196,250,184215,1,0,0:0:0:0:
244,273,184340,1,0,0:0:0:0:
282,310,184465,1,0,0:0:0:0:
291,361,184590,1,0,0:0:0:0:
472,164,184840,5,10,0:0:0:0:
460,272,184965,1,2,0:0:0:0:
364,164,185090,1,2,0:0:0:0:
352,272,185215,1,2,0:0:0:0:
232,156,185340,5,2,0:0:0:0:
260,108,185465,1,0,0:0:0:0:
304,76,185590,1,0,0:0:0:0:
356,64,185715,1,0,0:0:0:0:
408,72,185840,1,8,0:0:0:0:
156,28,186090,1,2,0:0:0:0:
103,35,186215,1,0,0:0:0:0:
57,61,186340,1,0,0:0:0:0:
26,103,186465,1,0,0:0:0:0:
21,156,186590,1,0,0:0:0:0:
304,264,186840,5,10,0:0:0:0:
304,264,186965,1,2,0:0:0:0:
248,152,187090,1,2,0:0:0:0:
248,152,187215,1,2,0:0:0:0:
120,252,187340,5,2,0:0:0:0:
68,252,187465,1,0,0:0:0:0:
20,220,187590,1,0,0:0:0:0:
12,164,187715,1,0,0:0:0:0:
44,108,187840,1,8,0:0:0:0:
108,96,187965,1,0,0:0:0:0:
164,136,188090,1,0,0:0:0:0:
152,204,188215,1,0,0:0:0:0:
152,276,188340,5,2,0:0:0:0:
192,336,188465,1,0,0:0:0:0:
264,360,188590,1,0,0:0:0:0:
340,360,188715,1,0,0:0:0:0:
408,316,188840,1,8,0:0:0:0:
436,240,188965,1,2,0:0:0:0:
432,156,189090,1,2,0:0:0:0:
388,80,189215,1,2,0:0:0:0:
304,40,189340,6,0,P|236:48|168:136,1,180,4|0,0:0|0:0,0:0:0:0:
304,184,190340,1,2,0:0:0:0:
464,48,190715,1,2,0:0:0:0:
304,184,191090,1,2,0:0:0:0:
168,129,191340,2,0,P|188:48|280:68,1,180
176,240,192965,6,0,L|124:212,2,45,2|2|2,0:0|0:0|0:0,0:0:0:0:
203,276,193340,2,0,P|240:348|316:316,1,180,2|0,0:0|0:0,0:0:0:0:
208,240,194340,1,2,0:0:0:0:
376,112,194715,1,2,0:0:0:0:
208,240,195090,1,2,0:0:0:0:
132,120,195340,5,4,0:0:0:0:
256,192,195590,12,0,198340,0:0:0:0:
