osu file format v14

[General]
AudioFilename: audio.mp3
AudioLeadIn: 0
PreviewTime: 10069
Countdown: 0
SampleSet: Normal
StackLeniency: 0.5
Mode: 0
LetterboxInBreaks: 0
EpilepsyWarning: 1
WidescreenStoryboard: 1

[Editor]
Bookmarks: 10069,19678,29287,38895,48504,58113,67721,77330,86939,96547,106156,115765,125373,134982
DistanceSpacing: 1
BeatDivisor: 4
GridSize: 4
TimelineZoom: 1

[Metadata]
Title:Bad Karma
TitleUnicode:Bad Karma
Artist:Triodust & KuensanP
ArtistUnicode:空氣載體 & クエン酸P
Creator:Diasios
Version:Normal
Source:家有大貓
Tags:Nekojishi 3R2 soundtrack ost orange juice dog visual novel clouded leopard likulau kulau yaoi gay furry xxheroxx
BeatmapID:1620393
BeatmapSetID:770084

[Difficulty]
HPDrainRate:4
CircleSize:4
OverallDifficulty:4
ApproachRate:5
SliderMultiplier:2.39999990463257
SliderTickRate:4

[Events]
//Background and Video events
0,0,"bg.jpg",0,0
//Break Periods
2,67920,75527
//Storyboard Layer 0 (Background)
//Storyboard Layer 1 (Fail)
//Storyboard Layer 2 (Pass)
//Storyboard Layer 3 (Foreground)
//Storyboard Sound Samples

[TimingPoints]
461,600.522454535446,4,1,1,55,1,0
29286,-100,4,1,0,55,0,1
29436,-100,4,1,2,55,0,1
31238,-100,4,1,3,55,0,1
31538,-100,4,1,2,55,0,1
36042,-100,4,1,3,55,0,1
36342,-100,4,1,2,55,0,1
40846,-100,4,1,3,55,0,1
41147,-100,4,1,2,55,0,1
45650,-100,4,1,3,55,0,1
45951,-100,4,1,2,55,0,1
48352,-100,4,1,4,55,0,0
48502,-100,4,1,4,55,0,1
48652,-100,4,1,4,55,0,0
51956,-100,4,1,5,55,0,0
57961,-100,4,1,1,55,0,0
58562,-100,4,1,2,55,0,0
59162,-100,4,1,1,55,0,0
59462,-100,4,1,2,55,0,0
60363,-100,4,1,1,55,0,0
60664,-100,4,1,2,55,0,0
61564,-100,4,1,1,55,0,0
61865,-100,4,1,2,55,0,0
67570,-100,4,1,1,55,0,0
96544,-100,4,1,0,55,0,1
96695,-100,4,1,2,55,0,1
98496,-100,4,1,3,55,0,1
98797,-100,4,1,2,55,0,1
103301,-100,4,1,3,55,0,1
103601,-100,4,1,2,55,0,1
108105,-100,4,1,3,55,0,1
108405,-100,4,1,2,55,0,1
112909,-100,4,1,3,55,0,1
113209,-100,4,1,2,55,0,1
115611,-100,4,1,4,55,0,0
115761,-100,4,1,4,55,0,1
115911,-100,4,1,4,55,0,0
119214,-100,4,1,5,55,0,0
125220,-100,4,1,1,55,0,0
125520,-100,4,1,2,55,0,0
126421,-100,4,1,1,55,0,0
126721,-100,4,1,2,55,0,0
127622,-100,4,1,1,55,0,0
127922,-100,4,1,2,55,0,0
128823,-100,4,1,1,55,0,0
129123,-100,4,1,2,55,0,0
134828,-100,4,1,1,55,0,0

[Colours]
Combo1 : 136,204,255
Combo2 : 0,104,181
Combo3 : 133,96,46
Combo4 : 132,132,132

[HitObjects]
256,72,9469,6,0,L|256:12,4,59.9999976158143,8|8|8|8|4,0:0|0:0|0:0|0:0|0:0,0:0:0:0:
48,192,10670,5,8,0:0:0:0:
256,312,11271,1,0,0:0:0:0:
464,192,11871,1,8,0:0:0:0:
256,312,12472,6,0,L|256:72,1,239.999990463257,0|8,0:0|0:0,0:0:0:0:
136,72,13372,1,0,0:0:0:0:
136,192,13673,2,0,L|376:192,1,239.999990463257,0|8,0:0|0:0,0:0:0:0:
376,312,14573,1,0,0:0:0:0:
256,312,14874,6,0,L|136:312,3,119.999995231629,0|2|8|2,0:0|0:0|0:0|0:0,0:0:0:0:
136,192,16075,2,0,L|136:72,3,119.999995231629,0|2|8|2,0:0|0:0|0:0|0:0,0:0:0:0:
256,72,17276,6,0,L|376:72,3,119.999995231629,0|2|8|2,0:0|0:0|0:0|0:0,0:0:0:0:
376,192,18477,2,0,L|376:312,3,119.999995231629,0|2|8|2,0:0|0:0|0:0|0:0,0:0:0:0:
256,312,19678,5,0,0:0:0:0:
464,192,20278,1,8,0:0:0:0:
256,72,20879,1,0,0:0:0:0:
48,192,21479,1,8,0:0:0:0:
256,72,22080,6,0,L|256:312,1,239.999990463257,0|8,0:0|0:0,0:0:0:0:
376,312,22981,1,0,0:0:0:0:
376,192,23281,2,0,L|136:192,1,239.999990463257,0|8,0:0|0:0,0:0:0:0:
136,72,24182,1,0,0:0:0:0:
256,72,24482,6,0,L|376:72,3,119.999995231629,0|2|8|2,0:0|0:0|0:0|0:0,0:0:0:0:
376,192,25683,2,0,L|376:312,3,119.999995231629,0|2|8|2,0:0|0:0|0:0|0:0,0:0:0:0:
256,312,26884,6,0,L|136:312,3,119.999995231629,0|2|8|2,0:0|0:0|0:0|0:0,0:0:0:0:
136,192,28085,2,0,L|136:72,3,119.999995231629,0|2|8|2,0:0|0:0|0:0|0:0,0:0:0:0:
256,72,29286,5,4,0:0:0:0:
488,3,29887,1,12,0:0:0:0:
396,80,30187,2,0,P|431:192|395:304,1,239.999990463257,2|0,0:0|0:0,0:0:0:0:
300,231,31088,1,12,0:0:0:0:
367,332,31388,2,0,P|255:367|143:331,1,239.999990463257,2|0,0:0|0:0,0:0:0:0:
212,231,32289,5,12,0:0:0:0:
116,304,32589,2,0,P|80:192|115:80,1,239.999990463257,2|0,0:0|0:0,0:0:0:0:
212,153,33490,1,10,0:0:0:0:
143,52,33790,2,0,P|255:16|367:51,1,239.999990463257,2|0,0:0|0:0,0:0:0:0:
300,153,34691,5,12,0:0:0:0:
420,156,34991,2,0,P|395:270|308:350,1,239.999990463257,2|0,0:0|0:0,0:0:0:0:
256,244,35892,1,12,0:0:0:0:
204,351,36192,2,0,P|117:271|92:156,1,239.999990463257,2|0,0:0|0:0,0:0:0:0:
212,152,37093,6,0,P|185:99|134:71,2,119.999995231629,12|2|0,0:0|0:0|0:0,0:0:0:0:
256,40,37994,1,0,0:0:0:0:
300,152,38294,2,0,P|326:99|377:71,2,119.999995231629,10|2|0,0:0|0:0|0:0,0:0:0:0:
486,304,39495,5,12,0:0:0:0:
376,352,39795,2,0,L|136:352,1,239.999990463257,2|0,0:0|0:0,0:0:0:0:
26,301,40696,1,12,0:0:0:0:
136,253,40996,2,0,L|376:253,1,239.999990463257,2|0,0:0|0:0,0:0:0:0:
486,204,41897,5,12,0:0:0:0:
376,156,42197,2,0,L|136:156,1,239.999990463257,2|0,0:0|0:0,0:0:0:0:
26,106,43098,1,10,0:0:0:0:
136,58,43398,2,0,L|376:58,1,239.999990463257,2|0,0:0|0:0,0:0:0:0:
486,106,44299,5,12,0:0:0:0:
461,224,44600,2,0,P|359:260|314:160,1,239.999990463257,2|0,0:0|0:0,0:0:0:0:
256,56,45500,1,12,0:0:0:0:
197,160,45801,2,0,P|152:260|50:224,1,239.999990463257,2|0,0:0|0:0,0:0:0:0:
26,106,46701,6,0,P|70:67|129:60,1,119.999995231629,12|2,0:0|0:0,0:0:0:0:
197,160,47302,1,0,0:0:0:0:
315,160,47602,1,0,0:0:0:0:
382,60,47902,2,0,P|441:67|486:106,1,119.999995231629,10|2,0:0|0:0,0:0:0:0:
400,192,48503,6,0,B|456:176|496:200|520:236|528:280|516:320|496:364|448:384|396:384|360:352|368:328|352:304|328:296|304:296|280:308|264:336|256:358|256:358|248:336|232:308|208:296|184:296|160:304|144:328|152:352|116:384|64:384|16:364|-4:320|-16:280|-8:236|16:200|56:176|112:192,1,959.999961853028,6|8,0:0|0:0,0:0:0:0:
256,192,52106,5,2,0:0:0:0:
256,192,53307,6,0,B|245:152|285:116|323:132|347:158|358:197|350:236|328:273|301:297|262:308|219:307|187:278|169:257|154:241|140:198|141:173|168:149|151:103|183:70|218:35|258:32|268:31|289:40|326:48|352:56|376:69|392:94|401:110|412:136|423:162|427:170|435:194|427:220|418:241|411:283|388:284|375:298|365:315|343:344|330:343|309:360|292:354|285:360|256:373|219:360|193:351|175:342|153:333|139:319|126:305|113:289|104:267|96:242|91:229|86:203|84:176|91:158|88:121|94:94|105:63|132:63|142:13|169:9|199:-6|224:-11|250:-21|272:-11|298:-14|311:-9|330:-4|358:1|375:11|393:18|423:42|436:62|451:72|452:88|460:115|472:139|477:168|478:193|478:210|473:232|462:241|457:259|454:282|442:304|424:325|412:338|387:359|373:368,1,1919.99992370606,8|8,0:0|0:0,0:0:0:0:
132,364,58712,5,8,0:0:0:0:
17,154,59313,1,8,0:0:0:0:
50,39,59613,1,0,0:0:0:0:
134,124,59913,1,8,0:0:0:0:
377,124,60514,5,8,0:0:0:0:
379,364,61114,1,8,0:0:0:0:
494,154,61715,1,8,0:0:0:0:
461,39,62015,1,0,0:0:0:0:
377,124,62315,1,8,0:0:0:0:
256,192,62915,12,4,67720,0:0:0:0:
256,312,76727,6,0,L|256:372,4,59.9999976158143,8|8|8|8|4,0:0|0:0|0:0|0:0|0:0,0:0:0:0:
48,192,77929,5,8,0:0:0:0:
256,72,78529,1,0,0:0:0:0:
464,192,79130,1,8,0:0:0:0:
256,72,79730,6,0,L|256:312,1,239.999990463257,0|8,0:0|0:0,0:0:0:0:
136,312,80631,1,0,0:0:0:0:
136,192,80931,2,0,L|376:192,1,239.999990463257,0|8,0:0|0:0,0:0:0:0:
376,72,81832,1,0,0:0:0:0:
256,72,82132,6,0,L|136:72,3,119.999995231629,0|2|8|2,0:0|0:0|0:0|0:0,0:0:0:0:
136,192,83333,2,0,L|136:312,3,119.999995231629,0|2|8|2,0:0|0:0|0:0|0:0,0:0:0:0:
256,312,84534,6,0,L|376:312,3,119.999995231629,0|2|8|2,0:0|0:0|0:0|0:0,0:0:0:0:
376,192,85735,2,0,L|376:72,3,119.999995231629,0|2|8|2,0:0|0:0|0:0|0:0,0:0:0:0:
256,72,86936,5,0,0:0:0:0:
464,192,87537,1,8,0:0:0:0:
256,312,88137,1,0,0:0:0:0:
48,192,88738,1,8,0:0:0:0:
256,312,89338,6,0,L|256:72,1,239.999990463257,0|8,0:0|0:0,0:0:0:0:
376,72,90239,1,0,0:0:0:0:
376,192,90540,2,0,L|136:192,1,239.999990463257,0|8,0:0|0:0,0:0:0:0:
136,312,91440,1,0,0:0:0:0:
256,312,91741,6,0,L|376:312,3,119.999995231629,0|2|8|2,0:0|0:0|0:0|0:0,0:0:0:0:
376,192,92942,2,0,L|376:72,3,119.999995231629,0|2|8|2,0:0|0:0|0:0|0:0,0:0:0:0:
256,72,94143,6,0,L|136:72,3,119.999995231629,0|2|8|2,0:0|0:0|0:0|0:0,0:0:0:0:
136,192,95344,2,0,L|136:312,3,119.999995231629,0|2|8|2,0:0|0:0|0:0|0:0,0:0:0:0:
256,312,96545,5,4,0:0:0:0:
488,381,97145,1,12,0:0:0:0:
396,304,97446,2,0,P|431:192|395:80,1,239.999990463257,2|0,0:0|0:0,0:0:0:0:
300,153,98346,1,12,0:0:0:0:
367,52,98647,2,0,P|255:17|143:53,1,239.999990463257,2|0,0:0|0:0,0:0:0:0:
212,153,99547,5,12,0:0:0:0:
116,80,99848,2,0,P|80:192|115:304,1,239.999990463257,2|0,0:0|0:0,0:0:0:0:
212,231,100748,1,10,0:0:0:0:
143,332,101049,2,0,P|255:368|367:333,1,239.999990463257,2|0,0:0|0:0,0:0:0:0:
300,231,101949,5,12,0:0:0:0:
420,228,102250,2,0,P|395:114|308:34,1,239.999990463257,2|0,0:0|0:0,0:0:0:0:
256,140,103150,1,12,0:0:0:0:
204,33,103451,2,0,P|117:113|92:228,1,239.999990463257,2|0,0:0|0:0,0:0:0:0:
212,232,104352,6,0,P|185:285|134:313,2,119.999995231629,12|2|0,0:0|0:0|0:0,0:0:0:0:
256,344,105252,1,0,0:0:0:0:
300,232,105553,2,0,P|326:285|377:313,2,119.999995231629,10|2|0,0:0|0:0|0:0,0:0:0:0:
486,80,106754,5,12,0:0:0:0:
376,32,107054,2,0,L|136:32,1,239.999990463257,2|0,0:0|0:0,0:0:0:0:
26,83,107955,1,12,0:0:0:0:
136,131,108255,2,0,L|376:131,1,239.999990463257,2|0,0:0|0:0,0:0:0:0:
486,180,109156,5,12,0:0:0:0:
376,228,109456,2,0,L|136:228,1,239.999990463257,2|0,0:0|0:0,0:0:0:0:
26,278,110357,1,10,0:0:0:0:
136,326,110657,2,0,L|376:326,1,239.999990463257,2|0,0:0|0:0,0:0:0:0:
486,278,111558,5,12,0:0:0:0:
461,160,111858,2,0,P|359:124|314:224,1,239.999990463257,2|0,0:0|0:0,0:0:0:0:
256,328,112759,1,12,0:0:0:0:
197,224,113059,2,0,P|152:124|50:160,1,239.999990463257,2|0,0:0|0:0,0:0:0:0:
26,278,113960,6,0,P|70:317|129:324,1,119.999995231629,12|2,0:0|0:0,0:0:0:0:
197,224,114560,1,0,0:0:0:0:
315,224,114861,1,0,0:0:0:0:
382,324,115161,2,0,P|441:317|486:278,1,119.999995231629,10|2,0:0|0:0,0:0:0:0:
400,192,115761,6,0,B|456:208|496:184|520:148|528:104|516:64|496:20|448:0|396:0|360:32|368:56|352:80|328:88|304:88|280:76|264:48|256:26|256:26|248:48|232:76|208:88|184:88|160:80|144:56|152:32|116:0|64:0|16:20|-4:64|-16:104|-8:148|16:184|56:208|112:192,1,959.999961853028,6|8,0:0|0:0,0:0:0:0:
256,192,119365,5,2,0:0:0:0:
256,192,120566,6,0,B|245:232|285:268|323:252|347:226|358:187|350:148|328:111|301:87|262:76|219:77|187:106|169:127|154:143|140:186|141:211|168:235|151:281|183:314|218:349|258:352|268:353|289:344|326:336|352:328|376:315|392:290|401:274|412:248|423:222|427:214|435:190|427:164|418:143|411:101|388:100|375:86|365:69|343:40|330:41|309:24|292:30|285:24|256:11|219:24|193:33|175:42|153:51|139:65|126:79|113:95|104:117|96:142|91:155|86:181|84:208|91:226|88:263|94:290|105:321|132:321|142:371|169:375|199:390|224:395|250:405|272:395|298:398|311:393|330:388|358:383|375:373|393:366|423:342|436:322|451:312|452:296|460:269|472:245|477:216|478:191|478:174|473:152|462:143|457:125|454:102|442:80|424:59|412:46|387:25|373:16,1,1919.99992370606,8|8,0:0|0:0,0:0:0:0:
132,19,125970,5,8,0:0:0:0:
17,229,126571,1,8,0:0:0:0:
50,344,126871,1,0,0:0:0:0:
134,259,127171,1,8,0:0:0:0:
377,259,127772,5,8,0:0:0:0:
379,19,128372,1,8,0:0:0:0:
494,229,128973,1,8,0:0:0:0:
461,344,129273,1,0,0:0:0:0:
377,259,129573,1,8,0:0:0:0:
256,192,130174,12,4,134978,0:0:0:0:
