osu file format v14

[General]
AudioFilename: audio.mp3
AudioLeadIn: 0
PreviewTime: 10069
Countdown: 0
SampleSet: Normal
StackLeniency: 0.5
Mode: 0
LetterboxInBreaks: 0
EpilepsyWarning: 1
WidescreenStoryboard: 1

[Editor]
Bookmarks: 10069,19678,29287,38895,48504,58113,67721,77330,86939,96547,106156,115765,125373,134982
DistanceSpacing: 1
BeatDivisor: 4
GridSize: 4
TimelineZoom: 1

[Metadata]
Title:Bad Karma
TitleUnicode:Bad Karma
Artist:Triodust & KuensanP
ArtistUnicode:空氣載體 & クエン酸P
Creator:Diasios
Version:Hard
Source:家有大貓
Tags:Nekojishi 3R2 soundtrack ost orange juice dog visual novel clouded leopard likulau kulau yaoi gay furry xxheroxx
BeatmapID:1620095
BeatmapSetID:770084

[Difficulty]
HPDrainRate:6
CircleSize:5
OverallDifficulty:6
ApproachRate:7
SliderMultiplier:2.99999990463257
SliderTickRate:4

[Events]
//Background and Video events
0,0,"bg.jpg",0,0
//Break Periods
2,67920,74026
//Storyboard Layer 0 (Background)
//Storyboard Layer 1 (Fail)
//Storyboard Layer 2 (Pass)
//Storyboard Layer 3 (Foreground)
//Storyboard Sound Samples

[TimingPoints]
461,600.522454535446,4,1,1,55,1,0
9168,-100,4,1,1,5,0,0
9318,-100,4,1,1,55,0,0
29286,-100,4,1,0,55,0,1
29436,-100,4,1,2,55,0,1
31238,-100,4,1,3,55,0,1
31538,-100,4,1,2,55,0,1
36042,-100,4,1,3,55,0,1
36342,-100,4,1,2,55,0,1
40846,-100,4,1,3,55,0,1
41147,-100,4,1,2,55,0,1
45650,-100,4,1,3,55,0,1
45951,-100,4,1,2,55,0,1
48352,-100,4,1,4,55,0,0
48502,-100,4,1,4,55,0,1
48652,-100,4,1,4,55,0,0
51956,-100,4,1,5,55,0,0
57661,-100,4,1,2,55,0,0
57961,-100,4,1,1,55,0,0
58562,-100,4,1,2,55,0,0
59162,-100,4,1,1,55,0,0
59462,-100,4,1,2,55,0,0
60363,-100,4,1,1,55,0,0
60664,-100,4,1,2,55,0,0
61564,-100,4,1,1,55,0,0
61865,-100,4,1,2,55,0,0
62765,-100,4,1,1,55,0,0
67570,-100,4,1,1,55,0,0
76427,-100,4,1,1,5,0,0
76577,-100,4,1,1,55,0,0
96544,-100,4,1,0,55,0,1
96695,-100,4,1,2,55,0,1
98496,-100,4,1,3,55,0,1
98797,-100,4,1,2,55,0,1
103301,-100,4,1,3,55,0,1
103601,-100,4,1,2,55,0,1
108105,-100,4,1,3,55,0,1
108405,-100,4,1,2,55,0,1
112909,-100,4,1,3,55,0,1
113209,-100,4,1,2,55,0,1
115611,-100,4,1,4,55,0,0
115761,-100,4,1,4,55,0,1
115911,-100,4,1,4,55,0,0
119214,-100,4,1,5,55,0,0
124919,-100,4,1,2,55,0,0
125220,-100,4,1,1,55,0,0
125520,-100,4,1,2,55,0,0
126421,-100,4,1,1,55,0,0
126721,-100,4,1,2,55,0,0
127622,-100,4,1,1,55,0,0
127922,-100,4,1,2,55,0,0
128823,-100,4,1,1,55,0,0
129123,-100,4,1,2,55,0,0
130024,-100,4,1,1,55,0,0
134828,-100,4,1,1,55,0,0

[Colours]
Combo1 : 136,204,255
Combo2 : 0,104,181
Combo3 : 133,96,46
Combo4 : 132,132,132

[HitObjects]
256,192,7667,12,0,9168,0:0:0:0:
225,190,9468,6,0,P|194:170|157:170,1,74.9999976158143,8|8,0:0|0:0,0:0:0:0:
92,210,9769,2,0,P|72:240|72:277,1,74.9999976158143,8|8,0:0|0:0,0:0:0:0:
114,340,10069,6,0,P|188:350|255:317,1,149.999995231629,4|0,0:0|0:0,0:0:0:0:
405,331,10670,2,0,P|413:257|381:190,1,149.999995231629,2|0,0:0|0:0,0:0:0:0:
395,40,11271,2,0,P|321:31|254:64,1,149.999995231629
105,50,11871,2,0,P|93:121|125:188,1,149.999995231629,2|0,0:0|0:0,0:0:0:0:
105,50,12472,6,0,P|176:68|227:122,1,149.999995231629
256,192,12922,1,0,0:0:0:0:
283,261,13072,2,0,P|334:315|406:333,1,149.999995231629,2|0,0:0|0:0,0:0:0:0:
439,97,13673,2,0,P|365:96|301:133,1,149.999995231629
256,192,14123,1,0,0:0:0:0:
209,250,14273,2,0,P|145:287|72:286,1,149.999995231629,2|0,0:0|0:0,0:0:0:0:
84,68,14874,6,0,L|106:140,2,74.9999976158143,0|0|8,0:0|0:0|0:0,0:0:0:0:
53,231,15474,2,0,L|125:210,2,74.9999976158143,2|0|8,0:0|0:0|0:0,0:0:0:0:
217,264,16075,2,0,L|195:190,2,74.9999976158143,0|0|8,0:0|0:0|0:0,0:0:0:0:
250,100,16675,2,0,L|176:121,2,74.9999976158143,2|0|8,0:0|0:0|0:0,0:0:0:0:
53,231,17276,6,0,L|125:210,2,74.9999976158143,0|0|8,0:0|0:0|0:0,0:0:0:0:
164,377,17876,2,0,L|191:307,2,74.9999976158143,2|0|8,0:0|0:0|0:0,0:0:0:0:
347,377,18477,2,0,L|320:307,2,74.9999976158143,0|0|8,0:0|0:0|0:0,0:0:0:0:
459,231,19077,2,0,L|387:210,2,74.9999976158143,2|0|8,0:0|0:0|0:0,0:0:0:0:
398,44,19678,6,0,P|324:34|257:67,1,149.999995231629
107,53,20278,2,0,P|99:127|131:194,1,149.999995231629,2|0,0:0|0:0,0:0:0:0:
117,344,20879,2,0,P|191:353|258:320,1,149.999995231629
407,334,21479,2,0,P|413:257|381:190,1,149.999995231629,2|0,0:0|0:0,0:0:0:0:
407,334,22080,6,0,P|336:316|285:262,1,149.999995231629
256,192,22530,1,0,0:0:0:0:
229,123,22680,2,0,P|178:69|106:51,1,149.999995231629,2|0,0:0|0:0,0:0:0:0:
73,287,23281,2,0,P|147:288|211:251,1,149.999995231629
256,192,23731,1,0,0:0:0:0:
303,134,23882,2,0,P|367:97|440:98,1,149.999995231629,2|0,0:0|0:0,0:0:0:0:
427,315,24482,6,0,L|406:244,2,74.9999976158143,0|0|8,0:0|0:0|0:0,0:0:0:0:
459,153,25083,2,0,L|387:174,2,74.9999976158143,2|0|8,0:0|0:0|0:0,0:0:0:0:
295,120,25683,2,0,L|317:194,2,74.9999976158143,0|0|8,0:0|0:0|0:0,0:0:0:0:
262,284,26284,2,0,L|336:263,2,74.9999976158143,2|0|8,0:0|0:0|0:0,0:0:0:0:
459,153,26884,6,0,L|387:174,2,74.9999976158143,0|0|8,0:0|0:0|0:0,0:0:0:0:
347,6,27485,2,0,L|320:76,2,74.9999976158143,2|0|8,0:0|0:0|0:0,0:0:0:0:
164,6,28085,2,0,L|191:76,2,74.9999976158143,0|0|8,0:0|0:0|0:0,0:0:0:0:
53,153,28686,2,0,L|125:174,2,74.9999976158143,2|0|8,0:0|0:0|0:0,0:0:0:0:
114,340,29286,6,0,P|188:350|255:317,1,149.999995231629,4|0,0:0|0:0,0:0:0:0:
275,169,29887,1,12,0:0:0:0:
306,237,30037,1,0,0:0:0:0:
350,176,30187,2,0,P|424:166|491:199,1,149.999995231629,2|0,0:0|0:0,0:0:0:0:
399,316,30788,1,0,0:0:0:0:
350,176,31088,1,12,0:0:0:0:
306,237,31238,1,0,0:0:0:0:
275,169,31388,2,0,P|229:109|224:35,1,149.999995231629,2|0,0:0|0:0,0:0:0:0:
371,56,31989,5,0,0:0:0:0:
275,169,32289,1,12,0:0:0:0:
350,176,32439,1,0,0:0:0:0:
306,237,32589,2,0,P|277:306|215:347,1,149.999995231629,2|0,0:0|0:0,0:0:0:0:
160,209,33190,1,0,0:0:0:0:
67,327,33490,2,0,L|-3:356,2,74.9999976158143,10|0|2,0:0|0:0|0:0,0:0:0:0:
216,346,34090,5,0,0:0:0:0:
67,327,34391,1,0,0:0:0:0:
160,209,34691,2,0,L|171:133,1,74.9999976158143,12|0,0:0|0:0,0:0:0:0:
101,162,34991,2,0,B|112:87|112:87|51:43,1,149.999995231629,2|0,0:0|0:0,0:0:0:0:
32,192,35592,1,0,0:0:0:0:
170,134,35892,2,0,L|160:209,1,74.9999976158143,12|0,0:0|0:0,0:0:0:0:
229,181,36192,2,0,B|217:255|217:255|278:299,1,149.999995231629,2|0,0:0|0:0,0:0:0:0:
324,239,36643,5,0,0:0:0:0:
398,225,36793,2,0,P|421:196|425:159,1,74.9999976158143
373,104,37093,2,0,P|365:68|340:41,1,74.9999976158143,12|0,0:0|0:0,0:0:0:0:
264,45,37393,2,0,P|231:28|194:30,1,74.9999976158143,2|0,0:0|0:0,0:0:0:0:
149,91,37694,2,0,P|115:105|92:135,1,74.9999976158143
110,209,37994,2,0,P|99:244|107:280,1,74.9999976158143
175,314,38294,2,0,P|195:345|228:362,1,74.9999976158143,10|0,0:0|0:0,0:0:0:0:
298,332,38594,2,0,P|334:337|368:322,2,74.9999976158143,2|0|0,0:0|0:0|0:0,0:0:0:0:
200,217,39195,5,0,0:0:0:0:
150,359,39495,1,12,0:0:0:0:
175,288,39645,1,0,0:0:0:0:
200,217,39795,2,0,P|259:169|333:163,1,149.999995231629,2|0,0:0|0:0,0:0:0:0:
316,312,40396,1,0,0:0:0:0:
452,250,40696,1,12,0:0:0:0:
419,181,40846,1,0,0:0:0:0:
386,113,40996,2,0,P|322:71|248:73,1,149.999995231629,2|0,0:0|0:0,0:0:0:0:
174,201,41597,5,0,0:0:0:0:
76,86,41897,2,0,L|143:55,2,74.9999976158143,12|0|2,0:0|0:0|0:0,0:0:0:0:
174,201,42498,1,0,0:0:0:0:
27,172,42798,1,0,0:0:0:0:
125,287,43098,2,0,L|58:318,2,74.9999976158143,10|0|2,0:0|0:0|0:0,0:0:0:0:
261,224,43699,5,0,0:0:0:0:
125,287,43999,1,0,0:0:0:0:
248,373,44299,1,12,0:0:0:0:
187,329,44449,1,0,0:0:0:0:
255,299,44600,2,0,B|307:283|334:361|390:348,1,149.999995231629,2|0,0:0|0:0,0:0:0:0:
508,256,45200,1,0,0:0:0:0:
369,199,45500,2,0,L|442:180,1,74.9999976158143,12|0,0:0|0:0,0:0:0:0:
389,125,45801,2,0,B|462:108|462:108|480:35,1,149.999995231629,2|0,0:0|0:0,0:0:0:0:
406,51,46251,5,0,0:0:0:0:
332,67,46401,2,0,P|311:36|277:20,1,74.9999976158143
209,53,46701,2,0,P|172:49|138:65,1,74.9999976158143,12|0,0:0|0:0,0:0:0:0:
119,138,47002,2,0,P|92:164|83:200,1,74.9999976158143,2|0,0:0|0:0,0:0:0:0:
127,262,47302,2,0,P|130:299|151:329,1,74.9999976158143
227,335,47602,2,0,P|257:357|294:360,1,74.9999976158143
347,306,47902,2,0,P|383:297|409:271,1,74.9999976158143,10|0,0:0|0:0,0:0:0:0:
402,195,48203,2,0,P|418:162|415:125,1,74.9999976158143,2|0,0:0|0:0,0:0:0:0:
430,49,48503,6,0,B|400:16|400:16|320:4|320:4|287:22|287:22|288:64|288:64|368:76|368:76|356:132|288:128|288:128|288:229|288:229|224:229|224:229|224:128|224:128|156:132|144:76|144:76|224:64|224:64|225:22|225:22|192:4|192:4|112:16|112:16|82:49,1,1049.9999666214,6|0,0:0|0:0,0:0:0:0:
20,186,50905,6,0,B|116:218|132:322|102:365|45:377|-11:322|-1:265|40:233|145:246|181:341,1,449.999985694885,8|0,0:0|0:0,0:0:0:0:
330,341,52106,2,0,B|366:246|471:233|513:265|523:322|466:377|409:365|379:322|395:218|492:186,1,449.999985694885,2|0,0:0|0:0,0:0:0:0:
490,37,53307,6,0,B|426:23|426:23|428:80|428:80|380:100|380:100|288:73|288:73|288:160|288:160|380:189|380:189|452:160|452:160|460:240|460:240|420:276|420:276|420:332|420:332|384:364|384:364|288:364|288:364|288:308|288:308|352:280|352:280|352:248|352:248|256:216|256:216|160:248|160:248|160:280|160:280|224:308|224:308|224:364|224:364|128:364|128:364|92:332|92:332|92:276|92:276|52:240|52:240|60:160|60:160|132:189|132:189|224:160|224:160|224:73|224:73|132:100|132:100|84:80|84:80|86:23|86:23|22:37,1,2249.99992847443,8|2,0:0|0:0,0:0:0:0:
12,192,58111,5,8,0:0:0:0:
136,276,58412,2,0,L|82:329,2,74.9999976158143,0|0|8,0:0|0:0|0:0,0:0:0:0:
256,368,59012,2,0,L|256:292,2,74.9999976158143,2|0|8,0:0|0:0|0:0,0:0:0:0:
376,276,59613,2,0,L|429:329,2,74.9999976158143,0|0|8,0:0|0:0|0:0,0:0:0:0:
500,192,60213,1,2,0:0:0:0:
468,124,60363,1,0,0:0:0:0:
436,56,60513,6,0,P|372:16|298:18,1,149.999995231629,8|0,0:0|0:0,0:0:0:0:
256,80,60964,1,0,0:0:0:0:
212,17,61114,2,0,P|138:16|76:56,1,149.999995231629,8|2,0:0|0:0,0:0:0:0:
44,124,61564,1,0,0:0:0:0:
12,192,61714,1,8,0:0:0:0:
175,192,62015,2,0,L|143:259,2,74.9999976158143,0|0|8,0:0|0:0|0:0,0:0:0:0:
337,192,62615,2,0,L|368:259,2,74.9999976158143,2|0|8,0:0|0:0|0:0,0:0:0:0:
256,192,63066,12,4,67720,0:0:0:0:
256,192,74926,12,0,76427,0:0:0:0:
226,197,76727,6,0,B|195:217|195:217|157:216,1,74.9999976158143,8|8,0:0|0:0,0:0:0:0:
93,176,77028,2,0,B|72:145|72:145|73:107,1,74.9999976158143,8|8,0:0|0:0,0:0:0:0:
114,44,77328,6,0,B|188:34|188:34|255:67,1,149.999995231629,4|0,0:0|0:0,0:0:0:0:
405,53,77928,2,0,B|415:127|415:127|382:194,1,149.999995231629,2|0,0:0|0:0,0:0:0:0:
395,344,78528,2,0,B|321:354|321:354|254:321,1,149.999995231629
105,334,79129,2,0,B|95:260|95:260|128:193,1,149.999995231629,2|0,0:0|0:0,0:0:0:0:
105,334,79729,6,0,B|177:317|177:317|229:263,1,149.999995231629
256,192,80180,1,0,0:0:0:0:
282,120,80330,2,0,B|334:66|334:66|407:50,1,149.999995231629,2|0,0:0|0:0,0:0:0:0:
439,287,80931,2,0,B|364:291|364:291|300:253,1,149.999995231629
256,192,81382,1,0,0:0:0:0:
211,130,81531,2,0,B|147:92|147:92|73:97,1,149.999995231629,2|0,0:0|0:0,0:0:0:0:
84,316,82132,6,0,L|106:244,2,74.9999976158143,0|0|8,0:0|0:0|0:0,0:0:0:0:
53,153,82733,2,0,L|125:174,2,74.9999976158143,2|0|8,0:0|0:0|0:0,0:0:0:0:
217,120,83333,2,0,L|195:194,2,74.9999976158143,0|0|8,0:0|0:0|0:0,0:0:0:0:
250,284,83934,2,0,L|176:263,2,74.9999976158143,2|0|8,0:0|0:0|0:0,0:0:0:0:
53,153,84534,6,0,L|125:174,2,74.9999976158143,0|0|8,0:0|0:0|0:0,0:0:0:0:
164,7,85135,2,0,L|191:77,2,74.9999976158143,2|0|8,0:0|0:0|0:0,0:0:0:0:
347,7,85735,2,0,L|320:77,2,74.9999976158143,0|0|8,0:0|0:0|0:0,0:0:0:0:
459,153,86336,2,0,L|387:174,2,74.9999976158143,2|0|8,0:0|0:0|0:0,0:0:0:0:
398,340,86936,6,0,B|324:350|324:350|257:317,1,149.999995231629
107,331,87536,2,0,B|97:257|97:257|130:190,1,149.999995231629,2|0,0:0|0:0,0:0:0:0:
117,40,88136,2,0,B|191:30|191:30|258:63,1,149.999995231629
407,50,88737,2,0,B|417:124|417:124|384:191,1,149.999995231629,2|0,0:0|0:0,0:0:0:0:
407,50,89337,6,0,B|334:66|334:66|282:120,1,149.999995231629
256,192,89788,1,0,0:0:0:0:
229,263,89938,2,0,B|177:317|177:317|105:334,1,149.999995231629,2|0,0:0|0:0,0:0:0:0:
73,97,90539,2,0,B|147:92|147:92|211:130,1,149.999995231629
256,192,90990,1,0,0:0:0:0:
300,253,91139,2,0,B|364:291|364:291|439:287,1,149.999995231629,2|0,0:0|0:0,0:0:0:0:
427,69,91741,6,0,L|406:140,2,74.9999976158143,0|0|8,0:0|0:0|0:0,0:0:0:0:
459,231,92341,2,0,L|387:210,2,74.9999976158143,2|0|8,0:0|0:0|0:0,0:0:0:0:
295,264,92942,2,0,L|317:190,2,74.9999976158143,0|0|8,0:0|0:0|0:0,0:0:0:0:
262,100,93542,2,0,L|336:121,2,74.9999976158143,2|0|8,0:0|0:0|0:0,0:0:0:0:
459,231,94143,6,0,L|387:210,2,74.9999976158143,0|0|8,0:0|0:0|0:0,0:0:0:0:
347,378,94743,2,0,L|320:308,2,74.9999976158143,2|0|8,0:0|0:0|0:0,0:0:0:0:
164,378,95344,2,0,L|191:308,2,74.9999976158143,0|0|8,0:0|0:0|0:0,0:0:0:0:
53,231,95944,2,0,L|125:210,2,74.9999976158143,2|0|8,0:0|0:0|0:0,0:0:0:0:
114,44,96545,6,0,P|188:34|255:67,1,149.999995231629,4|0,0:0|0:0,0:0:0:0:
275,215,97146,1,12,0:0:0:0:
306,147,97296,1,0,0:0:0:0:
350,208,97446,2,0,P|424:218|491:185,1,149.999995231629,2|0,0:0|0:0,0:0:0:0:
399,68,98045,1,0,0:0:0:0:
350,208,98347,1,12,0:0:0:0:
306,147,98497,1,0,0:0:0:0:
275,215,98647,2,0,P|229:275|224:349,1,149.999995231629,2|0,0:0|0:0,0:0:0:0:
371,328,99246,5,0,0:0:0:0:
275,215,99548,1,12,0:0:0:0:
350,208,99698,1,0,0:0:0:0:
306,147,99848,2,0,P|277:78|215:37,1,149.999995231629,2|0,0:0|0:0,0:0:0:0:
160,175,100448,1,0,0:0:0:0:
67,57,100748,2,0,L|-3:28,2,74.9999976158143,10|0|2,0:0|0:0|0:0,0:0:0:0:
216,38,101349,5,0,0:0:0:0:
67,57,101649,1,0,0:0:0:0:
160,175,101949,2,0,L|171:251,1,74.9999976158143,12|0,0:0|0:0,0:0:0:0:
101,222,102250,2,0,B|112:297|112:297|51:341,1,149.999995231629,2|0,0:0|0:0,0:0:0:0:
32,192,102850,1,0,0:0:0:0:
170,250,103150,2,0,L|160:175,1,74.9999976158143,12|0,0:0|0:0,0:0:0:0:
229,203,103451,2,0,B|217:129|217:129|278:85,1,149.999995231629,2|0,0:0|0:0,0:0:0:0:
324,145,103901,5,0,0:0:0:0:
398,159,104051,2,0,P|421:188|425:225,1,74.9999976158143
373,280,104352,2,0,P|365:316|340:343,1,74.9999976158143,12|0,0:0|0:0,0:0:0:0:
264,339,104652,2,0,P|231:356|194:354,1,74.9999976158143,2|0,0:0|0:0,0:0:0:0:
149,293,104952,2,0,P|115:279|92:249,1,74.9999976158143
110,175,105252,2,0,P|99:140|107:104,1,74.9999976158143
175,70,105553,2,0,P|195:39|228:22,1,74.9999976158143,10|0,0:0|0:0,0:0:0:0:
298,52,105853,2,0,P|334:47|368:62,2,74.9999976158143,2|0|0,0:0|0:0|0:0,0:0:0:0:
216,175,106453,5,0,0:0:0:0:
166,33,106754,1,12,0:0:0:0:
191,104,106904,1,0,0:0:0:0:
216,175,107054,2,0,P|275:223|349:229,1,149.999995231629,2|0,0:0|0:0,0:0:0:0:
331,79,107654,1,0,0:0:0:0:
477,137,107955,1,12,0:0:0:0:
452,208,108105,1,0,0:0:0:0:
427,279,108255,2,0,P|367:327|293:333,1,149.999995231629,2|0,0:0|0:0,0:0:0:0:
174,183,108855,5,0,0:0:0:0:
76,298,109155,2,0,L|143:329,2,74.9999976158143,12|0|2,0:0|0:0|0:0,0:0:0:0:
174,183,109756,1,0,0:0:0:0:
27,212,110056,1,0,0:0:0:0:
125,97,110356,2,0,L|58:66,2,74.9999976158143,10|0|2,0:0|0:0|0:0,0:0:0:0:
261,160,110957,5,0,0:0:0:0:
125,97,111258,1,0,0:0:0:0:
248,11,111558,1,12,0:0:0:0:
187,55,111708,1,0,0:0:0:0:
255,85,111858,2,0,B|307:101|334:23|390:36,1,149.999995231629,2|0,0:0|0:0,0:0:0:0:
508,128,112459,1,0,0:0:0:0:
369,185,112759,2,0,L|442:204,1,74.9999976158143,12|0,0:0|0:0,0:0:0:0:
389,259,113059,2,0,B|462:276|462:276|480:349,1,149.999995231629,2|0,0:0|0:0,0:0:0:0:
406,333,113509,5,0,0:0:0:0:
332,317,113660,2,0,P|311:348|277:364,1,74.9999976158143
209,331,113960,2,0,P|172:335|138:319,1,74.9999976158143,12|0,0:0|0:0,0:0:0:0:
119,246,114260,2,0,P|92:220|83:184,1,74.9999976158143,2|0,0:0|0:0,0:0:0:0:
127,122,114560,2,0,P|130:85|151:55,1,74.9999976158143
227,49,114861,2,0,P|257:27|294:24,1,74.9999976158143
347,78,115161,2,0,P|383:87|409:113,1,74.9999976158143,10|0,0:0|0:0,0:0:0:0:
402,189,115461,2,0,P|418:222|415:259,1,74.9999976158143,2|0,0:0|0:0,0:0:0:0:
430,335,115761,6,0,B|400:368|400:368|320:380|320:380|287:362|287:362|288:320|288:320|368:308|368:308|356:252|288:256|288:256|288:155|288:155|224:155|224:155|224:256|224:256|156:252|144:308|144:308|224:320|224:320|225:362|225:362|192:380|192:380|112:368|112:368|82:335,1,1049.9999666214,6|0,0:0|0:0,0:0:0:0:
20,198,118164,6,0,B|116:165|132:61|102:18|45:6|-11:61|-1:118|40:150|145:137|181:42,1,449.999985694885,8|0,0:0|0:0,0:0:0:0:
330,42,119365,2,0,B|366:137|471:150|513:118|523:61|466:6|409:18|379:61|395:165|492:198,1,449.999985694885,2|0,0:0|0:0,0:0:0:0:
490,347,120566,6,0,B|426:361|426:361|428:304|428:304|379:284|379:284|288:311|288:311|288:224|288:224|344:208|344:208|393:215|393:215|436:180|436:180|448:104|448:104|428:68|428:68|444:12|444:12|344:16|344:16|288:36|288:36|288:72|288:72|364:84|364:84|356:136|356:136|288:156|288:156|224:156|224:156|156:136|156:136|148:84|148:84|224:72|224:72|224:36|224:36|168:16|168:16|68:12|68:12|84:68|84:68|64:104|64:104|76:180|76:180|119:215|119:215|168:208|168:208|224:224|224:224|224:311|224:311|133:284|133:284|84:304|84:304|86:361|86:361|22:347,1,2249.99992847443,8|2,0:0|0:0,0:0:0:0:
12,192,125370,5,8,0:0:0:0:
136,108,125670,2,0,L|82:55,2,74.9999976158143,0|0|8,0:0|0:0|0:0,0:0:0:0:
256,16,126271,2,0,L|256:92,2,74.9999976158143,2|0|8,0:0|0:0|0:0,0:0:0:0:
376,108,126871,2,0,L|429:55,2,74.9999976158143,0|0|8,0:0|0:0|0:0,0:0:0:0:
500,192,127472,1,2,0:0:0:0:
468,260,127622,1,0,0:0:0:0:
436,328,127772,6,0,B|372:368|372:368|298:366,1,149.999995231629,8|0,0:0|0:0,0:0:0:0:
256,304,128222,1,0,0:0:0:0:
214,366,128372,2,0,B|140:368|140:368|76:328,1,149.999995231629,8|2,0:0|0:0,0:0:0:0:
44,260,128823,1,0,0:0:0:0:
12,192,128973,1,8,0:0:0:0:
175,192,129273,2,0,L|143:125,2,74.9999976158143,0|0|8,0:0|0:0|0:0,0:0:0:0:
337,192,129874,2,0,L|368:125,2,74.9999976158143,2|0|8,0:0|0:0|0:0,0:0:0:0:
256,192,130324,12,4,134978,0:0:0:0:
