osu file format v14

[General]
AudioFilename: audio.mp3
AudioLeadIn: 0
PreviewTime: 84692
Countdown: 0
SampleSet: Soft
StackLeniency: 0.7
Mode: 3
LetterboxInBreaks: 0
SpecialStyle: 0
WidescreenStoryboard: 1

[Editor]
Bookmarks: 8810,22486,22927,33515,42339,70133,70574,77633,84692,98809,104104,109398,112927,116457,123515,130574,137633,144692
DistanceSpacing: 1.3
BeatDivisor: 4
GridSize: 8
TimelineZoom: 1.3

[Metadata]
Title:Floating Garden
TitleUnicode:Floating Garden
Artist:TrioStaR x Lilyca*
ArtistUnicode:TrioStaR x Lilyca*
Creator:Kawawa
Version:Brilliance
Source:
Tags:Euphoric Trance Mentalstock BMS BOF 2012 Murumoo Remuring Wonki
BeatmapID:2217170
BeatmapSetID:1058621

[Difficulty]
HPDrainRate:8.5
CircleSize:7
OverallDifficulty:8.3
ApproachRate:5
SliderMultiplier:1.4
SliderTickRate:1

[Events]
//Background and Video events
0,0,"asdasd.jpg",0,0
//Break Periods
2,33715,40918
//Storyboard Layer 0 (Background)
//Storyboard Layer 1 (Fail)
//Storyboard Layer 2 (Pass)
//Storyboard Layer 3 (Foreground)
//Storyboard Layer 4 (Overlay)
//Storyboard Sound Samples

[TimingPoints]
8810,441.176470588235,4,2,1,35,1,0
22486,-100,4,2,1,35,0,1
22927,-100,4,2,1,35,0,0
70133,-100,4,2,1,35,0,1
70464,-100,4,2,1,35,0,0
109398,-100,4,2,1,35,0,1
112927,-100,4,2,1,35,0,0
116457,-100,4,2,1,35,0,1
130464,-100,4,2,1,35,0,0
130574,-100,4,2,1,35,0,1
144692,-100,4,2,1,35,0,0

[HitObjects]
475,192,8368,128,0,8479:0:0:0:70:Clap-2.wav
329,192,8368,128,0,8479:0:0:0:0:
182,192,8589,1,0,0:0:0:0:
256,192,8644,1,0,0:0:0:0:
329,192,8699,1,0,0:0:0:0:
402,192,8754,1,0,0:0:0:0:
475,192,8810,1,0,0:0:0:70:CrashL.wav
36,192,8810,1,0,0:0:0:70:KicK.wav
182,192,8810,1,0,0:0:0:0:
256,192,8920,1,0,0:0:0:0:
329,192,8920,1,0,0:0:0:0:
109,192,9030,1,0,0:0:0:0:
475,192,9030,1,0,0:0:0:0:
256,192,9140,1,0,0:0:0:0:
329,192,9140,1,0,0:0:0:0:
36,192,9251,1,0,0:0:0:70:KicK.wav
182,192,9251,1,0,0:0:0:0:
475,192,9251,1,0,0:0:0:0:
329,192,9361,128,0,9471:0:0:0:0:
256,192,9416,128,0,9526:0:0:0:0:
182,192,9471,128,0,9582:0:0:0:0:
109,192,9526,128,0,9637:0:0:0:0:
329,192,9582,1,0,0:0:0:0:
402,192,9637,1,0,0:0:0:0:
256,192,9692,1,0,0:0:0:70:KicK.wav
36,192,9692,1,0,0:0:0:0:
475,192,9692,1,0,0:0:0:0:
182,192,9802,1,0,0:0:0:0:
109,192,9802,1,0,0:0:0:0:
329,192,9912,1,0,0:0:0:0:
402,192,9912,1,0,0:0:0:0:
109,192,10023,1,0,0:0:0:0:
182,192,10023,1,0,0:0:0:0:
256,192,10133,1,0,0:0:0:70:KicK.wav
36,192,10133,1,0,0:0:0:0:
475,192,10133,1,0,0:0:0:0:
475,192,10243,1,0,0:0:0:0:
182,192,10354,1,0,0:0:0:0:
329,192,10354,1,0,0:0:0:0:
182,192,10464,1,0,0:0:0:0:
402,192,10574,1,0,0:0:0:70:KicK.wav
256,192,10574,1,0,0:0:0:0:
36,192,10574,1,0,0:0:0:0:
475,192,10684,1,0,0:0:0:0:
109,192,10684,1,0,0:0:0:0:
36,192,10795,1,0,0:0:0:0:
329,192,10795,1,0,0:0:0:0:
109,192,10905,1,0,0:0:0:0:
475,192,10905,1,0,0:0:0:0:
36,192,11015,1,0,0:0:0:70:KicK.wav
402,192,11015,1,0,0:0:0:0:
256,192,11015,1,0,0:0:0:0:
182,192,11126,128,0,11181:0:0:0:0:
329,192,11181,128,0,11236:0:0:0:0:
109,192,11236,128,0,11291:0:0:0:0:
256,192,11291,128,0,11346:0:0:0:0:
402,192,11346,128,0,11401:0:0:0:0:
36,192,11457,1,0,0:0:0:70:KicK.wav
182,192,11457,1,0,0:0:0:0:
329,192,11457,1,0,0:0:0:0:
256,192,11567,1,0,0:0:0:0:
475,192,11567,1,0,0:0:0:0:
109,192,11677,1,0,0:0:0:0:
402,192,11677,1,0,0:0:0:0:
475,192,11787,1,0,0:0:0:0:
256,192,11787,1,0,0:0:0:0:
182,192,11898,1,0,0:0:0:70:KicK.wav
329,192,11898,1,0,0:0:0:0:
36,192,11898,1,0,0:0:0:0:
475,192,12008,128,0,12118:0:0:0:0:
329,192,12063,128,0,12173:0:0:0:0:
182,192,12118,128,0,12229:0:0:0:0:
36,192,12173,128,0,12284:0:0:0:0:
402,192,12229,1,0,0:0:0:0:
329,192,12284,1,0,0:0:0:0:
256,192,12339,1,0,0:0:0:70:KicK.wav
109,192,12339,1,0,0:0:0:0:
475,192,12339,1,0,0:0:0:0:
36,192,12449,1,0,0:0:0:0:
402,192,12449,1,0,0:0:0:0:
109,192,12559,1,0,0:0:0:0:
256,192,12559,1,0,0:0:0:0:
475,192,12559,1,0,0:0:0:0:
36,192,12670,1,0,0:0:0:0:
402,192,12670,1,0,0:0:0:0:
256,192,12780,1,0,0:0:0:70:KicK.wav
109,192,12780,1,0,0:0:0:0:
475,192,12780,1,0,0:0:0:0:
329,192,12890,128,0,12946:0:0:0:0:
182,192,13001,128,0,13056:0:0:0:0:
329,192,13111,128,0,13221:0:0:0:0:
256,192,13221,1,0,0:0:0:70:KicK.wav
109,192,13221,1,0,0:0:0:0:
475,192,13221,1,0,0:0:0:0:
402,192,13332,1,0,0:0:0:0:
36,192,13332,1,0,0:0:0:0:
182,192,13442,1,0,0:0:0:0:
329,192,13442,1,0,0:0:0:0:
402,192,13552,1,0,0:0:0:0:
36,192,13552,1,0,0:0:0:0:
256,192,13662,1,0,0:0:0:70:KicK.wav
109,192,13662,1,0,0:0:0:0:
475,192,13662,1,0,0:0:0:0:
329,192,13883,128,0,14104:0:0:0:0:
256,192,13938,128,0,14104:0:0:0:0:
182,192,13993,128,0,14104:0:0:0:0:
109,192,14048,128,0,14104:0:0:0:0:
36,192,14104,1,0,0:0:0:70:KicK.wav
402,192,14104,1,0,0:0:0:0:
475,192,14104,1,0,0:0:0:0:
329,192,14214,1,0,0:0:0:0:
182,192,14214,1,0,0:0:0:0:
475,192,14324,1,0,0:0:0:0:
36,192,14324,1,0,0:0:0:0:
182,192,14434,1,0,0:0:0:0:
329,192,14434,1,0,0:0:0:0:
256,192,14545,1,0,0:0:0:70:KicK.wav
402,192,14545,1,0,0:0:0:0:
475,192,14545,1,0,0:0:0:0:
36,192,14545,1,0,0:0:0:0:
36,192,14655,1,0,0:0:0:0:
109,192,14710,1,0,0:0:0:0:
182,192,14765,1,0,0:0:0:0:
329,192,14765,1,0,0:0:0:0:
329,192,14876,1,0,0:0:0:0:
256,192,14986,1,0,0:0:0:70:KicK.wav
475,192,14986,1,0,0:0:0:0:
36,192,14986,1,0,0:0:0:0:
402,192,15096,1,0,0:0:0:0:
109,192,15096,1,0,0:0:0:0:
475,192,15207,1,0,0:0:0:0:
182,192,15207,1,0,0:0:0:0:
402,192,15317,1,0,0:0:0:0:
109,192,15317,1,0,0:0:0:0:
475,192,15427,1,0,0:0:0:70:KicK.wav
36,192,15427,1,0,0:0:0:0:
256,192,15427,1,0,0:0:0:0:
182,192,15537,128,0,15648:0:0:0:0:
256,192,15593,128,0,15703:0:0:0:0:
329,192,15648,128,0,15758:0:0:0:0:
402,192,15703,128,0,15813:0:0:0:0:
36,192,15758,1,0,0:0:0:0:
109,192,15813,1,0,0:0:0:0:
182,192,15868,1,0,0:0:0:70:KicK.wav
329,192,15868,1,0,0:0:0:0:
475,192,15868,1,0,0:0:0:0:
36,192,15979,1,0,0:0:0:0:
402,192,15979,1,0,0:0:0:0:
182,192,16089,1,0,0:0:0:0:
329,192,16089,1,0,0:0:0:0:
36,192,16199,1,0,0:0:0:0:
402,192,16199,1,0,0:0:0:0:
329,192,16309,1,0,0:0:0:70:KicK.wav
182,192,16309,1,0,0:0:0:0:
475,192,16309,1,0,0:0:0:0:
256,192,16420,128,0,16530:0:0:0:0:
182,192,16475,128,0,16585:0:0:0:0:
109,192,16530,128,0,16640:0:0:0:0:
36,192,16585,128,0,16696:0:0:0:0:
402,192,16640,1,0,0:0:0:0:
329,192,16696,1,0,0:0:0:0:
256,192,16751,1,0,0:0:0:70:KicK.wav
109,192,16751,1,0,0:0:0:0:
475,192,16751,1,0,0:0:0:0:
182,192,16861,1,0,0:0:0:0:
402,192,16861,1,0,0:0:0:0:
36,192,16971,1,0,0:0:0:0:
475,192,16971,1,0,0:0:0:0:
182,192,17082,1,0,0:0:0:0:
402,192,17082,1,0,0:0:0:0:
109,192,17192,1,0,0:0:0:70:KicK.wav
256,192,17192,1,0,0:0:0:0:
475,192,17192,1,0,0:0:0:0:
109,192,17302,1,0,0:0:0:0:
182,192,17412,1,0,0:0:0:0:
402,192,17412,1,0,0:0:0:0:
402,192,17523,1,0,0:0:0:0:
329,192,17633,1,0,0:0:0:70:KicK.wav
36,192,17633,1,0,0:0:0:0:
182,192,17633,1,0,0:0:0:0:
256,192,17743,1,0,0:0:0:0:
475,192,17743,1,0,0:0:0:0:
109,192,17854,1,0,0:0:0:0:
402,192,17854,1,0,0:0:0:0:
256,192,17964,1,0,0:0:0:0:
475,192,17964,1,0,0:0:0:0:
329,192,18074,1,0,0:0:0:70:KicK.wav
182,192,18074,1,0,0:0:0:0:
36,192,18074,1,0,0:0:0:0:
475,192,18184,128,0,18240:0:0:0:0:
256,192,18240,128,0,18295:0:0:0:0:
402,192,18295,128,0,18350:0:0:0:0:
182,192,18350,128,0,18405:0:0:0:0:
329,192,18405,128,0,18460:0:0:0:0:
256,192,18515,1,0,0:0:0:70:KicK.wav
475,192,18515,1,0,0:0:0:0:
36,192,18515,1,0,0:0:0:0:
109,192,18626,1,0,0:0:0:0:
402,192,18626,1,0,0:0:0:0:
36,192,18736,1,0,0:0:0:0:
256,192,18736,1,0,0:0:0:0:
109,192,18846,1,0,0:0:0:0:
402,192,18846,1,0,0:0:0:0:
36,192,18957,1,0,0:0:0:70:KicK.wav
256,192,18957,1,0,0:0:0:0:
475,192,18957,1,0,0:0:0:0:
329,192,19067,128,0,19177:0:0:0:0:
256,192,19122,128,0,19232:0:0:0:0:
182,192,19177,128,0,19287:0:0:0:0:
109,192,19232,128,0,19343:0:0:0:0:
475,192,19287,1,0,0:0:0:0:
402,192,19343,1,0,0:0:0:0:
182,192,19398,1,0,0:0:0:70:KicK.wav
329,192,19398,1,0,0:0:0:0:
36,192,19398,1,0,0:0:0:0:
109,192,19508,1,0,0:0:0:0:
475,192,19508,1,0,0:0:0:0:
256,192,19618,1,0,0:0:0:0:
402,192,19618,1,0,0:0:0:0:
109,192,19729,1,0,0:0:0:0:
475,192,19729,1,0,0:0:0:0:
182,192,19839,1,0,0:0:0:70:KicK.wav
36,192,19839,1,0,0:0:0:0:
329,192,19839,1,0,0:0:0:0:
402,192,19949,128,0,20004:0:0:0:0:
256,192,20059,128,0,20115:0:0:0:0:
402,192,20170,128,0,20280:0:0:0:0:
329,192,20280,1,0,0:0:0:70:KicK.wav
182,192,20280,1,0,0:0:0:0:
475,192,20280,1,0,0:0:0:0:
36,192,20390,1,0,0:0:0:0:
256,192,20390,1,0,0:0:0:0:
109,192,20501,1,0,0:0:0:0:
402,192,20501,1,0,0:0:0:0:
36,192,20611,1,0,0:0:0:0:
256,192,20611,1,0,0:0:0:0:
182,192,20721,1,0,0:0:0:70:KicK.wav
329,192,20721,1,0,0:0:0:0:
475,192,20721,1,0,0:0:0:0:
182,192,20942,128,0,21162:0:0:0:0:
256,192,20997,128,0,21162:0:0:0:0:
329,192,21052,128,0,21162:0:0:0:0:
402,192,21107,128,0,21162:0:0:0:0:
109,192,21162,1,0,0:0:0:70:KicK.wav
475,192,21162,1,0,0:0:0:0:
36,192,21162,1,0,0:0:0:0:
329,192,21273,1,0,0:0:0:0:
256,192,21273,1,0,0:0:0:0:
109,192,21383,1,0,0:0:0:0:
182,192,21383,1,0,0:0:0:0:
329,192,21493,1,0,0:0:0:0:
402,192,21493,1,0,0:0:0:0:
402,192,21714,1,0,0:0:0:0:
475,192,21714,1,0,0:0:0:0:
329,192,21769,1,0,0:0:0:0:
256,192,21824,1,0,0:0:0:0:
182,192,21879,1,0,0:0:0:0:
109,192,21934,1,0,0:0:0:0:
36,192,21934,1,0,0:0:0:0:
329,192,22045,1,0,0:0:0:0:
402,192,22045,1,0,0:0:0:0:
182,192,22155,1,0,0:0:0:0:
109,192,22155,1,0,0:0:0:0:
402,192,22265,1,0,0:0:0:0:
475,192,22265,1,0,0:0:0:0:
256,192,22376,1,0,0:0:0:0:
182,192,22376,1,0,0:0:0:0:
402,192,22486,1,0,0:0:0:0:
475,192,22486,1,0,0:0:0:0:
402,192,22633,1,0,0:0:0:0:
475,192,22633,1,0,0:0:0:0:
475,192,22780,1,0,0:0:0:0:
402,192,22780,1,0,0:0:0:0:
402,192,22927,1,0,0:0:0:70:CrashL.wav
475,192,22927,1,0,0:0:0:70:KicK.wav
256,192,22927,1,0,0:0:0:0:
36,192,22927,1,0,0:0:0:0:
109,192,22927,1,0,0:0:0:0:
182,192,23037,1,0,0:0:0:0:
329,192,23037,1,0,0:0:0:0:
109,192,23148,1,0,0:0:0:0:
402,192,23148,1,0,0:0:0:0:
475,192,23258,1,0,0:0:0:0:
36,192,23258,1,0,0:0:0:0:
402,192,23368,1,0,0:0:0:70:Snare.wav
109,192,23368,1,0,0:0:0:0:
182,192,23368,1,0,0:0:0:0:
329,192,23368,1,0,0:0:0:0:
475,192,23479,1,0,0:0:0:0:
256,192,23479,1,0,0:0:0:0:
182,192,23589,1,0,0:0:0:0:
402,192,23589,1,0,0:0:0:0:
109,192,23699,1,0,0:0:0:0:
329,192,23699,1,0,0:0:0:0:
36,192,23809,1,0,0:0:0:70:KicK.wav
475,192,23809,1,0,0:0:0:0:
256,192,23809,1,0,0:0:0:0:
402,192,23809,1,0,0:0:0:0:
329,192,23920,1,0,0:0:0:0:
109,192,23920,1,0,0:0:0:0:
182,192,24030,1,0,0:0:0:0:
475,192,24030,1,0,0:0:0:0:
402,192,24140,1,0,0:0:0:0:
256,192,24140,1,0,0:0:0:0:
109,192,24251,1,0,0:0:0:70:Snare.wav
36,192,24251,1,0,0:0:0:0:
475,192,24251,128,0,24582:0:0:0:0:
182,192,24251,1,0,0:0:0:0:
402,192,24306,128,0,24582:0:0:0:0:
329,192,24361,128,0,24582:0:0:0:0:
256,192,24416,128,0,24582:0:0:0:0:
182,192,24471,128,0,24582:0:0:0:0:
36,192,24692,1,0,0:0:0:70:KicK.wav
256,192,24692,1,0,0:0:0:0:
475,192,24692,1,0,0:0:0:0:
109,192,24692,1,0,0:0:0:0:
182,192,24802,1,0,0:0:0:0:
402,192,24802,1,0,0:0:0:0:
109,192,24912,1,0,0:0:0:0:
329,192,24912,1,0,0:0:0:0:
256,192,25023,1,0,0:0:0:0:
36,192,25023,1,0,0:0:0:0:
109,192,25133,1,0,0:0:0:70:Snare.wav
182,192,25133,1,0,0:0:0:0:
475,192,25133,1,0,0:0:0:0:
329,192,25133,1,0,0:0:0:0:
402,192,25243,1,0,0:0:0:0:
36,192,25243,1,0,0:0:0:0:
109,192,25354,1,0,0:0:0:0:
329,192,25354,1,0,0:0:0:0:
182,192,25464,1,0,0:0:0:0:
402,192,25464,1,0,0:0:0:0:
475,192,25574,1,0,0:0:0:70:KicK.wav
109,192,25574,1,0,0:0:0:0:
36,192,25574,1,0,0:0:0:0:
256,192,25574,1,0,0:0:0:0:
182,192,25684,1,0,0:0:0:0:
402,192,25684,1,0,0:0:0:0:
109,192,25795,1,0,0:0:0:0:
329,192,25795,1,0,0:0:0:0:
256,192,25905,1,0,0:0:0:0:
36,192,25905,1,0,0:0:0:0:
329,192,26015,1,0,0:0:0:70:Snare.wav
182,192,26015,1,0,0:0:0:0:
475,192,26015,1,0,0:0:0:0:
402,192,26015,1,0,0:0:0:0:
182,192,26126,1,0,0:0:0:0:
36,192,26126,1,0,0:0:0:0:
402,192,26236,1,0,0:0:0:0:
36,192,26236,1,0,0:0:0:0:
402,192,26346,1,0,0:0:0:0:
256,192,26346,1,0,0:0:0:0:
256,192,26457,1,0,0:0:0:70:KicK.wav
109,192,26457,1,0,0:0:0:0:
475,192,26457,1,0,0:0:0:0:
36,192,26457,1,0,0:0:0:0:
402,192,26567,1,0,0:0:0:0:
182,192,26567,1,0,0:0:0:0:
109,192,26677,1,0,0:0:0:0:
329,192,26677,1,0,0:0:0:0:
256,192,26787,1,0,0:0:0:0:
402,192,26787,1,0,0:0:0:0:
475,192,26898,1,0,0:0:0:70:Snare.wav
329,192,26898,1,0,0:0:0:0:
182,192,26898,1,0,0:0:0:0:
36,192,26898,1,0,0:0:0:0:
109,192,27008,1,0,0:0:0:0:
402,192,27008,1,0,0:0:0:0:
36,192,27118,1,0,0:0:0:0:
329,192,27118,1,0,0:0:0:0:
256,192,27229,1,0,0:0:0:0:
109,192,27229,1,0,0:0:0:0:
182,192,27339,1,0,0:0:0:70:KicK.wav
475,192,27339,1,0,0:0:0:0:
329,192,27339,1,0,0:0:0:0:
36,192,27339,1,0,0:0:0:0:
109,192,27449,1,0,0:0:0:0:
402,192,27449,1,0,0:0:0:0:
182,192,27559,1,0,0:0:0:0:
475,192,27559,1,0,0:0:0:0:
402,192,27670,1,0,0:0:0:0:
256,192,27670,1,0,0:0:0:0:
329,192,27780,1,0,0:0:0:70:Snare.wav
182,192,27780,1,0,0:0:0:0:
36,192,27780,1,0,0:0:0:0:
475,192,27780,1,0,0:0:0:0:
329,192,28001,128,0,28221:0:0:0:0:
256,192,28056,128,0,28221:0:0:0:0:
182,192,28111,128,0,28221:0:0:0:0:
109,192,28166,128,0,28221:0:0:0:0:
36,192,28221,1,0,0:0:0:70:KicK.wav
402,192,28221,1,0,0:0:0:0:
475,192,28221,1,0,0:0:0:0:
109,192,28332,1,0,0:0:0:0:
329,192,28332,1,0,0:0:0:0:
402,192,28442,1,0,0:0:0:0:
182,192,28442,1,0,0:0:0:0:
256,192,28552,1,0,0:0:0:0:
475,192,28552,1,0,0:0:0:0:
329,192,28662,1,0,0:0:0:70:Snare.wav
182,192,28662,1,0,0:0:0:0:
36,192,28662,1,0,0:0:0:0:
402,192,28662,1,0,0:0:0:0:
109,192,28773,1,0,0:0:0:0:
475,192,28773,1,0,0:0:0:0:
182,192,28883,1,0,0:0:0:0:
402,192,28883,1,0,0:0:0:0:
329,192,28993,1,0,0:0:0:0:
109,192,28993,1,0,0:0:0:0:
36,192,29104,1,0,0:0:0:70:KicK.wav
256,192,29104,1,0,0:0:0:0:
475,192,29104,1,0,0:0:0:0:
402,192,29104,1,0,0:0:0:0:
329,192,29214,1,0,0:0:0:0:
109,192,29214,1,0,0:0:0:0:
402,192,29324,1,0,0:0:0:0:
182,192,29324,1,0,0:0:0:0:
256,192,29434,1,0,0:0:0:0:
475,192,29434,1,0,0:0:0:0:
329,192,29545,1,0,0:0:0:70:Snare.wav
182,192,29545,1,0,0:0:0:0:
36,192,29545,1,0,0:0:0:0:
109,192,29545,1,0,0:0:0:0:
475,192,29692,1,0,0:0:0:0:
402,192,29692,1,0,0:0:0:0:
402,192,29839,1,0,0:0:0:0:
475,192,29839,1,0,0:0:0:0:
182,192,29986,1,0,0:0:0:70:KicK.wav
329,192,29986,1,0,0:0:0:0:
36,192,29986,1,0,0:0:0:0:
109,192,29986,1,0,0:0:0:0:
475,192,30096,1,0,0:0:0:0:
256,192,30096,1,0,0:0:0:0:
402,192,30207,1,0,0:0:0:0:
182,192,30207,1,0,0:0:0:0:
109,192,30317,1,0,0:0:0:0:
329,192,30317,1,0,0:0:0:0:
402,192,30427,1,0,0:0:0:70:Snare.wav
475,192,30427,1,0,0:0:0:0:
256,192,30427,1,0,0:0:0:0:
36,192,30427,1,0,0:0:0:0:
109,192,30537,1,0,0:0:0:0:
329,192,30537,1,0,0:0:0:0:
182,192,30648,1,0,0:0:0:0:
402,192,30648,1,0,0:0:0:0:
109,192,30758,1,0,0:0:0:0:
256,192,30758,1,0,0:0:0:0:
182,192,30868,1,0,0:0:0:70:KicK.wav
329,192,30868,1,0,0:0:0:0:
475,192,30868,1,0,0:0:0:0:
36,192,30868,1,0,0:0:0:0:
402,192,30979,1,0,0:0:0:0:
109,192,30979,1,0,0:0:0:0:
182,192,31089,1,0,0:0:0:0:
329,192,31089,1,0,0:0:0:0:
256,192,31199,1,0,0:0:0:0:
402,192,31199,1,0,0:0:0:0:
475,192,31309,1,0,0:0:0:70:Snare.wav
182,192,31309,1,0,0:0:0:0:
36,192,31309,1,0,0:0:0:0:
329,192,31309,1,0,0:0:0:0:
109,192,31530,128,0,31751:0:0:0:0:
182,192,31585,128,0,31751:0:0:0:0:
256,192,31640,128,0,31751:0:0:0:0:
329,192,31696,128,0,31751:0:0:0:0:
402,192,31751,1,0,0:0:0:70:KicK.wav
475,192,31751,1,0,0:0:0:0:
36,192,31751,1,0,0:0:0:0:
109,192,31861,1,0,0:0:0:0:
256,192,31861,1,0,0:0:0:0:
402,192,31971,1,0,0:0:0:0:
475,192,31971,1,0,0:0:0:0:
256,192,32082,1,0,0:0:0:0:
109,192,32082,1,0,0:0:0:0:
475,192,32192,1,0,0:0:0:70:Snare.wav
36,192,32192,1,0,0:0:0:0:
109,192,32302,1,0,0:0:0:0:
329,192,32302,1,0,0:0:0:0:
402,192,32357,1,0,0:0:0:0:
182,192,32412,1,0,0:0:0:0:
475,192,32412,1,0,0:0:0:0:
402,192,32523,1,0,0:0:0:0:
256,192,32523,1,0,0:0:0:0:
329,192,32633,1,0,0:0:0:70:KicK.wav
109,192,32633,1,0,0:0:0:0:
36,192,32633,1,0,0:0:0:0:
256,192,32743,1,0,0:0:0:0:
475,192,32743,1,0,0:0:0:0:
402,192,32854,1,0,0:0:0:0:
182,192,32854,1,0,0:0:0:0:
109,192,32964,1,0,0:0:0:70:KicK.wav
329,192,32964,1,0,0:0:0:0:
36,192,32964,1,0,0:0:0:0:
402,192,33074,1,0,0:0:0:0:
256,192,33074,1,0,0:0:0:0:
475,192,33074,1,0,0:0:0:0:
329,192,33221,1,0,0:0:0:0:
182,192,33221,1,0,0:0:0:0:
36,192,33221,1,0,0:0:0:0:
402,192,33368,1,0,0:0:0:0:
256,192,33368,1,0,0:0:0:0:
109,192,33368,1,0,0:0:0:0:
182,192,33515,1,0,0:0:0:70:KicK.wav
475,192,33515,1,0,0:0:0:0:
329,192,33515,1,0,0:0:0:0:
36,192,33515,1,0,0:0:0:0:
109,192,42118,5,0,0:0:0:0:
329,192,42118,5,0,0:0:0:0:
182,192,42229,1,0,0:0:0:0:
402,192,42229,1,0,0:0:0:0:
36,192,42339,1,0,0:0:0:0:
256,192,42339,1,0,0:0:0:0:
475,192,42339,128,0,44104:0:0:0:0:
36,192,42559,1,0,0:0:0:0:
109,192,42780,1,0,0:0:0:0:
256,192,42780,1,0,0:0:0:0:
329,192,43001,1,0,0:0:0:0:
182,192,43001,1,0,0:0:0:0:
256,192,43442,1,0,0:0:0:0:
109,192,43442,1,0,0:0:0:0:
182,192,43883,1,0,0:0:0:0:
36,192,43883,1,0,0:0:0:0:
182,192,44104,1,0,0:0:0:0:
109,192,44104,128,0,44986:0:0:0:0:
329,192,44104,1,0,0:0:0:0:
329,192,44324,1,0,0:0:0:0:
182,192,44545,1,0,0:0:0:0:
475,192,44765,1,0,0:0:0:0:
329,192,44765,1,0,0:0:0:0:
402,192,44986,128,0,45868:0:0:0:0:
182,192,45207,1,0,0:0:0:0:
36,192,45207,1,0,0:0:0:0:
256,192,45427,1,0,0:0:0:0:
109,192,45427,1,0,0:0:0:0:
182,192,45648,1,0,0:0:0:0:
329,192,45648,1,0,0:0:0:0:
475,192,45868,1,0,0:0:0:0:
256,192,45868,128,0,46751:0:0:0:0:
36,192,45868,1,0,0:0:0:0:
109,192,46089,1,0,0:0:0:0:
402,192,46089,1,0,0:0:0:0:
182,192,46309,1,0,0:0:0:0:
329,192,46309,1,0,0:0:0:0:
475,192,46530,1,0,0:0:0:0:
36,192,46530,1,0,0:0:0:0:
109,192,46971,1,0,0:0:0:0:
475,192,46971,1,0,0:0:0:0:
36,192,46971,1,0,0:0:0:0:
402,192,47082,1,0,0:0:0:0:
329,192,47192,128,0,47412:0:0:0:0:
182,192,47192,1,0,0:0:0:0:
109,192,47192,1,0,0:0:0:0:
475,192,47412,128,0,47854:0:0:0:0:
182,192,47412,1,0,0:0:0:0:
256,192,47412,1,0,0:0:0:0:
109,192,47854,128,0,48074:0:0:0:0:
182,192,48074,128,0,48295:0:0:0:0:
329,192,48295,1,0,0:0:0:0:
475,192,48295,1,0,0:0:0:0:
36,192,48295,128,0,48846:0:0:0:0:
182,192,48736,128,0,48846:0:0:0:0:
402,192,48957,128,0,49067:0:0:0:0:
109,192,49177,1,0,0:0:0:0:
329,192,49177,1,0,0:0:0:0:
182,192,49287,1,0,0:0:0:0:
475,192,49287,1,0,0:0:0:0:
256,192,49398,128,0,50280:0:0:0:0:
402,192,49398,1,0,0:0:0:0:
36,192,49398,1,0,0:0:0:0:
109,192,49618,1,0,0:0:0:0:
182,192,49839,1,0,0:0:0:0:
475,192,49839,1,0,0:0:0:0:
329,192,50059,1,0,0:0:0:0:
36,192,50059,1,0,0:0:0:0:
402,192,50280,128,0,51162:0:0:0:0:
36,192,50501,1,0,0:0:0:0:
182,192,50501,1,0,0:0:0:0:
329,192,50942,1,0,0:0:0:0:
182,192,50942,1,0,0:0:0:0:
36,192,51162,128,0,52045:0:0:0:0:
475,192,51162,1,0,0:0:0:0:
182,192,51162,1,0,0:0:0:0:
402,192,51383,1,0,0:0:0:0:
329,192,51604,1,0,0:0:0:0:
256,192,51824,1,0,0:0:0:0:
109,192,51824,1,0,0:0:0:0:
402,192,51824,1,0,0:0:0:0:
475,192,52045,128,0,52927:0:0:0:0:
182,192,52265,1,0,0:0:0:0:
36,192,52265,1,0,0:0:0:0:
256,192,52486,1,0,0:0:0:0:
109,192,52486,1,0,0:0:0:0:
182,192,52707,1,0,0:0:0:0:
329,192,52707,1,0,0:0:0:0:
256,192,52927,1,0,0:0:0:0:
402,192,52927,1,0,0:0:0:0:
36,192,52927,128,0,53809:0:0:0:0:
256,192,53148,1,0,0:0:0:0:
109,192,53148,1,0,0:0:0:0:
329,192,53368,1,0,0:0:0:0:
182,192,53368,1,0,0:0:0:0:
256,192,53589,1,0,0:0:0:0:
402,192,53589,1,0,0:0:0:0:
475,192,53809,1,0,0:0:0:0:
329,192,53809,1,0,0:0:0:0:
36,192,54030,1,0,0:0:0:0:
329,192,54030,1,0,0:0:0:0:
256,192,54030,1,0,0:0:0:0:
109,192,54140,1,0,0:0:0:0:
329,192,54251,1,0,0:0:0:0:
402,192,54251,1,0,0:0:0:0:
182,192,54251,128,0,54471:0:0:0:0:
475,192,54471,1,0,0:0:0:0:
402,192,54471,1,0,0:0:0:0:
109,192,54471,128,0,54912:0:0:0:0:
475,192,54912,128,0,55059:0:0:0:0:
329,192,54912,1,0,0:0:0:0:
182,192,54912,1,0,0:0:0:0:
402,192,55133,128,0,55280:0:0:0:0:
256,192,55133,1,0,0:0:0:0:
109,192,55133,1,0,0:0:0:0:
329,192,55354,128,0,55501:0:0:0:0:
36,192,55354,1,0,0:0:0:0:
182,192,55354,1,0,0:0:0:0:
256,192,55574,128,0,55721:0:0:0:0:
182,192,55795,128,0,55942:0:0:0:0:
109,192,56015,128,0,56162:0:0:0:0:
36,192,56236,1,0,0:0:0:0:
109,192,56346,1,0,0:0:0:0:
329,192,56457,1,0,0:0:0:0:
475,192,56457,1,0,0:0:0:0:
182,192,56457,128,0,57008:0:0:0:0:
402,192,57118,1,0,0:0:0:0:
36,192,57118,1,0,0:0:0:0:
182,192,57118,1,0,0:0:0:0:
475,192,57229,1,0,0:0:0:0:
402,192,57339,128,0,57559:0:0:0:0:
109,192,57339,1,0,0:0:0:0:
256,192,57339,1,0,0:0:0:0:
36,192,57559,128,0,57780:0:0:0:0:
182,192,57559,1,0,0:0:0:0:
329,192,57559,1,0,0:0:0:0:
109,192,57780,128,0,58001:0:0:0:0:
256,192,57780,1,0,0:0:0:0:
402,192,57780,1,0,0:0:0:0:
182,192,58001,128,0,58442:0:0:0:0:
475,192,58001,1,0,0:0:0:0:
329,192,58001,1,0,0:0:0:0:
329,192,58442,128,0,58662:0:0:0:0:
182,192,58662,128,0,59324:0:0:0:0:
329,192,58883,128,0,59324:0:0:0:0:
256,192,59324,128,0,59986:0:0:0:0:
402,192,59545,128,0,59986:0:0:0:0:
36,192,59986,128,0,60427:0:0:0:0:
182,192,59986,128,0,60207:0:0:0:0:
329,192,59986,1,0,0:0:0:0:
109,192,60648,128,0,61089:0:0:0:0:
256,192,60648,128,0,60868:0:0:0:0:
402,192,60648,1,0,0:0:0:0:
182,192,61309,128,0,61971:0:0:0:0:
329,192,61309,128,0,61530:0:0:0:0:
475,192,61309,1,0,0:0:0:0:
256,192,61971,1,0,0:0:0:0:
109,192,61971,1,0,0:0:0:0:
402,192,61971,128,0,62633:0:0:0:0:
109,192,62412,128,0,62633:0:0:0:0:
256,192,62633,128,0,62854:0:0:0:0:
402,192,62854,1,0,0:0:0:0:
475,192,62854,1,0,0:0:0:0:
182,192,62854,128,0,63074:0:0:0:0:
329,192,63074,1,0,0:0:0:0:
402,192,63074,1,0,0:0:0:0:
109,192,63074,128,0,63295:0:0:0:0:
329,192,63295,1,0,0:0:0:0:
256,192,63295,1,0,0:0:0:0:
36,192,63295,128,0,63515:0:0:0:0:
182,192,63515,1,0,0:0:0:0:
256,192,63515,1,0,0:0:0:0:
475,192,63515,128,0,63736:0:0:0:0:
36,192,63736,1,0,0:0:0:0:
109,192,63736,1,0,0:0:0:0:
329,192,63736,128,0,63957:0:0:0:0:
109,192,63957,1,0,0:0:0:0:
182,192,63957,1,0,0:0:0:0:
402,192,63957,128,0,64177:0:0:0:0:
182,192,64177,1,0,0:0:0:0:
256,192,64177,1,0,0:0:0:0:
475,192,64177,128,0,64618:0:0:0:0:
256,192,64398,1,0,0:0:0:0:
329,192,64398,1,0,0:0:0:0:
329,192,64618,1,0,0:0:0:0:
402,192,64618,1,0,0:0:0:0:
109,192,64618,128,0,65059:0:0:0:0:
475,192,64839,1,0,0:0:0:0:
402,192,64839,1,0,0:0:0:0:
182,192,65059,1,0,0:0:0:0:
36,192,65059,1,0,0:0:0:0:
329,192,65059,128,0,65501:0:0:0:0:
109,192,65501,1,0,0:0:0:0:
256,192,65501,1,0,0:0:0:0:
475,192,65501,128,0,65942:0:0:0:0:
182,192,65942,1,0,0:0:0:0:
329,192,65942,1,0,0:0:0:0:
36,192,65942,128,0,66052:0:0:0:0:
256,192,66162,128,0,66273:0:0:0:0:
475,192,66383,1,0,0:0:0:0:
329,192,66383,1,0,0:0:0:0:
109,192,66383,128,0,66493:0:0:0:0:
402,192,66604,128,0,66714:0:0:0:0:
36,192,66751,1,0,0:0:0:0:
109,192,66824,1,0,0:0:0:0:
329,192,66824,128,0,66934:0:0:0:0:
182,192,66898,1,0,0:0:0:0:
475,192,67045,1,0,0:0:0:0:
36,192,67045,1,0,0:0:0:0:
256,192,67045,128,0,67927:0:0:0:0:
182,192,67265,1,0,0:0:0:0:
329,192,67486,1,0,0:0:0:0:
475,192,67707,1,0,0:0:0:0:
182,192,68148,1,0,0:0:0:0:
36,192,68148,1,0,0:0:0:0:
329,192,68148,1,0,0:0:0:0:
402,192,68368,1,0,0:0:0:0:
109,192,68368,1,0,0:0:0:0:
256,192,68368,1,0,0:0:0:0:
182,192,68589,1,0,0:0:0:0:
475,192,68589,128,0,69692:0:0:0:0:
329,192,68589,1,0,0:0:0:0:
182,192,69637,1,0,0:0:0:0:
36,192,69637,1,0,0:0:0:0:
256,192,69692,1,0,0:0:0:0:
402,192,69692,1,0,0:0:0:0:
182,192,70133,128,0,70464:0:0:0:0:
475,192,70133,128,0,70464:0:0:0:0:
329,192,70133,128,0,70464:0:0:0:0:
36,192,70133,128,0,70464:0:0:0:0:
475,192,70574,1,0,0:0:0:70:CrashL.wav
36,192,70574,1,0,0:0:0:0:
256,192,70574,1,0,0:0:0:0:
109,192,70574,1,0,0:0:0:0:
329,192,70684,1,0,0:0:0:0:
402,192,70684,1,0,0:0:0:0:
109,192,70795,1,0,0:0:0:0:
182,192,70795,1,0,0:0:0:0:
475,192,70905,1,0,0:0:0:0:
402,192,70905,1,0,0:0:0:0:
36,192,71015,1,0,0:0:0:70:Clap.wav
256,192,71126,1,0,0:0:0:0:
475,192,71126,1,0,0:0:0:0:
182,192,71181,1,0,0:0:0:0:
402,192,71181,1,0,0:0:0:0:
329,192,71236,1,0,0:0:0:0:
109,192,71236,1,0,0:0:0:0:
182,192,71346,1,0,0:0:0:0:
402,192,71346,1,0,0:0:0:0:
36,192,71457,1,0,0:0:0:0:
475,192,71457,1,0,0:0:0:0:
256,192,71457,1,0,0:0:0:0:
109,192,71567,1,0,0:0:0:0:
329,192,71567,1,0,0:0:0:0:
182,192,71677,1,0,0:0:0:0:
402,192,71677,1,0,0:0:0:0:
36,192,71898,1,0,0:0:0:70:Clap.wav
182,192,71898,1,0,0:0:0:0:
402,192,71898,1,0,0:0:0:0:
329,192,72118,1,0,0:0:0:0:
475,192,72118,1,0,0:0:0:0:
402,192,72229,1,0,0:0:0:0:
256,192,72229,1,0,0:0:0:0:
182,192,72339,1,0,0:0:0:0:
36,192,72339,1,0,0:0:0:0:
329,192,72339,1,0,0:0:0:0:
402,192,72449,1,0,0:0:0:0:
475,192,72449,1,0,0:0:0:0:
256,192,72559,1,0,0:0:0:0:
109,192,72559,1,0,0:0:0:0:
329,192,72670,1,0,0:0:0:0:
402,192,72670,1,0,0:0:0:0:
36,192,72780,1,0,0:0:0:70:Clap.wav
109,192,72890,1,0,0:0:0:0:
256,192,72890,1,0,0:0:0:0:
402,192,72946,1,0,0:0:0:0:
475,192,72946,1,0,0:0:0:0:
329,192,73001,1,0,0:0:0:0:
182,192,73001,1,0,0:0:0:0:
402,192,73111,1,0,0:0:0:0:
109,192,73111,1,0,0:0:0:0:
475,192,73221,1,0,0:0:0:0:
256,192,73221,1,0,0:0:0:0:
36,192,73221,1,0,0:0:0:0:
256,192,73332,1,0,0:0:0:0:
475,192,73332,1,0,0:0:0:0:
402,192,73442,1,0,0:0:0:0:
182,192,73442,1,0,0:0:0:0:
402,192,73662,1,0,0:0:0:70:Clap.wav
36,192,73662,1,0,0:0:0:0:
182,192,73662,1,0,0:0:0:0:
402,192,73773,1,0,0:0:0:0:
182,192,73773,1,0,0:0:0:0:
329,192,73883,1,0,0:0:0:0:
109,192,73883,1,0,0:0:0:0:
329,192,74104,1,0,0:0:0:0:
36,192,74104,1,0,0:0:0:0:
475,192,74104,1,0,0:0:0:0:
256,192,74214,1,0,0:0:0:0:
109,192,74214,1,0,0:0:0:0:
475,192,74324,1,0,0:0:0:0:
329,192,74324,1,0,0:0:0:0:
109,192,74434,1,0,0:0:0:0:
256,192,74434,1,0,0:0:0:0:
36,192,74545,1,0,0:0:0:70:Clap.wav
329,192,74655,1,0,0:0:0:0:
109,192,74655,1,0,0:0:0:0:
402,192,74710,1,0,0:0:0:0:
182,192,74710,1,0,0:0:0:0:
475,192,74765,1,0,0:0:0:0:
256,192,74765,1,0,0:0:0:0:
402,192,74876,1,0,0:0:0:0:
182,192,74876,1,0,0:0:0:0:
109,192,74986,1,0,0:0:0:0:
36,192,74986,1,0,0:0:0:0:
329,192,74986,1,0,0:0:0:0:
475,192,75096,1,0,0:0:0:0:
256,192,75096,1,0,0:0:0:0:
329,192,75207,1,0,0:0:0:0:
109,192,75207,1,0,0:0:0:0:
475,192,75317,1,0,0:0:0:0:
256,192,75317,1,0,0:0:0:0:
36,192,75427,1,0,0:0:0:70:Clap.wav
475,192,75537,1,0,0:0:0:0:
256,192,75537,1,0,0:0:0:0:
402,192,75648,1,0,0:0:0:0:
182,192,75648,1,0,0:0:0:0:
109,192,75758,1,0,0:0:0:0:
329,192,75758,1,0,0:0:0:0:
475,192,75868,1,0,0:0:0:0:
36,192,75868,1,0,0:0:0:0:
256,192,75868,1,0,0:0:0:0:
402,192,75979,1,0,0:0:0:0:
182,192,75979,1,0,0:0:0:0:
475,192,76089,1,0,0:0:0:0:
256,192,76089,1,0,0:0:0:0:
402,192,76199,1,0,0:0:0:0:
182,192,76199,1,0,0:0:0:0:
36,192,76309,1,0,0:0:0:70:Clap.wav
402,192,76420,1,0,0:0:0:0:
182,192,76420,1,0,0:0:0:0:
329,192,76530,1,0,0:0:0:0:
109,192,76530,1,0,0:0:0:0:
402,192,76640,1,0,0:0:0:0:
182,192,76640,1,0,0:0:0:0:
475,192,76751,1,0,0:0:0:0:
36,192,76751,1,0,0:0:0:0:
256,192,76751,1,0,0:0:0:0:
402,192,76861,1,0,0:0:0:0:
182,192,76861,1,0,0:0:0:0:
329,192,76971,1,0,0:0:0:0:
109,192,76971,1,0,0:0:0:0:
402,192,77082,1,0,0:0:0:0:
256,192,77082,1,0,0:0:0:0:
36,192,77192,1,0,0:0:0:70:Clap.wav
402,192,77302,1,0,0:0:0:0:
256,192,77302,1,0,0:0:0:0:
329,192,77412,1,0,0:0:0:0:
182,192,77412,1,0,0:0:0:0:
256,192,77523,1,0,0:0:0:0:
109,192,77523,1,0,0:0:0:0:
36,192,77633,1,0,0:0:0:0:
475,192,77633,1,0,0:0:0:0:
182,192,77633,1,0,0:0:0:0:
402,192,77743,1,0,0:0:0:0:
329,192,77743,1,0,0:0:0:0:
109,192,77854,1,0,0:0:0:0:
256,192,77854,1,0,0:0:0:0:
329,192,77964,1,0,0:0:0:0:
402,192,77964,1,0,0:0:0:0:
475,192,78074,1,0,0:0:0:70:Clap.wav
36,192,78184,1,0,0:0:0:0:
182,192,78184,1,0,0:0:0:0:
402,192,78240,1,0,0:0:0:0:
329,192,78240,1,0,0:0:0:0:
256,192,78295,1,0,0:0:0:0:
109,192,78295,1,0,0:0:0:0:
182,192,78405,1,0,0:0:0:0:
329,192,78405,1,0,0:0:0:0:
256,192,78515,1,0,0:0:0:0:
475,192,78515,1,0,0:0:0:0:
36,192,78515,1,0,0:0:0:0:
109,192,78626,1,0,0:0:0:0:
402,192,78626,1,0,0:0:0:0:
329,192,78736,1,0,0:0:0:0:
182,192,78736,1,0,0:0:0:0:
329,192,78957,1,0,0:0:0:70:Clap.wav
182,192,78957,1,0,0:0:0:0:
475,192,78957,1,0,0:0:0:0:
36,192,79177,1,0,0:0:0:0:
182,192,79177,1,0,0:0:0:0:
109,192,79287,1,0,0:0:0:0:
256,192,79287,1,0,0:0:0:0:
182,192,79398,1,0,0:0:0:0:
475,192,79398,1,0,0:0:0:0:
329,192,79398,1,0,0:0:0:0:
109,192,79508,1,0,0:0:0:0:
36,192,79508,1,0,0:0:0:0:
256,192,79618,1,0,0:0:0:0:
402,192,79618,1,0,0:0:0:0:
182,192,79729,1,0,0:0:0:0:
109,192,79729,1,0,0:0:0:0:
475,192,79839,1,0,0:0:0:70:Clap.wav
36,192,79949,1,0,0:0:0:0:
256,192,79949,1,0,0:0:0:0:
109,192,80004,1,0,0:0:0:0:
329,192,80004,1,0,0:0:0:0:
182,192,80059,1,0,0:0:0:0:
402,192,80059,1,0,0:0:0:0:
329,192,80170,1,0,0:0:0:0:
109,192,80170,1,0,0:0:0:0:
36,192,80280,1,0,0:0:0:0:
475,192,80280,1,0,0:0:0:0:
256,192,80280,1,0,0:0:0:0:
36,192,80390,1,0,0:0:0:0:
256,192,80390,1,0,0:0:0:0:
109,192,80501,1,0,0:0:0:0:
329,192,80501,1,0,0:0:0:0:
109,192,80721,1,0,0:0:0:70:Clap.wav
475,192,80721,1,0,0:0:0:0:
329,192,80721,1,0,0:0:0:0:
109,192,80832,1,0,0:0:0:0:
329,192,80832,1,0,0:0:0:0:
402,192,80942,1,0,0:0:0:0:
182,192,80942,1,0,0:0:0:0:
475,192,81162,1,0,0:0:0:0:
36,192,81162,1,0,0:0:0:0:
329,192,81162,1,0,0:0:0:0:
109,192,81273,1,0,0:0:0:0:
256,192,81273,1,0,0:0:0:0:
36,192,81383,1,0,0:0:0:0:
329,192,81383,1,0,0:0:0:0:
256,192,81493,1,0,0:0:0:0:
109,192,81493,1,0,0:0:0:0:
475,192,81604,1,0,0:0:0:70:Clap.wav
36,192,81714,1,0,0:0:0:0:
256,192,81714,1,0,0:0:0:0:
402,192,81769,1,0,0:0:0:0:
182,192,81769,1,0,0:0:0:0:
329,192,81824,1,0,0:0:0:0:
109,192,81824,1,0,0:0:0:0:
182,192,81934,1,0,0:0:0:0:
402,192,81934,1,0,0:0:0:0:
36,192,82045,1,0,0:0:0:0:
475,192,82045,1,0,0:0:0:0:
256,192,82045,1,0,0:0:0:0:
109,192,82155,1,0,0:0:0:0:
329,192,82155,1,0,0:0:0:0:
36,192,82265,1,0,0:0:0:0:
256,192,82265,1,0,0:0:0:0:
329,192,82376,1,0,0:0:0:0:
109,192,82376,1,0,0:0:0:0:
475,192,82486,1,0,0:0:0:70:Clap.wav
109,192,82596,1,0,0:0:0:0:
329,192,82596,1,0,0:0:0:0:
182,192,82707,1,0,0:0:0:0:
402,192,82707,1,0,0:0:0:0:
329,192,82817,1,0,0:0:0:0:
109,192,82817,1,0,0:0:0:0:
36,192,82927,1,0,0:0:0:0:
475,192,82927,1,0,0:0:0:0:
256,192,82927,1,0,0:0:0:0:
182,192,83037,1,0,0:0:0:0:
329,192,83037,1,0,0:0:0:0:
36,192,83148,1,0,0:0:0:0:
402,192,83148,1,0,0:0:0:0:
256,192,83258,1,0,0:0:0:0:
109,192,83258,1,0,0:0:0:0:
475,192,83368,1,0,0:0:0:70:Clap.wav
109,192,83479,1,0,0:0:0:0:
256,192,83479,1,0,0:0:0:0:
182,192,83589,1,0,0:0:0:0:
329,192,83589,1,0,0:0:0:0:
256,192,83699,1,0,0:0:0:0:
402,192,83699,1,0,0:0:0:0:
329,192,83809,1,0,0:0:0:0:
475,192,83809,1,0,0:0:0:0:
36,192,83809,1,0,0:0:0:0:
109,192,83920,1,0,0:0:0:0:
256,192,83920,1,0,0:0:0:0:
182,192,84030,1,0,0:0:0:0:
329,192,84030,1,0,0:0:0:0:
109,192,84140,1,0,0:0:0:0:
256,192,84140,1,0,0:0:0:0:
475,192,84251,1,0,0:0:0:70:Clap.wav
109,192,84361,1,0,0:0:0:0:
256,192,84361,1,0,0:0:0:0:
36,192,84471,1,0,0:0:0:0:
182,192,84471,1,0,0:0:0:0:
182,192,84692,1,0,0:0:0:70:CrashL.wav
475,192,84692,1,0,0:0:0:70:KicK.wav
36,192,84692,1,0,0:0:0:0:
329,192,84692,1,0,0:0:0:0:
402,192,84692,1,0,0:0:0:0:
36,192,84802,1,0,0:0:0:0:
182,192,84802,1,0,0:0:0:0:
329,192,84802,1,0,0:0:0:0:
256,192,84912,1,0,0:0:0:0:
402,192,84912,1,0,0:0:0:0:
109,192,84912,1,0,0:0:0:0:
182,192,85023,1,0,0:0:0:0:
329,192,85023,1,0,0:0:0:0:
475,192,85023,1,0,0:0:0:0:
36,192,85133,1,0,0:0:0:70:Clap.wav
256,192,85243,1,0,0:0:0:0:
475,192,85243,1,0,0:0:0:0:
402,192,85243,1,0,0:0:0:0:
109,192,85298,1,0,0:0:0:0:
182,192,85298,1,0,0:0:0:0:
475,192,85354,1,0,0:0:0:0:
256,192,85354,1,0,0:0:0:0:
402,192,85354,1,0,0:0:0:0:
182,192,85464,1,0,0:0:0:0:
329,192,85464,1,0,0:0:0:0:
36,192,85464,1,0,0:0:0:0:
109,192,85574,1,0,0:0:0:0:
256,192,85574,1,0,0:0:0:0:
402,192,85574,1,0,0:0:0:0:
182,192,85684,1,0,0:0:0:0:
329,192,85684,1,0,0:0:0:0:
475,192,85684,1,0,0:0:0:0:
402,192,85795,1,0,0:0:0:0:
256,192,85795,1,0,0:0:0:0:
36,192,85795,1,0,0:0:0:0:
36,192,86015,1,0,0:0:0:70:Clap.wav
256,192,86015,1,0,0:0:0:0:
402,192,86015,1,0,0:0:0:0:
475,192,86236,1,0,0:0:0:0:
256,192,86236,1,0,0:0:0:0:
402,192,86346,1,0,0:0:0:0:
182,192,86346,1,0,0:0:0:0:
329,192,86457,1,0,0:0:0:0:
109,192,86457,1,0,0:0:0:0:
36,192,86457,1,0,0:0:0:0:
329,192,86567,1,0,0:0:0:0:
109,192,86567,1,0,0:0:0:0:
36,192,86567,1,0,0:0:0:0:
475,192,86677,1,0,0:0:0:0:
182,192,86677,1,0,0:0:0:0:
402,192,86677,1,0,0:0:0:0:
329,192,86787,1,0,0:0:0:0:
109,192,86787,1,0,0:0:0:0:
36,192,86787,1,0,0:0:0:0:
256,192,86898,1,0,0:0:0:70:Clap.wav
182,192,87008,1,0,0:0:0:0:
36,192,87008,1,0,0:0:0:0:
109,192,87008,1,0,0:0:0:0:
475,192,87063,1,0,0:0:0:0:
329,192,87063,1,0,0:0:0:0:
182,192,87118,1,0,0:0:0:0:
36,192,87118,1,0,0:0:0:0:
109,192,87118,1,0,0:0:0:0:
475,192,87229,1,0,0:0:0:0:
256,192,87229,1,0,0:0:0:0:
402,192,87229,1,0,0:0:0:0:
329,192,87339,1,0,0:0:0:0:
182,192,87339,1,0,0:0:0:0:
36,192,87339,1,0,0:0:0:0:
402,192,87449,1,0,0:0:0:0:
182,192,87449,1,0,0:0:0:0:
36,192,87449,1,0,0:0:0:0:
182,192,87559,1,0,0:0:0:0:
36,192,87559,1,0,0:0:0:0:
475,192,87559,1,0,0:0:0:0:
256,192,87780,1,0,0:0:0:70:Clap.wav
36,192,87780,1,0,0:0:0:0:
402,192,87780,1,0,0:0:0:0:
402,192,87890,1,0,0:0:0:0:
109,192,87890,1,0,0:0:0:0:
182,192,88001,1,0,0:0:0:0:
402,192,88001,1,0,0:0:0:0:
475,192,88221,1,0,0:0:0:0:
329,192,88221,1,0,0:0:0:0:
109,192,88221,1,0,0:0:0:0:
475,192,88332,1,0,0:0:0:0:
329,192,88332,1,0,0:0:0:0:
109,192,88332,1,0,0:0:0:0:
36,192,88442,1,0,0:0:0:0:
182,192,88442,1,0,0:0:0:0:
402,192,88442,1,0,0:0:0:0:
109,192,88552,1,0,0:0:0:0:
256,192,88552,1,0,0:0:0:0:
475,192,88552,1,0,0:0:0:0:
329,192,88662,1,0,0:0:0:70:Clap.wav
402,192,88773,1,0,0:0:0:0:
475,192,88773,1,0,0:0:0:0:
182,192,88773,1,0,0:0:0:0:
36,192,88828,1,0,0:0:0:0:
109,192,88828,1,0,0:0:0:0:
475,192,88883,1,0,0:0:0:0:
256,192,88883,1,0,0:0:0:0:
402,192,88883,1,0,0:0:0:0:
329,192,88993,1,0,0:0:0:0:
109,192,88993,1,0,0:0:0:0:
36,192,88993,1,0,0:0:0:0:
475,192,89104,1,0,0:0:0:0:
182,192,89104,1,0,0:0:0:0:
402,192,89104,1,0,0:0:0:0:
256,192,89214,1,0,0:0:0:0:
36,192,89214,1,0,0:0:0:0:
109,192,89214,1,0,0:0:0:0:
475,192,89324,1,0,0:0:0:0:
182,192,89324,1,0,0:0:0:0:
329,192,89324,1,0,0:0:0:0:
256,192,89434,1,0,0:0:0:0:
109,192,89434,1,0,0:0:0:0:
402,192,89434,1,0,0:0:0:0:
36,192,89545,1,0,0:0:0:70:Clap.wav
256,192,89655,1,0,0:0:0:0:
475,192,89655,1,0,0:0:0:0:
402,192,89765,1,0,0:0:0:0:
182,192,89765,1,0,0:0:0:0:
329,192,89876,1,0,0:0:0:0:
109,192,89876,1,0,0:0:0:0:
36,192,89986,1,0,0:0:0:0:
256,192,89986,1,0,0:0:0:0:
475,192,89986,1,0,0:0:0:0:
256,192,90096,1,0,0:0:0:0:
475,192,90096,1,0,0:0:0:0:
36,192,90096,1,0,0:0:0:0:
402,192,90207,1,0,0:0:0:0:
109,192,90207,1,0,0:0:0:0:
182,192,90207,1,0,0:0:0:0:
329,192,90317,1,0,0:0:0:0:
36,192,90317,1,0,0:0:0:0:
475,192,90317,1,0,0:0:0:0:
182,192,90427,1,0,0:0:0:70:Clap.wav
36,192,90537,1,0,0:0:0:0:
109,192,90537,1,0,0:0:0:0:
256,192,90537,1,0,0:0:0:0:
402,192,90648,1,0,0:0:0:0:
475,192,90648,1,0,0:0:0:0:
329,192,90648,1,0,0:0:0:0:
36,192,90758,1,0,0:0:0:0:
109,192,90758,1,0,0:0:0:0:
182,192,90758,1,0,0:0:0:0:
475,192,90868,1,0,0:0:0:0:
402,192,90868,1,0,0:0:0:0:
256,192,90868,1,0,0:0:0:0:
36,192,90979,1,0,0:0:0:0:
109,192,90979,1,0,0:0:0:0:
182,192,90979,1,0,0:0:0:0:
402,192,91089,1,0,0:0:0:0:
475,192,91089,1,0,0:0:0:0:
329,192,91089,1,0,0:0:0:0:
109,192,91199,1,0,0:0:0:0:
256,192,91199,1,0,0:0:0:0:
36,192,91199,1,0,0:0:0:0:
475,192,91309,1,0,0:0:0:70:Clap.wav
402,192,91420,1,0,0:0:0:0:
182,192,91420,1,0,0:0:0:0:
329,192,91530,1,0,0:0:0:0:
109,192,91530,1,0,0:0:0:0:
256,192,91640,1,0,0:0:0:0:
36,192,91640,1,0,0:0:0:0:
182,192,91751,1,0,0:0:0:0:
475,192,91751,1,0,0:0:0:0:
402,192,91751,1,0,0:0:0:0:
475,192,91861,1,0,0:0:0:0:
402,192,91861,1,0,0:0:0:0:
182,192,91861,1,0,0:0:0:0:
329,192,91971,1,0,0:0:0:0:
109,192,91971,1,0,0:0:0:0:
36,192,91971,1,0,0:0:0:0:
475,192,92082,1,0,0:0:0:0:
402,192,92082,1,0,0:0:0:0:
182,192,92082,1,0,0:0:0:0:
329,192,92192,1,0,0:0:0:70:Clap.wav
256,192,92302,1,0,0:0:0:0:
36,192,92302,1,0,0:0:0:0:
109,192,92302,1,0,0:0:0:0:
402,192,92357,1,0,0:0:0:0:
475,192,92357,1,0,0:0:0:0:
256,192,92412,1,0,0:0:0:0:
109,192,92412,1,0,0:0:0:0:
36,192,92412,1,0,0:0:0:0:
402,192,92523,1,0,0:0:0:0:
475,192,92523,1,0,0:0:0:0:
182,192,92523,1,0,0:0:0:0:
329,192,92633,1,0,0:0:0:0:
36,192,92633,1,0,0:0:0:0:
109,192,92633,1,0,0:0:0:0:
256,192,92743,1,0,0:0:0:0:
475,192,92743,1,0,0:0:0:0:
402,192,92743,1,0,0:0:0:0:
182,192,92854,1,0,0:0:0:0:
36,192,92854,1,0,0:0:0:0:
329,192,92854,1,0,0:0:0:0:
36,192,93074,1,0,0:0:0:70:Clap.wav
182,192,93074,1,0,0:0:0:0:
329,192,93074,1,0,0:0:0:0:
109,192,93295,1,0,0:0:0:0:
256,192,93295,1,0,0:0:0:0:
182,192,93405,1,0,0:0:0:0:
329,192,93405,1,0,0:0:0:0:
36,192,93515,1,0,0:0:0:0:
402,192,93515,1,0,0:0:0:0:
256,192,93515,1,0,0:0:0:0:
36,192,93626,1,0,0:0:0:0:
402,192,93626,1,0,0:0:0:0:
256,192,93626,1,0,0:0:0:0:
329,192,93736,1,0,0:0:0:0:
109,192,93736,1,0,0:0:0:0:
475,192,93736,1,0,0:0:0:0:
182,192,93846,1,0,0:0:0:0:
402,192,93846,1,0,0:0:0:0:
36,192,93846,1,0,0:0:0:0:
256,192,93957,1,0,0:0:0:70:Clap.wav
475,192,94067,1,0,0:0:0:0:
329,192,94067,1,0,0:0:0:0:
402,192,94067,1,0,0:0:0:0:
182,192,94122,1,0,0:0:0:0:
36,192,94122,1,0,0:0:0:0:
329,192,94177,1,0,0:0:0:0:
402,192,94177,1,0,0:0:0:0:
475,192,94177,1,0,0:0:0:0:
109,192,94287,1,0,0:0:0:0:
256,192,94287,1,0,0:0:0:0:
36,192,94287,1,0,0:0:0:0:
329,192,94398,1,0,0:0:0:0:
475,192,94398,1,0,0:0:0:0:
182,192,94398,1,0,0:0:0:0:
109,192,94508,1,0,0:0:0:0:
475,192,94508,1,0,0:0:0:0:
329,192,94508,1,0,0:0:0:0:
475,192,94618,1,0,0:0:0:0:
36,192,94618,1,0,0:0:0:0:
329,192,94618,1,0,0:0:0:0:
402,192,94839,1,0,0:0:0:70:Clap.wav
182,192,94839,1,0,0:0:0:0:
36,192,94839,1,0,0:0:0:0:
329,192,94949,1,0,0:0:0:0:
36,192,94949,1,0,0:0:0:0:
256,192,95059,1,0,0:0:0:0:
36,192,95059,1,0,0:0:0:0:
256,192,95280,1,0,0:0:0:0:
109,192,95280,1,0,0:0:0:0:
402,192,95280,1,0,0:0:0:0:
402,192,95390,1,0,0:0:0:0:
109,192,95390,1,0,0:0:0:0:
256,192,95390,1,0,0:0:0:0:
329,192,95501,1,0,0:0:0:0:
36,192,95501,1,0,0:0:0:0:
182,192,95501,1,0,0:0:0:0:
402,192,95611,1,0,0:0:0:0:
256,192,95611,1,0,0:0:0:0:
109,192,95611,1,0,0:0:0:0:
475,192,95721,1,0,0:0:0:70:Clap.wav
256,192,95832,1,0,0:0:0:0:
36,192,95832,1,0,0:0:0:0:
109,192,95832,1,0,0:0:0:0:
402,192,95887,1,0,0:0:0:0:
475,192,95887,1,0,0:0:0:0:
182,192,95942,1,0,0:0:0:0:
109,192,95942,1,0,0:0:0:0:
329,192,95942,1,0,0:0:0:0:
402,192,96052,1,0,0:0:0:0:
256,192,96052,1,0,0:0:0:0:
36,192,96052,1,0,0:0:0:0:
475,192,96162,1,0,0:0:0:0:
109,192,96162,1,0,0:0:0:0:
329,192,96162,1,0,0:0:0:0:
402,192,96273,1,0,0:0:0:0:
182,192,96273,1,0,0:0:0:0:
36,192,96273,1,0,0:0:0:0:
475,192,96383,1,0,0:0:0:0:
109,192,96383,1,0,0:0:0:0:
256,192,96383,1,0,0:0:0:0:
329,192,96493,1,0,0:0:0:0:
182,192,96493,1,0,0:0:0:0:
36,192,96493,1,0,0:0:0:0:
475,192,96604,1,0,0:0:0:70:Clap.wav
329,192,96714,1,0,0:0:0:0:
109,192,96714,1,0,0:0:0:0:
402,192,96824,1,0,0:0:0:0:
182,192,96824,1,0,0:0:0:0:
256,192,96934,1,0,0:0:0:0:
475,192,96934,1,0,0:0:0:0:
329,192,97045,1,0,0:0:0:0:
36,192,97045,1,0,0:0:0:0:
182,192,97045,1,0,0:0:0:0:
329,192,97155,1,0,0:0:0:0:
36,192,97155,1,0,0:0:0:0:
182,192,97155,1,0,0:0:0:0:
256,192,97265,1,0,0:0:0:0:
109,192,97265,1,0,0:0:0:0:
402,192,97265,1,0,0:0:0:0:
475,192,97376,1,0,0:0:0:0:
182,192,97376,1,0,0:0:0:0:
329,192,97376,1,0,0:0:0:0:
36,192,97486,1,0,0:0:0:70:Clap.wav
475,192,97596,1,0,0:0:0:0:
182,192,97596,1,0,0:0:0:0:
329,192,97596,1,0,0:0:0:0:
402,192,97707,1,0,0:0:0:0:
256,192,97707,1,0,0:0:0:0:
109,192,97707,1,0,0:0:0:0:
329,192,97817,1,0,0:0:0:0:
36,192,97817,1,0,0:0:0:0:
182,192,97817,1,0,0:0:0:0:
475,192,97927,1,0,0:0:0:0:
402,192,97927,1,0,0:0:0:0:
256,192,97927,1,0,0:0:0:0:
329,192,98037,1,0,0:0:0:0:
36,192,98037,1,0,0:0:0:0:
109,192,98037,1,0,0:0:0:0:
402,192,98148,1,0,0:0:0:0:
475,192,98148,1,0,0:0:0:0:
182,192,98148,1,0,0:0:0:0:
36,192,98258,1,0,0:0:0:0:
329,192,98258,1,0,0:0:0:0:
109,192,98258,1,0,0:0:0:0:
256,192,98368,1,0,0:0:0:70:Clap.wav
182,192,98479,1,0,0:0:0:0:
36,192,98479,1,0,0:0:0:0:
329,192,98589,1,0,0:0:0:0:
475,192,98589,1,0,0:0:0:0:
36,192,98699,1,0,0:0:0:70:KicK.wav
402,192,98809,1,0,0:0:0:70:CrashL.wav
329,192,98809,1,0,0:0:0:70:KicK.wav
475,192,98809,1,0,0:0:0:0:
182,192,98809,1,0,0:0:0:0:
36,192,98809,1,0,0:0:0:0:
329,192,98920,1,0,0:0:0:0:
402,192,98920,1,0,0:0:0:0:
475,192,98920,1,0,0:0:0:0:
256,192,99030,1,0,0:0:0:0:
109,192,99030,1,0,0:0:0:0:
36,192,99030,1,0,0:0:0:0:
182,192,99140,1,0,0:0:0:0:
329,192,99140,1,0,0:0:0:0:
475,192,99140,1,0,0:0:0:0:
36,192,99251,1,0,0:0:0:70:Snare.wav
109,192,99251,1,0,0:0:0:0:
402,192,99361,1,0,0:0:0:0:
256,192,99361,1,0,0:0:0:0:
475,192,99361,1,0,0:0:0:0:
36,192,99416,1,0,0:0:0:0:
109,192,99416,1,0,0:0:0:0:
256,192,99471,1,0,0:0:0:0:
475,192,99471,1,0,0:0:0:0:
402,192,99471,1,0,0:0:0:0:
329,192,99582,1,0,0:0:0:0:
182,192,99582,1,0,0:0:0:0:
36,192,99582,1,0,0:0:0:0:
475,192,99692,1,0,0:0:0:70:Snare.wav
402,192,99692,1,0,0:0:0:0:
256,192,99692,1,0,0:0:0:0:
109,192,99692,1,0,0:0:0:0:
36,192,99802,1,0,0:0:0:0:
329,192,99802,1,0,0:0:0:0:
182,192,99802,1,0,0:0:0:0:
475,192,99912,1,0,0:0:0:0:
402,192,99912,1,0,0:0:0:0:
256,192,99912,1,0,0:0:0:0:
256,192,100133,1,0,0:0:0:70:Snare.wav
109,192,100133,1,0,0:0:0:0:
402,192,100133,1,0,0:0:0:0:
475,192,100133,1,0,0:0:0:0:
256,192,100354,1,0,0:0:0:0:
109,192,100354,1,0,0:0:0:0:
329,192,100464,1,0,0:0:0:0:
182,192,100464,1,0,0:0:0:0:
36,192,100574,1,0,0:0:0:70:CrashL.wav
109,192,100574,1,0,0:0:0:70:KicK.wav
402,192,100574,1,0,0:0:0:0:
256,192,100574,1,0,0:0:0:0:
475,192,100574,1,0,0:0:0:0:
36,192,100684,1,0,0:0:0:0:
256,192,100684,1,0,0:0:0:0:
109,192,100684,1,0,0:0:0:0:
182,192,100795,1,0,0:0:0:0:
402,192,100795,1,0,0:0:0:0:
475,192,100795,1,0,0:0:0:0:
109,192,100905,1,0,0:0:0:0:
329,192,100905,1,0,0:0:0:0:
36,192,100905,1,0,0:0:0:0:
475,192,101015,1,0,0:0:0:70:Snare.wav
256,192,101015,1,0,0:0:0:0:
182,192,101126,1,0,0:0:0:0:
329,192,101126,1,0,0:0:0:0:
36,192,101126,1,0,0:0:0:0:
475,192,101181,1,0,0:0:0:0:
402,192,101181,1,0,0:0:0:0:
329,192,101236,1,0,0:0:0:0:
36,192,101236,1,0,0:0:0:0:
182,192,101236,1,0,0:0:0:0:
109,192,101346,1,0,0:0:0:0:
475,192,101346,1,0,0:0:0:0:
256,192,101346,1,0,0:0:0:0:
36,192,101457,1,0,0:0:0:70:Snare.wav
402,192,101457,1,0,0:0:0:0:
182,192,101457,1,0,0:0:0:0:
329,192,101457,1,0,0:0:0:0:
256,192,101567,1,0,0:0:0:0:
475,192,101567,1,0,0:0:0:0:
109,192,101567,1,0,0:0:0:0:
402,192,101677,1,0,0:0:0:0:
36,192,101677,1,0,0:0:0:0:
182,192,101677,1,0,0:0:0:0:
36,192,101898,1,0,0:0:0:70:Snare.wav
182,192,101898,1,0,0:0:0:0:
402,192,101898,1,0,0:0:0:0:
475,192,101898,1,0,0:0:0:0:
182,192,102118,1,0,0:0:0:0:
329,192,102118,1,0,0:0:0:0:
402,192,102229,1,0,0:0:0:0:
256,192,102229,1,0,0:0:0:0:
182,192,102339,1,0,0:0:0:70:CrashL.wav
36,192,102339,1,0,0:0:0:70:KicK.wav
329,192,102339,1,0,0:0:0:0:
475,192,102339,1,0,0:0:0:0:
109,192,102339,1,0,0:0:0:0:
475,192,102449,1,0,0:0:0:0:
182,192,102449,1,0,0:0:0:0:
329,192,102449,1,0,0:0:0:0:
109,192,102559,1,0,0:0:0:0:
256,192,102559,1,0,0:0:0:0:
402,192,102559,1,0,0:0:0:0:
329,192,102670,1,0,0:0:0:0:
36,192,102670,1,0,0:0:0:0:
182,192,102670,1,0,0:0:0:0:
402,192,102780,1,0,0:0:0:70:Snare.wav
475,192,102780,1,0,0:0:0:0:
256,192,102890,1,0,0:0:0:0:
109,192,102890,1,0,0:0:0:0:
36,192,102890,1,0,0:0:0:0:
402,192,102946,1,0,0:0:0:0:
475,192,102946,1,0,0:0:0:0:
256,192,103001,1,0,0:0:0:0:
36,192,103001,1,0,0:0:0:0:
109,192,103001,1,0,0:0:0:0:
475,192,103111,1,0,0:0:0:0:
182,192,103111,1,0,0:0:0:0:
329,192,103111,1,0,0:0:0:0:
402,192,103221,1,0,0:0:0:70:Snare.wav
256,192,103221,1,0,0:0:0:0:
36,192,103221,1,0,0:0:0:0:
109,192,103332,1,0,0:0:0:0:
182,192,103332,1,0,0:0:0:0:
329,192,103332,1,0,0:0:0:0:
36,192,103442,1,0,0:0:0:70:Snare.wav
256,192,103442,1,0,0:0:0:0:
475,192,103442,1,0,0:0:0:0:
402,192,103442,1,0,0:0:0:0:
36,192,103662,1,0,0:0:0:70:Snare.wav
256,192,103662,1,0,0:0:0:0:
402,192,103662,1,0,0:0:0:0:
475,192,103662,1,0,0:0:0:0:
402,192,103883,1,0,0:0:0:0:
109,192,103883,1,0,0:0:0:0:
329,192,103993,1,0,0:0:0:0:
182,192,103993,1,0,0:0:0:0:
36,192,104104,1,0,0:0:0:70:CrashL.wav
109,192,104104,1,0,0:0:0:70:KicK.wav
256,192,104104,1,0,0:0:0:0:
402,192,104104,1,0,0:0:0:0:
475,192,104104,1,0,0:0:0:0:
475,192,104214,1,0,0:0:0:0:
256,192,104214,1,0,0:0:0:0:
402,192,104214,1,0,0:0:0:0:
109,192,104324,1,0,0:0:0:70:Snare.wav
329,192,104324,1,0,0:0:0:0:
182,192,104324,1,0,0:0:0:0:
36,192,104324,1,0,0:0:0:0:
475,192,104434,1,0,0:0:0:0:
256,192,104434,1,0,0:0:0:0:
402,192,104434,1,0,0:0:0:0:
36,192,104545,1,0,0:0:0:70:Snare.wav
182,192,104545,1,0,0:0:0:0:
402,192,104655,1,0,0:0:0:0:
329,192,104655,1,0,0:0:0:0:
475,192,104655,1,0,0:0:0:0:
36,192,104710,1,0,0:0:0:0:
182,192,104710,1,0,0:0:0:0:
329,192,104765,1,0,0:0:0:70:Snare.wav
402,192,104765,1,0,0:0:0:0:
475,192,104765,1,0,0:0:0:0:
256,192,104876,1,0,0:0:0:0:
109,192,104876,1,0,0:0:0:0:
36,192,104876,1,0,0:0:0:0:
475,192,104986,1,0,0:0:0:70:Snare.wav
329,192,104986,1,0,0:0:0:0:
182,192,104986,1,0,0:0:0:0:
402,192,104986,1,0,0:0:0:0:
329,192,105096,1,0,0:0:0:0:
182,192,105096,1,0,0:0:0:0:
36,192,105096,1,0,0:0:0:0:
109,192,105207,1,0,0:0:0:70:Snare.wav
256,192,105207,1,0,0:0:0:0:
475,192,105207,1,0,0:0:0:0:
402,192,105207,1,0,0:0:0:0:
109,192,105427,1,0,0:0:0:70:Snare.wav
256,192,105427,1,0,0:0:0:0:
402,192,105427,1,0,0:0:0:0:
475,192,105427,1,0,0:0:0:0:
329,192,105648,1,0,0:0:0:0:
182,192,105648,1,0,0:0:0:0:
402,192,105758,1,0,0:0:0:0:
256,192,105758,1,0,0:0:0:0:
182,192,105868,1,0,0:0:0:70:CrashL.wav
36,192,105868,1,0,0:0:0:70:KicK.wav
109,192,105868,1,0,0:0:0:0:
475,192,105868,1,0,0:0:0:0:
329,192,105868,1,0,0:0:0:0:
109,192,105979,1,0,0:0:0:0:
182,192,105979,1,0,0:0:0:0:
36,192,105979,1,0,0:0:0:0:
329,192,106089,1,0,0:0:0:70:Snare.wav
402,192,106089,1,0,0:0:0:0:
475,192,106089,1,0,0:0:0:0:
36,192,106199,1,0,0:0:0:0:
256,192,106199,1,0,0:0:0:0:
109,192,106199,1,0,0:0:0:0:
402,192,106309,1,0,0:0:0:70:Snare.wav
475,192,106309,1,0,0:0:0:0:
109,192,106420,1,0,0:0:0:0:
36,192,106420,1,0,0:0:0:0:
256,192,106420,1,0,0:0:0:0:
475,192,106475,1,0,0:0:0:0:
402,192,106475,1,0,0:0:0:0:
109,192,106530,1,0,0:0:0:70:Snare.wav
36,192,106530,1,0,0:0:0:0:
256,192,106530,1,0,0:0:0:0:
402,192,106640,1,0,0:0:0:0:
329,192,106640,1,0,0:0:0:0:
475,192,106640,1,0,0:0:0:0:
36,192,106751,1,0,0:0:0:70:CrashL.wav
329,192,106751,1,0,0:0:0:70:KicK.wav
182,192,106751,1,0,0:0:0:0:
109,192,106751,1,0,0:0:0:0:
402,192,106751,1,0,0:0:0:0:
182,192,106861,1,0,0:0:0:0:
36,192,106861,1,0,0:0:0:0:
109,192,106861,1,0,0:0:0:0:
329,192,106971,1,0,0:0:0:70:Snare.wav
475,192,106971,1,0,0:0:0:0:
402,192,106971,1,0,0:0:0:0:
109,192,107082,1,0,0:0:0:0:
256,192,107082,1,0,0:0:0:0:
36,192,107082,1,0,0:0:0:0:
402,192,107192,1,0,0:0:0:70:Snare.wav
475,192,107192,1,0,0:0:0:0:
109,192,107302,1,0,0:0:0:0:
36,192,107302,1,0,0:0:0:0:
256,192,107302,1,0,0:0:0:0:
402,192,107357,1,0,0:0:0:0:
475,192,107357,1,0,0:0:0:0:
109,192,107412,1,0,0:0:0:70:Snare.wav
256,192,107412,1,0,0:0:0:0:
36,192,107412,1,0,0:0:0:0:
329,192,107523,1,0,0:0:0:0:
402,192,107523,1,0,0:0:0:0:
475,192,107523,1,0,0:0:0:0:
36,192,107633,1,0,0:0:0:70:CrashL.wav
182,192,107633,1,0,0:0:0:70:KicK.wav
109,192,107633,1,0,0:0:0:0:
329,192,107633,1,0,0:0:0:0:
402,192,107633,1,0,0:0:0:0:
109,192,107743,1,0,0:0:0:0:
182,192,107743,1,0,0:0:0:0:
36,192,107743,1,0,0:0:0:0:
329,192,107854,1,0,0:0:0:70:Snare.wav
402,192,107854,1,0,0:0:0:0:
475,192,107854,1,0,0:0:0:0:
36,192,107964,1,0,0:0:0:0:
256,192,107964,1,0,0:0:0:0:
109,192,107964,1,0,0:0:0:0:
402,192,108074,1,0,0:0:0:70:Snare.wav
475,192,108074,1,0,0:0:0:0:
256,192,108184,1,0,0:0:0:0:
36,192,108184,1,0,0:0:0:0:
109,192,108184,1,0,0:0:0:0:
475,192,108240,1,0,0:0:0:0:
402,192,108240,1,0,0:0:0:0:
109,192,108295,1,0,0:0:0:70:Snare.wav
36,192,108295,1,0,0:0:0:0:
256,192,108295,1,0,0:0:0:0:
402,192,108405,1,0,0:0:0:0:
329,192,108405,1,0,0:0:0:0:
475,192,108405,1,0,0:0:0:0:
36,192,108515,1,0,0:0:0:70:CrashL.wav
329,192,108515,1,0,0:0:0:70:KicK.wav
182,192,108515,1,0,0:0:0:0:
109,192,108515,1,0,0:0:0:0:
402,192,108515,1,0,0:0:0:0:
182,192,108626,1,0,0:0:0:0:
36,192,108626,1,0,0:0:0:0:
109,192,108626,1,0,0:0:0:0:
329,192,108736,1,0,0:0:0:70:Snare.wav
475,192,108736,1,0,0:0:0:0:
402,192,108736,1,0,0:0:0:0:
109,192,108846,1,0,0:0:0:0:
256,192,108846,1,0,0:0:0:0:
36,192,108846,1,0,0:0:0:0:
402,192,108957,1,0,0:0:0:70:Snare.wav
475,192,108957,1,0,0:0:0:0:
109,192,109067,1,0,0:0:0:0:
36,192,109067,1,0,0:0:0:0:
256,192,109067,1,0,0:0:0:0:
402,192,109122,1,0,0:0:0:0:
475,192,109122,1,0,0:0:0:0:
109,192,109177,1,0,0:0:0:70:Snare.wav
256,192,109177,1,0,0:0:0:0:
36,192,109177,1,0,0:0:0:0:
329,192,109287,1,0,0:0:0:0:
402,192,109287,1,0,0:0:0:0:
475,192,109287,1,0,0:0:0:0:
36,192,109398,1,0,0:0:0:70:CrashL.wav
182,192,109398,1,0,0:0:0:70:KicK.wav
329,192,109398,1,0,0:0:0:0:
109,192,109398,1,0,0:0:0:0:
402,192,109398,1,0,0:0:0:0:
182,192,109508,1,0,0:0:0:0:
36,192,109508,1,0,0:0:0:0:
109,192,109508,1,0,0:0:0:0:
256,192,109618,1,0,0:0:0:70:KicK.wav
402,192,109618,1,0,0:0:0:0:
329,192,109618,1,0,0:0:0:0:
475,192,109618,1,0,0:0:0:0:
182,192,109729,1,0,0:0:0:0:
109,192,109729,1,0,0:0:0:0:
36,192,109729,1,0,0:0:0:0:
36,192,109839,1,0,0:0:0:70:CrashL.wav
182,192,109839,1,0,0:0:0:70:KicK.wav
329,192,109839,1,0,0:0:0:0:
109,192,109839,1,0,0:0:0:0:
402,192,109839,1,0,0:0:0:0:
402,192,109949,1,0,0:0:0:0:
475,192,109949,1,0,0:0:0:0:
329,192,109949,1,0,0:0:0:0:
182,192,110059,1,0,0:0:0:70:KicK.wav
36,192,110059,1,0,0:0:0:0:
256,192,110059,1,0,0:0:0:0:
109,192,110059,1,0,0:0:0:0:
329,192,110170,1,0,0:0:0:0:
475,192,110170,1,0,0:0:0:0:
402,192,110170,1,0,0:0:0:0:
182,192,110280,1,0,0:0:0:70:CrashL.wav
36,192,110280,1,0,0:0:0:70:KicK.wav
402,192,110280,1,0,0:0:0:0:
475,192,110280,1,0,0:0:0:0:
109,192,110280,1,0,0:0:0:0:
182,192,110390,1,0,0:0:0:0:
109,192,110390,1,0,0:0:0:0:
36,192,110390,1,0,0:0:0:0:
256,192,110501,1,0,0:0:0:70:KicK.wav
329,192,110501,1,0,0:0:0:0:
475,192,110501,1,0,0:0:0:0:
402,192,110501,1,0,0:0:0:0:
182,192,110611,1,0,0:0:0:0:
109,192,110611,1,0,0:0:0:0:
36,192,110611,1,0,0:0:0:0:
182,192,110721,1,0,0:0:0:70:CrashL.wav
109,192,110721,1,0,0:0:0:70:KicK.wav
36,192,110721,1,0,0:0:0:0:
329,192,110721,1,0,0:0:0:0:
402,192,110721,1,0,0:0:0:0:
475,192,110832,1,0,0:0:0:0:
402,192,110832,1,0,0:0:0:0:
329,192,110832,1,0,0:0:0:0:
109,192,110942,1,0,0:0:0:70:KicK.wav
36,192,110942,1,0,0:0:0:0:
256,192,110942,1,0,0:0:0:0:
182,192,110942,1,0,0:0:0:0:
329,192,111052,1,0,0:0:0:0:
402,192,111052,1,0,0:0:0:0:
475,192,111052,1,0,0:0:0:0:
36,192,111162,1,0,0:0:0:70:CrashL.wav
475,192,111162,1,0,0:0:0:70:KicK.wav
402,192,111162,1,0,0:0:0:0:
109,192,111162,1,0,0:0:0:0:
182,192,111162,1,0,0:0:0:0:
109,192,111273,1,0,0:0:0:70:KicK.wav
36,192,111273,1,0,0:0:0:0:
182,192,111273,1,0,0:0:0:0:
329,192,111273,1,0,0:0:0:0:
256,192,111383,1,0,0:0:0:70:KicK.wav
329,192,111383,1,0,0:0:0:0:
402,192,111383,1,0,0:0:0:0:
475,192,111383,1,0,0:0:0:0:
182,192,111493,1,0,0:0:0:70:KicK.wav
109,192,111493,1,0,0:0:0:0:
36,192,111493,1,0,0:0:0:0:
256,192,111493,1,0,0:0:0:0:
329,192,111604,1,0,0:0:0:70:CrashL.wav
402,192,111604,1,0,0:0:0:70:KicK.wav
475,192,111604,1,0,0:0:0:0:
36,192,111604,1,0,0:0:0:0:
329,192,111714,1,0,0:0:0:70:KicK.wav
182,192,111714,1,0,0:0:0:0:
475,192,111714,1,0,0:0:0:0:
402,192,111714,1,0,0:0:0:0:
256,192,111824,1,0,0:0:0:70:KicK.wav
182,192,111824,1,0,0:0:0:0:
36,192,111824,1,0,0:0:0:0:
109,192,111824,1,0,0:0:0:0:
256,192,111934,1,0,0:0:0:70:KicK.wav
329,192,111934,1,0,0:0:0:0:
402,192,111934,1,0,0:0:0:0:
475,192,111934,1,0,0:0:0:0:
109,192,112045,1,0,0:0:0:70:CrashL.wav
475,192,112045,1,0,0:0:0:70:KicK.wav
182,192,112045,1,0,0:0:0:0:
36,192,112045,1,0,0:0:0:0:
109,192,112155,1,0,0:0:0:70:KicK.wav
182,192,112155,1,0,0:0:0:0:
329,192,112155,1,0,0:0:0:0:
36,192,112155,1,0,0:0:0:0:
475,192,112265,1,0,0:0:0:70:KicK.wav
256,192,112265,1,0,0:0:0:0:
402,192,112265,1,0,0:0:0:0:
329,192,112265,1,0,0:0:0:0:
182,192,112376,1,0,0:0:0:70:KicK.wav
256,192,112376,1,0,0:0:0:0:
36,192,112376,1,0,0:0:0:0:
109,192,112376,1,0,0:0:0:0:
36,192,112486,1,0,0:0:0:70:CrashL.wav
402,192,112486,1,0,0:0:0:70:KicK.wav
329,192,112486,1,0,0:0:0:0:
475,192,112486,1,0,0:0:0:0:
329,192,112596,1,0,0:0:0:70:KicK.wav
182,192,112596,1,0,0:0:0:0:
402,192,112596,1,0,0:0:0:0:
475,192,112596,1,0,0:0:0:0:
36,192,112707,1,0,0:0:0:70:KicK.wav
182,192,112707,1,0,0:0:0:0:
256,192,112707,1,0,0:0:0:0:
109,192,112707,1,0,0:0:0:0:
402,192,112817,1,0,0:0:0:70:KicK.wav
256,192,112817,1,0,0:0:0:0:
475,192,112817,1,0,0:0:0:0:
329,192,112817,1,0,0:0:0:0:
329,192,112927,128,0,114692:0:0:0:70:CrashL.wav
402,192,112927,128,0,114692:0:0:0:70:KicK.wav
475,192,112927,128,0,114692:0:0:0:0:
182,192,112927,128,0,114692:0:0:0:0:
109,192,112927,128,0,114692:0:0:0:0:
36,192,112927,128,0,114692:0:0:0:0:
256,192,114692,1,0,0:0:0:70:Snare.wav
182,192,116015,128,0,116346:0:0:0:70:Clap-2.wav
36,192,116015,128,0,116346:0:0:0:0:
36,192,116457,1,0,0:0:0:70:CrashL.wav
109,192,116457,1,0,0:0:0:70:KicK.wav
475,192,116457,1,0,0:0:0:0:
329,192,116457,1,0,0:0:0:0:
402,192,116457,1,0,0:0:0:0:
109,192,116567,1,0,0:0:0:0:
36,192,116567,1,0,0:0:0:0:
256,192,116567,1,0,0:0:0:0:
182,192,116677,1,0,0:0:0:0:
475,192,116677,1,0,0:0:0:0:
329,192,116677,1,0,0:0:0:0:
329,192,116787,1,0,0:0:0:0:
36,192,116787,1,0,0:0:0:0:
475,192,116787,1,0,0:0:0:0:
109,192,116898,1,0,0:0:0:70:Snare.wav
256,192,116898,1,0,0:0:0:0:
475,192,117008,1,0,0:0:0:0:
182,192,117008,1,0,0:0:0:0:
402,192,117008,1,0,0:0:0:0:
36,192,117063,1,0,0:0:0:0:
329,192,117063,1,0,0:0:0:0:
475,192,117118,1,0,0:0:0:0:
402,192,117118,1,0,0:0:0:0:
182,192,117118,1,0,0:0:0:0:
256,192,117229,1,0,0:0:0:0:
109,192,117229,1,0,0:0:0:0:
36,192,117229,1,0,0:0:0:0:
329,192,117339,1,0,0:0:0:70:KicK.wav
402,192,117339,1,0,0:0:0:0:
475,192,117339,1,0,0:0:0:0:
182,192,117339,1,0,0:0:0:0:
36,192,117449,1,0,0:0:0:0:
329,192,117449,1,0,0:0:0:0:
182,192,117449,1,0,0:0:0:0:
109,192,117559,1,0,0:0:0:0:
256,192,117559,1,0,0:0:0:0:
402,192,117559,1,0,0:0:0:0:
475,192,117670,1,0,0:0:0:0:
36,192,117780,1,0,0:0:0:70:Snare.wav
402,192,117780,1,0,0:0:0:0:
256,192,117780,1,0,0:0:0:0:
109,192,117780,1,0,0:0:0:0:
182,192,117890,1,0,0:0:0:0:
475,192,118001,1,0,0:0:0:0:
256,192,118001,1,0,0:0:0:0:
36,192,118001,1,0,0:0:0:0:
329,192,118111,1,0,0:0:0:0:
109,192,118111,1,0,0:0:0:0:
402,192,118221,1,0,0:0:0:70:KicK.wav
36,192,118221,1,0,0:0:0:0:
182,192,118221,1,0,0:0:0:0:
475,192,118221,1,0,0:0:0:0:
256,192,118332,1,0,0:0:0:0:
402,192,118332,1,0,0:0:0:0:
475,192,118332,1,0,0:0:0:0:
329,192,118442,1,0,0:0:0:0:
109,192,118442,1,0,0:0:0:0:
36,192,118442,1,0,0:0:0:0:
36,192,118552,1,0,0:0:0:0:
109,192,118552,1,0,0:0:0:0:
256,192,118552,1,0,0:0:0:0:
182,192,118662,1,0,0:0:0:70:Snare.wav
402,192,118662,1,0,0:0:0:0:
475,192,118773,1,0,0:0:0:0:
329,192,118773,1,0,0:0:0:0:
36,192,118773,1,0,0:0:0:0:
109,192,118828,1,0,0:0:0:0:
256,192,118828,1,0,0:0:0:0:
329,192,118883,1,0,0:0:0:0:
475,192,118883,1,0,0:0:0:0:
36,192,118883,1,0,0:0:0:0:
109,192,118993,1,0,0:0:0:0:
402,192,118993,1,0,0:0:0:0:
256,192,118993,1,0,0:0:0:0:
182,192,119104,1,0,0:0:0:70:KicK.wav
36,192,119104,1,0,0:0:0:0:
475,192,119104,1,0,0:0:0:0:
329,192,119104,1,0,0:0:0:0:
402,192,119214,1,0,0:0:0:0:
36,192,119214,1,0,0:0:0:0:
182,192,119214,1,0,0:0:0:0:
182,192,119324,1,0,0:0:0:0:
36,192,119324,1,0,0:0:0:0:
475,192,119324,1,0,0:0:0:0:
36,192,119545,1,0,0:0:0:70:Snare.wav
329,192,119545,1,0,0:0:0:0:
475,192,119545,1,0,0:0:0:0:
109,192,119545,1,0,0:0:0:0:
475,192,119655,1,0,0:0:0:0:
329,192,119655,1,0,0:0:0:0:
182,192,119655,1,0,0:0:0:0:
109,192,119765,1,0,0:0:0:0:
329,192,119765,1,0,0:0:0:0:
475,192,119765,1,0,0:0:0:0:
182,192,119986,1,0,0:0:0:70:KicK.wav
475,192,119986,1,0,0:0:0:0:
36,192,119986,1,0,0:0:0:0:
329,192,119986,1,0,0:0:0:0:
182,192,120096,1,0,0:0:0:0:
402,192,120096,1,0,0:0:0:0:
36,192,120096,1,0,0:0:0:0:
256,192,120207,1,0,0:0:0:0:
475,192,120207,1,0,0:0:0:0:
109,192,120207,1,0,0:0:0:0:
475,192,120317,1,0,0:0:0:0:
256,192,120317,1,0,0:0:0:0:
36,192,120317,1,0,0:0:0:0:
402,192,120427,1,0,0:0:0:70:Snare.wav
182,192,120427,1,0,0:0:0:0:
329,192,120537,1,0,0:0:0:0:
36,192,120537,1,0,0:0:0:0:
109,192,120537,1,0,0:0:0:0:
402,192,120593,1,0,0:0:0:0:
475,192,120593,1,0,0:0:0:0:
329,192,120648,1,0,0:0:0:0:
109,192,120648,1,0,0:0:0:0:
36,192,120648,1,0,0:0:0:0:
256,192,120758,1,0,0:0:0:0:
402,192,120758,1,0,0:0:0:0:
475,192,120758,1,0,0:0:0:0:
182,192,120868,1,0,0:0:0:70:KicK.wav
109,192,120868,1,0,0:0:0:0:
36,192,120868,1,0,0:0:0:0:
329,192,120868,1,0,0:0:0:0:
329,192,120979,1,0,0:0:0:0:
182,192,120979,1,0,0:0:0:0:
36,192,121089,1,0,0:0:0:0:
256,192,121089,1,0,0:0:0:0:
402,192,121089,1,0,0:0:0:0:
109,192,121199,1,0,0:0:0:0:
329,192,121199,1,0,0:0:0:0:
475,192,121199,1,0,0:0:0:0:
182,192,121309,1,0,0:0:0:70:Snare.wav
36,192,121309,1,0,0:0:0:0:
475,192,121420,1,0,0:0:0:0:
329,192,121420,1,0,0:0:0:0:
36,192,121530,1,0,0:0:0:0:
256,192,121530,1,0,0:0:0:0:
402,192,121530,1,0,0:0:0:0:
329,192,121640,1,0,0:0:0:0:
182,192,121640,1,0,0:0:0:0:
475,192,121751,1,0,0:0:0:70:KicK.wav
256,192,121751,1,0,0:0:0:0:
109,192,121751,1,0,0:0:0:0:
36,192,121751,1,0,0:0:0:0:
109,192,121861,1,0,0:0:0:0:
36,192,121861,1,0,0:0:0:0:
402,192,121861,1,0,0:0:0:0:
329,192,121971,1,0,0:0:0:0:
182,192,121971,1,0,0:0:0:0:
475,192,121971,1,0,0:0:0:0:
475,192,122082,1,0,0:0:0:0:
329,192,122082,1,0,0:0:0:0:
109,192,122082,1,0,0:0:0:0:
36,192,122192,1,0,0:0:0:70:Snare.wav
256,192,122192,1,0,0:0:0:0:
182,192,122302,1,0,0:0:0:0:
475,192,122302,1,0,0:0:0:0:
329,192,122302,1,0,0:0:0:0:
402,192,122412,1,0,0:0:0:0:
109,192,122412,1,0,0:0:0:0:
36,192,122412,1,0,0:0:0:0:
475,192,122523,1,0,0:0:0:0:
329,192,122523,1,0,0:0:0:0:
182,192,122523,1,0,0:0:0:0:
256,192,122633,1,0,0:0:0:70:KicK.wav
109,192,122633,1,0,0:0:0:0:
36,192,122633,1,0,0:0:0:0:
402,192,122633,1,0,0:0:0:0:
36,192,122743,1,0,0:0:0:0:
109,192,122743,1,0,0:0:0:0:
256,192,122743,1,0,0:0:0:0:
329,192,122854,1,0,0:0:0:0:
182,192,122854,1,0,0:0:0:0:
475,192,122854,1,0,0:0:0:0:
329,192,122964,1,0,0:0:0:0:
475,192,122964,1,0,0:0:0:0:
182,192,122964,1,0,0:0:0:0:
109,192,123074,1,0,0:0:0:70:Snare.wav
36,192,123074,1,0,0:0:0:0:
402,192,123184,1,0,0:0:0:0:
256,192,123184,1,0,0:0:0:0:
109,192,123295,1,0,0:0:0:0:
36,192,123295,1,0,0:0:0:0:
475,192,123295,1,0,0:0:0:0:
256,192,123405,1,0,0:0:0:0:
402,192,123405,1,0,0:0:0:0:
182,192,123515,1,0,0:0:0:70:KicK.wav
329,192,123515,1,0,0:0:0:0:
475,192,123515,1,0,0:0:0:0:
36,192,123515,1,0,0:0:0:0:
36,192,123626,1,0,0:0:0:0:
182,192,123626,1,0,0:0:0:0:
402,192,123626,1,0,0:0:0:0:
256,192,123736,1,0,0:0:0:0:
475,192,123736,1,0,0:0:0:0:
109,192,123736,1,0,0:0:0:0:
329,192,123846,1,0,0:0:0:0:
475,192,123846,1,0,0:0:0:0:
109,192,123846,1,0,0:0:0:0:
402,192,123957,1,0,0:0:0:70:Snare.wav
182,192,123957,1,0,0:0:0:0:
329,192,124067,1,0,0:0:0:0:
109,192,124067,1,0,0:0:0:0:
36,192,124067,1,0,0:0:0:0:
182,192,124122,1,0,0:0:0:0:
475,192,124122,1,0,0:0:0:0:
329,192,124177,1,0,0:0:0:0:
109,192,124177,1,0,0:0:0:0:
36,192,124177,1,0,0:0:0:0:
402,192,124287,1,0,0:0:0:0:
475,192,124287,1,0,0:0:0:0:
256,192,124287,1,0,0:0:0:0:
36,192,124398,1,0,0:0:0:70:KicK.wav
182,192,124398,1,0,0:0:0:0:
329,192,124398,1,0,0:0:0:0:
109,192,124398,1,0,0:0:0:0:
109,192,124508,1,0,0:0:0:0:
182,192,124508,1,0,0:0:0:0:
402,192,124508,1,0,0:0:0:0:
475,192,124618,1,0,0:0:0:0:
256,192,124618,1,0,0:0:0:0:
36,192,124618,1,0,0:0:0:0:
329,192,124729,1,0,0:0:0:0:
402,192,124839,1,0,0:0:0:70:Snare.wav
182,192,124839,1,0,0:0:0:0:
36,192,124839,1,0,0:0:0:0:
475,192,124839,1,0,0:0:0:0:
109,192,124949,1,0,0:0:0:0:
36,192,125059,1,0,0:0:0:0:
256,192,125059,1,0,0:0:0:0:
475,192,125059,1,0,0:0:0:0:
402,192,125170,1,0,0:0:0:0:
182,192,125170,1,0,0:0:0:0:
109,192,125280,1,0,0:0:0:70:KicK.wav
475,192,125280,1,0,0:0:0:0:
329,192,125280,1,0,0:0:0:0:
36,192,125280,1,0,0:0:0:0:
109,192,125390,1,0,0:0:0:0:
36,192,125390,1,0,0:0:0:0:
256,192,125390,1,0,0:0:0:0:
182,192,125501,1,0,0:0:0:0:
475,192,125501,1,0,0:0:0:0:
329,192,125501,1,0,0:0:0:0:
36,192,125611,1,0,0:0:0:0:
475,192,125611,1,0,0:0:0:0:
182,192,125611,1,0,0:0:0:0:
402,192,125721,1,0,0:0:0:70:Snare.wav
256,192,125721,1,0,0:0:0:0:
182,192,125832,1,0,0:0:0:0:
109,192,125832,1,0,0:0:0:0:
329,192,125832,1,0,0:0:0:0:
36,192,125887,1,0,0:0:0:0:
475,192,125887,1,0,0:0:0:0:
329,192,125942,1,0,0:0:0:0:
182,192,125942,1,0,0:0:0:0:
109,192,125942,1,0,0:0:0:0:
256,192,126052,1,0,0:0:0:0:
402,192,126052,1,0,0:0:0:0:
36,192,126052,1,0,0:0:0:0:
475,192,126162,1,0,0:0:0:70:KicK.wav
182,192,126162,1,0,0:0:0:0:
329,192,126162,1,0,0:0:0:0:
109,192,126162,1,0,0:0:0:0:
109,192,126273,1,0,0:0:0:0:
402,192,126273,1,0,0:0:0:0:
182,192,126273,1,0,0:0:0:0:
475,192,126383,1,0,0:0:0:0:
109,192,126383,1,0,0:0:0:0:
182,192,126383,1,0,0:0:0:0:
402,192,126604,1,0,0:0:0:70:Snare.wav
109,192,126604,1,0,0:0:0:0:
36,192,126604,1,0,0:0:0:0:
329,192,126604,1,0,0:0:0:0:
182,192,126714,1,0,0:0:0:0:
329,192,126714,1,0,0:0:0:0:
402,192,126714,1,0,0:0:0:0:
402,192,126824,1,0,0:0:0:0:
329,192,126824,1,0,0:0:0:0:
109,192,126824,1,0,0:0:0:0:
182,192,127045,1,0,0:0:0:70:KicK.wav
36,192,127045,1,0,0:0:0:0:
329,192,127045,1,0,0:0:0:0:
475,192,127045,1,0,0:0:0:0:
475,192,127155,1,0,0:0:0:0:
36,192,127155,1,0,0:0:0:0:
256,192,127155,1,0,0:0:0:0:
329,192,127265,1,0,0:0:0:0:
402,192,127265,1,0,0:0:0:0:
109,192,127265,1,0,0:0:0:0:
182,192,127376,1,0,0:0:0:0:
402,192,127376,1,0,0:0:0:0:
329,192,127376,1,0,0:0:0:0:
256,192,127486,1,0,0:0:0:70:Snare.wav
36,192,127486,1,0,0:0:0:0:
402,192,127596,1,0,0:0:0:0:
475,192,127596,1,0,0:0:0:0:
182,192,127596,1,0,0:0:0:0:
329,192,127651,1,0,0:0:0:0:
36,192,127651,1,0,0:0:0:0:
182,192,127707,1,0,0:0:0:0:
402,192,127707,1,0,0:0:0:0:
475,192,127707,1,0,0:0:0:0:
256,192,127817,1,0,0:0:0:0:
36,192,127817,1,0,0:0:0:0:
109,192,127817,1,0,0:0:0:0:
475,192,127927,1,0,0:0:0:70:KicK.wav
329,192,127927,1,0,0:0:0:0:
182,192,127927,1,0,0:0:0:0:
402,192,127927,1,0,0:0:0:0:
182,192,128037,1,0,0:0:0:0:
329,192,128037,1,0,0:0:0:0:
475,192,128148,1,0,0:0:0:0:
256,192,128148,1,0,0:0:0:0:
109,192,128148,1,0,0:0:0:0:
402,192,128258,1,0,0:0:0:0:
182,192,128258,1,0,0:0:0:0:
36,192,128258,1,0,0:0:0:0:
475,192,128368,1,0,0:0:0:70:Snare.wav
329,192,128368,1,0,0:0:0:0:
182,192,128479,1,0,0:0:0:0:
36,192,128479,1,0,0:0:0:0:
475,192,128589,1,0,0:0:0:0:
256,192,128589,1,0,0:0:0:0:
109,192,128589,1,0,0:0:0:0:
329,192,128699,1,0,0:0:0:0:
182,192,128699,1,0,0:0:0:0:
36,192,128809,1,0,0:0:0:70:KicK.wav
475,192,128809,1,0,0:0:0:0:
402,192,128809,1,0,0:0:0:0:
256,192,128809,1,0,0:0:0:0:
182,192,128920,1,0,0:0:0:0:
36,192,128920,1,0,0:0:0:0:
402,192,128920,1,0,0:0:0:0:
475,192,129030,1,0,0:0:0:0:
109,192,129030,1,0,0:0:0:0:
329,192,129030,1,0,0:0:0:0:
109,192,129140,1,0,0:0:0:0:
256,192,129140,1,0,0:0:0:0:
475,192,129140,1,0,0:0:0:0:
402,192,129251,1,0,0:0:0:70:Snare.wav
182,192,129251,1,0,0:0:0:0:
329,192,129361,1,0,0:0:0:0:
36,192,129361,1,0,0:0:0:0:
109,192,129361,1,0,0:0:0:0:
256,192,129471,1,0,0:0:0:0:
475,192,129471,1,0,0:0:0:0:
402,192,129471,1,0,0:0:0:0:
36,192,129582,1,0,0:0:0:0:
329,192,129582,1,0,0:0:0:0:
182,192,129582,1,0,0:0:0:0:
402,192,129692,1,0,0:0:0:70:KicK.wav
475,192,129692,1,0,0:0:0:0:
256,192,129692,1,0,0:0:0:0:
109,192,129692,1,0,0:0:0:0:
475,192,129802,1,0,0:0:0:0:
402,192,129802,1,0,0:0:0:0:
256,192,129802,1,0,0:0:0:0:
36,192,129912,1,0,0:0:0:0:
182,192,129912,1,0,0:0:0:0:
329,192,129912,1,0,0:0:0:0:
182,192,130023,1,0,0:0:0:0:
36,192,130023,1,0,0:0:0:0:
329,192,130023,1,0,0:0:0:0:
402,192,130133,1,0,0:0:0:70:Snare.wav
475,192,130133,1,0,0:0:0:0:
109,192,130243,1,0,0:0:0:0:
256,192,130243,1,0,0:0:0:0:
182,192,130354,1,0,0:0:0:0:
36,192,130354,1,0,0:0:0:0:
329,192,130354,1,0,0:0:0:0:
475,192,130354,1,0,0:0:0:0:
475,192,130574,1,0,0:0:0:70:CrashL.wav
36,192,130574,1,0,0:0:0:70:KicK.wav
256,192,130574,1,0,0:0:0:0:
402,192,130574,1,0,0:0:0:0:
109,192,130574,1,0,0:0:0:0:
109,192,130684,1,0,0:0:0:0:
329,192,130684,1,0,0:0:0:0:
36,192,130684,1,0,0:0:0:0:
36,192,130795,1,0,0:0:0:0:
109,192,130795,1,0,0:0:0:0:
402,192,130795,1,0,0:0:0:0:
329,192,130905,1,0,0:0:0:0:
475,192,130905,1,0,0:0:0:0:
182,192,130905,1,0,0:0:0:0:
36,192,131015,1,0,0:0:0:70:Snare.wav
256,192,131015,1,0,0:0:0:0:
402,192,131126,1,0,0:0:0:0:
182,192,131126,1,0,0:0:0:0:
329,192,131126,1,0,0:0:0:0:
109,192,131181,1,0,0:0:0:0:
475,192,131181,1,0,0:0:0:0:
36,192,131181,1,0,0:0:0:0:
329,192,131236,1,0,0:0:0:0:
402,192,131236,1,0,0:0:0:0:
182,192,131236,1,0,0:0:0:0:
256,192,131346,1,0,0:0:0:0:
475,192,131346,1,0,0:0:0:0:
36,192,131346,1,0,0:0:0:0:
329,192,131457,1,0,0:0:0:70:KicK.wav
182,192,131457,1,0,0:0:0:0:
109,192,131457,1,0,0:0:0:0:
402,192,131457,1,0,0:0:0:0:
109,192,131567,1,0,0:0:0:0:
182,192,131567,1,0,0:0:0:0:
475,192,131567,1,0,0:0:0:0:
329,192,131677,1,0,0:0:0:0:
36,192,131677,1,0,0:0:0:0:
475,192,131677,1,0,0:0:0:0:
182,192,131787,1,0,0:0:0:0:
256,192,131898,1,0,0:0:0:70:Snare.wav
475,192,131898,1,0,0:0:0:0:
36,192,131898,1,0,0:0:0:0:
402,192,131898,1,0,0:0:0:0:
109,192,132008,1,0,0:0:0:0:
475,192,132118,1,0,0:0:0:0:
182,192,132118,1,0,0:0:0:0:
402,192,132118,1,0,0:0:0:0:
109,192,132229,1,0,0:0:0:0:
329,192,132229,1,0,0:0:0:0:
402,192,132339,1,0,0:0:0:70:KicK.wav
475,192,132339,1,0,0:0:0:0:
256,192,132339,1,0,0:0:0:0:
36,192,132339,1,0,0:0:0:0:
402,192,132449,1,0,0:0:0:0:
109,192,132449,1,0,0:0:0:0:
475,192,132449,1,0,0:0:0:0:
402,192,132559,1,0,0:0:0:0:
475,192,132559,1,0,0:0:0:0:
182,192,132559,1,0,0:0:0:0:
109,192,132670,1,0,0:0:0:0:
36,192,132670,1,0,0:0:0:0:
256,192,132670,1,0,0:0:0:0:
329,192,132780,1,0,0:0:0:70:Snare.wav
475,192,132780,1,0,0:0:0:0:
109,192,132890,1,0,0:0:0:0:
256,192,132890,1,0,0:0:0:0:
36,192,132890,1,0,0:0:0:0:
475,192,132946,1,0,0:0:0:0:
402,192,132946,1,0,0:0:0:0:
329,192,132946,1,0,0:0:0:0:
182,192,133001,1,0,0:0:0:0:
36,192,133001,1,0,0:0:0:0:
109,192,133001,1,0,0:0:0:0:
256,192,133111,1,0,0:0:0:0:
402,192,133111,1,0,0:0:0:0:
475,192,133111,1,0,0:0:0:0:
109,192,133221,1,0,0:0:0:70:KicK.wav
36,192,133221,1,0,0:0:0:0:
329,192,133221,1,0,0:0:0:0:
182,192,133221,1,0,0:0:0:0:
329,192,133332,1,0,0:0:0:0:
475,192,133332,1,0,0:0:0:0:
182,192,133332,1,0,0:0:0:0:
182,192,133442,1,0,0:0:0:0:
36,192,133442,1,0,0:0:0:0:
329,192,133442,1,0,0:0:0:0:
256,192,133662,1,0,0:0:0:70:Snare.wav
402,192,133662,1,0,0:0:0:0:
36,192,133662,1,0,0:0:0:0:
109,192,133662,1,0,0:0:0:0:
402,192,133773,1,0,0:0:0:0:
36,192,133773,1,0,0:0:0:0:
109,192,133773,1,0,0:0:0:0:
109,192,133883,1,0,0:0:0:0:
36,192,133883,1,0,0:0:0:0:
402,192,133883,1,0,0:0:0:0:
182,192,134104,1,0,0:0:0:70:KicK.wav
475,192,134104,1,0,0:0:0:0:
36,192,134104,1,0,0:0:0:0:
329,192,134104,1,0,0:0:0:0:
109,192,134214,1,0,0:0:0:0:
475,192,134214,1,0,0:0:0:0:
329,192,134214,1,0,0:0:0:0:
329,192,134324,1,0,0:0:0:0:
475,192,134324,1,0,0:0:0:0:
36,192,134324,1,0,0:0:0:0:
402,192,134434,1,0,0:0:0:0:
256,192,134434,1,0,0:0:0:0:
109,192,134434,1,0,0:0:0:0:
329,192,134545,1,0,0:0:0:70:Snare.wav
182,192,134545,1,0,0:0:0:0:
475,192,134655,1,0,0:0:0:0:
256,192,134655,1,0,0:0:0:0:
36,192,134655,1,0,0:0:0:0:
182,192,134710,1,0,0:0:0:0:
402,192,134710,1,0,0:0:0:0:
109,192,134710,1,0,0:0:0:0:
329,192,134765,1,0,0:0:0:0:
475,192,134765,1,0,0:0:0:0:
36,192,134765,1,0,0:0:0:0:
256,192,134876,1,0,0:0:0:0:
109,192,134876,1,0,0:0:0:0:
402,192,134876,1,0,0:0:0:0:
329,192,134986,1,0,0:0:0:70:KicK.wav
182,192,134986,1,0,0:0:0:0:
36,192,134986,1,0,0:0:0:0:
475,192,134986,1,0,0:0:0:0:
36,192,135096,1,0,0:0:0:0:
182,192,135096,1,0,0:0:0:0:
109,192,135207,1,0,0:0:0:0:
256,192,135207,1,0,0:0:0:0:
402,192,135207,1,0,0:0:0:0:
182,192,135317,1,0,0:0:0:0:
329,192,135317,1,0,0:0:0:0:
475,192,135317,1,0,0:0:0:0:
109,192,135427,1,0,0:0:0:70:Snare.wav
36,192,135427,1,0,0:0:0:0:
475,192,135537,1,0,0:0:0:0:
329,192,135537,1,0,0:0:0:0:
402,192,135648,1,0,0:0:0:0:
109,192,135648,1,0,0:0:0:0:
256,192,135648,1,0,0:0:0:0:
475,192,135758,1,0,0:0:0:0:
329,192,135758,1,0,0:0:0:0:
36,192,135868,1,0,0:0:0:70:KicK.wav
256,192,135868,1,0,0:0:0:0:
109,192,135868,1,0,0:0:0:0:
402,192,135868,1,0,0:0:0:0:
109,192,135979,1,0,0:0:0:0:
256,192,135979,1,0,0:0:0:0:
475,192,135979,1,0,0:0:0:0:
109,192,136089,1,0,0:0:0:0:
256,192,136089,1,0,0:0:0:0:
402,192,136089,1,0,0:0:0:0:
36,192,136199,1,0,0:0:0:0:
329,192,136199,1,0,0:0:0:0:
182,192,136199,1,0,0:0:0:0:
402,192,136309,1,0,0:0:0:70:Snare.wav
256,192,136309,1,0,0:0:0:0:
109,192,136420,1,0,0:0:0:0:
475,192,136420,1,0,0:0:0:0:
329,192,136420,1,0,0:0:0:0:
402,192,136530,1,0,0:0:0:0:
36,192,136530,1,0,0:0:0:0:
182,192,136530,1,0,0:0:0:0:
475,192,136640,1,0,0:0:0:0:
256,192,136640,1,0,0:0:0:0:
109,192,136640,1,0,0:0:0:0:
182,192,136751,1,0,0:0:0:70:KicK.wav
36,192,136751,1,0,0:0:0:0:
329,192,136751,1,0,0:0:0:0:
402,192,136751,1,0,0:0:0:0:
182,192,136861,1,0,0:0:0:0:
36,192,136861,1,0,0:0:0:0:
475,192,136861,1,0,0:0:0:0:
109,192,136971,1,0,0:0:0:0:
256,192,136971,1,0,0:0:0:0:
402,192,136971,1,0,0:0:0:0:
402,192,137082,1,0,0:0:0:0:
36,192,137082,1,0,0:0:0:0:
256,192,137082,1,0,0:0:0:0:
329,192,137192,1,0,0:0:0:70:Snare.wav
182,192,137192,1,0,0:0:0:0:
475,192,137302,1,0,0:0:0:0:
36,192,137302,1,0,0:0:0:0:
256,192,137412,1,0,0:0:0:0:
109,192,137412,1,0,0:0:0:0:
402,192,137412,1,0,0:0:0:0:
182,192,137523,1,0,0:0:0:0:
329,192,137523,1,0,0:0:0:0:
36,192,137633,1,0,0:0:0:70:KicK.wav
475,192,137633,1,0,0:0:0:0:
256,192,137633,1,0,0:0:0:0:
109,192,137633,1,0,0:0:0:0:
402,192,137743,1,0,0:0:0:0:
36,192,137743,1,0,0:0:0:0:
109,192,137743,1,0,0:0:0:0:
109,192,137854,1,0,0:0:0:0:
36,192,137854,1,0,0:0:0:0:
329,192,137854,1,0,0:0:0:0:
182,192,137964,1,0,0:0:0:0:
475,192,137964,1,0,0:0:0:0:
402,192,137964,1,0,0:0:0:0:
36,192,138074,1,0,0:0:0:70:Snare.wav
256,192,138074,1,0,0:0:0:0:
329,192,138184,1,0,0:0:0:0:
109,192,138184,1,0,0:0:0:0:
182,192,138184,1,0,0:0:0:0:
36,192,138240,1,0,0:0:0:0:
475,192,138240,1,0,0:0:0:0:
402,192,138240,1,0,0:0:0:0:
329,192,138295,1,0,0:0:0:0:
109,192,138295,1,0,0:0:0:0:
182,192,138295,1,0,0:0:0:0:
256,192,138405,1,0,0:0:0:0:
36,192,138405,1,0,0:0:0:0:
402,192,138405,1,0,0:0:0:0:
109,192,138515,1,0,0:0:0:70:KicK.wav
329,192,138515,1,0,0:0:0:0:
182,192,138515,1,0,0:0:0:0:
475,192,138515,1,0,0:0:0:0:
475,192,138626,1,0,0:0:0:0:
329,192,138626,1,0,0:0:0:0:
36,192,138626,1,0,0:0:0:0:
36,192,138736,1,0,0:0:0:0:
182,192,138736,1,0,0:0:0:0:
402,192,138736,1,0,0:0:0:0:
329,192,138846,1,0,0:0:0:0:
256,192,138957,1,0,0:0:0:70:Snare.wav
109,192,138957,1,0,0:0:0:0:
36,192,138957,1,0,0:0:0:0:
475,192,138957,1,0,0:0:0:0:
329,192,139067,1,0,0:0:0:0:
402,192,139177,1,0,0:0:0:0:
36,192,139177,1,0,0:0:0:0:
182,192,139177,1,0,0:0:0:0:
256,192,139287,1,0,0:0:0:0:
475,192,139287,1,0,0:0:0:0:
182,192,139398,1,0,0:0:0:70:KicK.wav
402,192,139398,1,0,0:0:0:0:
329,192,139398,1,0,0:0:0:0:
36,192,139398,1,0,0:0:0:0:
329,192,139508,1,0,0:0:0:0:
402,192,139508,1,0,0:0:0:0:
109,192,139508,1,0,0:0:0:0:
329,192,139618,1,0,0:0:0:0:
182,192,139618,1,0,0:0:0:0:
402,192,139618,1,0,0:0:0:0:
475,192,139729,1,0,0:0:0:0:
36,192,139729,1,0,0:0:0:0:
256,192,139729,1,0,0:0:0:0:
402,192,139839,1,0,0:0:0:70:Snare.wav
109,192,139839,1,0,0:0:0:0:
182,192,139949,1,0,0:0:0:0:
36,192,139949,1,0,0:0:0:0:
329,192,139949,1,0,0:0:0:0:
109,192,140004,1,0,0:0:0:0:
402,192,140004,1,0,0:0:0:0:
475,192,140059,1,0,0:0:0:0:
256,192,140059,1,0,0:0:0:0:
36,192,140059,1,0,0:0:0:0:
182,192,140170,1,0,0:0:0:0:
329,192,140170,1,0,0:0:0:0:
109,192,140170,1,0,0:0:0:0:
475,192,140280,1,0,0:0:0:70:KicK.wav
36,192,140280,1,0,0:0:0:0:
402,192,140280,1,0,0:0:0:0:
256,192,140280,1,0,0:0:0:0:
402,192,140390,1,0,0:0:0:0:
256,192,140390,1,0,0:0:0:0:
109,192,140390,1,0,0:0:0:0:
36,192,140501,1,0,0:0:0:0:
402,192,140501,1,0,0:0:0:0:
256,192,140501,1,0,0:0:0:0:
475,192,140721,1,0,0:0:0:70:Snare.wav
182,192,140721,1,0,0:0:0:0:
36,192,140721,1,0,0:0:0:0:
329,192,140721,1,0,0:0:0:0:
182,192,140832,1,0,0:0:0:0:
36,192,140832,1,0,0:0:0:0:
402,192,140832,1,0,0:0:0:0:
475,192,140942,1,0,0:0:0:0:
36,192,140942,1,0,0:0:0:0:
182,192,140942,1,0,0:0:0:0:
256,192,141162,1,0,0:0:0:70:KicK.wav
36,192,141162,1,0,0:0:0:0:
402,192,141162,1,0,0:0:0:0:
475,192,141162,1,0,0:0:0:0:
475,192,141273,1,0,0:0:0:0:
402,192,141273,1,0,0:0:0:0:
109,192,141273,1,0,0:0:0:0:
475,192,141383,1,0,0:0:0:0:
402,192,141383,1,0,0:0:0:0:
182,192,141383,1,0,0:0:0:0:
109,192,141493,1,0,0:0:0:0:
329,192,141493,1,0,0:0:0:0:
36,192,141493,1,0,0:0:0:0:
256,192,141604,1,0,0:0:0:70:Snare.wav
475,192,141604,1,0,0:0:0:0:
182,192,141714,1,0,0:0:0:0:
109,192,141714,1,0,0:0:0:0:
402,192,141714,1,0,0:0:0:0:
36,192,141769,1,0,0:0:0:0:
329,192,141769,1,0,0:0:0:0:
475,192,141769,1,0,0:0:0:0:
182,192,141824,1,0,0:0:0:0:
402,192,141824,1,0,0:0:0:0:
109,192,141824,1,0,0:0:0:0:
256,192,141934,1,0,0:0:0:0:
36,192,141934,1,0,0:0:0:0:
475,192,141934,1,0,0:0:0:0:
109,192,142045,1,0,0:0:0:70:KicK.wav
329,192,142045,1,0,0:0:0:0:
182,192,142045,1,0,0:0:0:0:
402,192,142045,1,0,0:0:0:0:
402,192,142155,1,0,0:0:0:0:
329,192,142155,1,0,0:0:0:0:
475,192,142265,1,0,0:0:0:0:
109,192,142265,1,0,0:0:0:0:
256,192,142265,1,0,0:0:0:0:
402,192,142376,1,0,0:0:0:0:
256,192,142376,1,0,0:0:0:0:
109,192,142376,1,0,0:0:0:0:
36,192,142486,1,0,0:0:0:70:Snare.wav
329,192,142486,1,0,0:0:0:0:
475,192,142596,1,0,0:0:0:0:
109,192,142596,1,0,0:0:0:0:
329,192,142707,1,0,0:0:0:0:
36,192,142707,1,0,0:0:0:0:
182,192,142707,1,0,0:0:0:0:
402,192,142817,1,0,0:0:0:0:
256,192,142817,1,0,0:0:0:0:
36,192,142927,1,0,0:0:0:70:KicK.wav
329,192,142927,1,0,0:0:0:0:
475,192,142927,1,0,0:0:0:0:
182,192,142927,1,0,0:0:0:0:
182,192,143037,1,0,0:0:0:0:
36,192,143037,1,0,0:0:0:0:
402,192,143037,1,0,0:0:0:0:
475,192,143148,1,0,0:0:0:0:
182,192,143148,1,0,0:0:0:0:
36,192,143148,1,0,0:0:0:0:
109,192,143258,1,0,0:0:0:0:
256,192,143258,1,0,0:0:0:0:
402,192,143258,1,0,0:0:0:0:
329,192,143368,1,0,0:0:0:70:Snare.wav
475,192,143368,1,0,0:0:0:0:
256,192,143479,1,0,0:0:0:0:
109,192,143479,1,0,0:0:0:0:
402,192,143479,1,0,0:0:0:0:
36,192,143589,1,0,0:0:0:0:
329,192,143589,1,0,0:0:0:0:
182,192,143589,1,0,0:0:0:0:
109,192,143699,1,0,0:0:0:0:
402,192,143699,1,0,0:0:0:0:
256,192,143699,1,0,0:0:0:0:
329,192,143809,1,0,0:0:0:70:KicK.wav
475,192,143809,1,0,0:0:0:0:
182,192,143809,1,0,0:0:0:0:
36,192,143809,1,0,0:0:0:0:
475,192,143920,1,0,0:0:0:0:
182,192,143920,1,0,0:0:0:0:
329,192,143920,1,0,0:0:0:0:
36,192,144030,1,0,0:0:0:0:
109,192,144030,1,0,0:0:0:0:
256,192,144030,1,0,0:0:0:0:
109,192,144140,1,0,0:0:0:0:
256,192,144140,1,0,0:0:0:0:
36,192,144140,1,0,0:0:0:0:
475,192,144251,1,0,0:0:0:70:Snare.wav
329,192,144251,1,0,0:0:0:0:
182,192,144361,1,0,0:0:0:0:
36,192,144361,1,0,0:0:0:0:
256,192,144471,1,0,0:0:0:0:
109,192,144471,1,0,0:0:0:0:
402,192,144471,1,0,0:0:0:0:
475,192,144471,1,0,0:0:0:0:
475,192,144692,1,0,0:0:0:70:CrashL.wav
182,192,144692,1,0,0:0:0:70:KicK.wav
36,192,144692,1,0,0:0:0:0:
109,192,144692,1,0,0:0:0:0:
329,192,144692,1,0,0:0:0:0:
402,192,144692,1,0,0:0:0:0:
