osu file format v14

[General]
AudioFilename: audio.mp3
AudioLeadIn: 0
PreviewTime: 123865
Countdown: 0
SampleSet: Normal
StackLeniency: 0.7
Mode: 0
LetterboxInBreaks: 0
WidescreenStoryboard: 1

[Editor]
Bookmarks: 14204,27918,41632,55347,69061,82775,96490,110204,123918,137632,151347
DistanceSpacing: 1.1
BeatDivisor: 4
GridSize: 8
TimelineZoom: 1

[Metadata]
Title:Candy Carousel
TitleUnicode:Candy Carousel
Artist:Trifect X Aika
ArtistUnicode:Trifect X Aika
Creator:SLM
Version:Insane
Source:
Tags:future bass
BeatmapID:1449180
BeatmapSetID:684754

[Difficulty]
HPDrainRate:6
CircleSize:4
OverallDifficulty:7.5
ApproachRate:8
SliderMultiplier:1.7
SliderTickRate:1

[Events]
//Background and Video events
0,0,"3153.jpg",0,0
//Break Periods
//Storyboard Layer 0 (Background)
//Storyboard Layer 1 (Fail)
//Storyboard Layer 2 (Pass)
//Storyboard Layer 3 (Foreground)
//Storyboard Sound Samples

[TimingPoints]
490,428.571428571429,4,2,1,30,1,0
490,-166.666666666667,4,2,1,30,0,0
7347,-125,4,2,1,30,0,0
12490,-125,4,2,1,30,0,0
14204,-83.3333333333333,4,1,1,45,0,0
24490,-76.9230769230769,4,1,1,45,0,0
26204,-166.666666666667,4,1,1,40,0,0
26632,-166.666666666667,4,1,1,30,0,0
27918,-111.111111111111,4,1,1,50,0,0
28775,-40,4,1,1,50,0,0
29097,-74.0740740740741,4,1,1,50,0,0
30704,-40,4,1,1,50,0,0
31347,-111.111111111111,4,1,1,50,0,0
32204,-45.4545454545455,4,1,1,50,0,0
32418,-74.0740740740741,4,1,1,50,0,0
33490,-47.6190476190476,4,1,1,50,0,0
34347,-66.6666666666667,4,1,1,50,0,0
34775,-111.111111111111,4,1,1,50,0,0
35632,-50,4,1,1,50,0,0
35954,-74.0740740740741,4,1,1,50,0,0
37561,-37.037037037037,4,1,1,50,0,0
38204,-111.111111111111,4,1,1,50,0,0
39061,-45.4545454545455,4,1,1,50,0,0
39275,-74.0740740740741,4,1,1,50,0,0
40347,-50,4,1,1,50,0,0
41204,-66.6666666666667,4,1,1,50,0,0
41632,-76.9230769230769,4,1,1,50,0,0
54918,-90.9090909090909,4,1,1,50,0,0
55347,-90.9090909090909,4,1,1,35,0,0
62204,-90.9090909090909,4,1,1,45,0,0
65632,-100,4,1,1,50,0,0
65954,-166.666666666667,4,1,1,50,0,0
66275,-62.5,4,1,1,50,0,0
66597,-83.3333333333333,4,1,1,50,0,0
66918,-66.6666666666666,4,1,1,50,0,0
67132,-50,4,1,1,50,0,0
68632,-166.666666666667,4,1,1,50,0,0
69061,-250,4,1,1,50,0,0
71632,-83.3333333333333,4,1,1,50,0,0
71847,-166.666666666666,4,1,1,50,0,0
72061,-111.111111111111,4,1,1,50,0,0
72275,-55.5555555555556,4,1,1,50,0,0
72490,-142.857142857143,4,1,1,50,0,0
73347,-90.9090909090909,4,1,1,50,0,0
73775,-142.857142857143,4,1,1,50,0,0
74632,-83.3333333333333,4,1,1,50,0,0
75061,-142.857142857143,4,1,1,50,0,0
75918,-250,4,1,1,50,0,0
78490,-83.3333333333333,4,1,1,50,0,0
78704,-166.666666666667,4,1,1,50,0,0
78918,-111.111111111111,4,1,1,50,0,0
79132,-55.5555555555556,4,1,1,50,0,0
79347,-142.857142857143,4,1,1,50,0,0
80204,-90.9090909090909,4,1,1,50,0,0
80632,-142.857142857143,4,1,1,50,0,0
82775,-76.9230769230769,4,1,2,50,0,0
94775,-90.9090909090909,4,1,2,50,0,0
95204,-90.9090909090909,4,1,2,40,0,0
96490,-90.9090909090909,4,2,2,30,0,0
110204,-125,4,1,3,45,0,0
117061,-100,4,1,3,45,0,0
122204,-142.857142857143,4,1,3,45,0,0
123061,-66.6666666666667,4,1,1,50,0,0
123704,-166.666666666667,4,1,1,50,0,0
123918,-66.6666666666667,4,1,1,50,0,0
130347,-100,4,1,1,50,0,0
130561,-66.6666666666667,4,1,1,50,0,0
135918,-76.9230769230769,4,1,1,50,0,0
137418,-66.6666666666667,4,1,1,50,0,0
137632,-76.9230769230769,4,1,1,50,0,0
141918,-100,4,1,1,50,0,0
143918,-76.9230769230769,4,1,1,50,0,0
149632,-100,4,1,1,50,0,0
151347,-76.9230769230769,4,1,1,50,0,0
156490,-100,4,1,1,50,0,0
157632,-76.9230769230769,4,1,1,50,0,0
163347,-100,4,1,1,40,0,0
164204,-100,4,1,1,35,0,0
164525,-100,4,1,1,25,0,0

[Colours]
Combo1 : 255,207,62
Combo2 : 83,255,83
Combo3 : 66,151,255
Combo4 : 247,104,125

[HitObjects]
101,216,490,6,0,P|124:205|149:201,1,50.9999984436036,2|0,0:0|0:0,0:0:0:0:
224,234,918,1,0,0:0:0:0:
224,234,1132,1,0,0:0:0:0:
224,234,1347,1,0,0:0:0:0:
261,172,1561,1,0,0:0:0:0:
257,157,1668,1,0,0:0:0:0:
253,142,1775,2,0,L|235:74,1,50.9999984436036
358,195,2204,5,0,0:0:0:0:
358,195,2418,1,0,0:0:0:0:
455,130,2632,2,0,P|429:130|406:141,1,50.9999984436036,2|0,0:0|0:0,0:0:0:0:
358,195,3061,1,0,0:0:0:0:
365,312,3275,2,0,P|377:289|379:264,1,50.9999984436036,2|0,0:0|0:0,0:0:0:0:
406,140,3704,1,2,0:0:0:0:
286,178,3918,6,0,P|266:163|253:142,1,50.9999984436036,2|0,0:0|0:0,0:0:0:0:
406,140,4347,2,0,P|429:129|455:130,1,50.9999984436036
358,195,4775,1,0,0:0:0:0:
365,312,4990,2,0,P|377:289|379:264,1,50.9999984436036
296,332,5418,2,0,P|290:357|298:382,1,50.9999984436036
241,284,5847,2,0,L|181:273,1,50.9999984436036,0|2,0:0|0:0,0:0:0:0:
125,305,6275,5,0,0:0:0:0:
165,195,6490,1,0,0:0:0:0:
241,284,6704,1,2,0:0:0:0:
241,284,6811,1,0,0:0:0:0:
241,284,6918,1,0,0:0:0:0:
320,312,7132,1,2,0:0:0:0:
373,249,7347,6,0,P|384:217|378:183,1,68,10|0,0:0|0:0,0:0:0:0:
304,135,7775,2,0,P|298:101|309:69,1,68,8|0,0:0|0:0,0:0:0:0:
383,18,8204,1,8,0:0:0:0:
441,99,8418,1,0,0:0:0:0:
441,99,8525,1,8,0:0:0:0:
441,99,8632,1,0,0:0:0:0:
309,69,8847,1,8,0:0:0:0:
245,132,9061,6,0,P|211:137|179:126,1,68,8|0,0:0|0:0,0:0:0:0:
118,60,9490,2,0,P|84:54|52:65,1,68,10|0,0:0|0:0,0:0:0:0:
4,141,9918,1,8,0:0:0:0:
89,192,10132,1,0,0:0:0:0:
89,192,10240,1,10,0:0:0:0:
89,192,10347,1,0,0:0:0:0:
22,289,10561,1,10,0:0:0:0:
106,321,10775,6,0,L|182:312,1,68,10|0,0:0|0:0,0:0:0:0:
261,349,11204,1,8,0:0:0:0:
261,349,11311,1,0,0:0:0:0:
261,349,11418,2,0,L|344:357,1,68,0|8,0:0|0:0,0:0:0:0:
386,286,11847,1,0,0:0:0:0:
386,286,11954,2,0,L|387:230,1,34,8|0,0:0|0:0,0:0:0:0:
393,162,12275,1,2,0:0:0:0:
399,71,12490,5,8,0:0:0:0:
308,199,12704,1,0,0:0:0:0:
306,108,12918,1,10,0:0:0:0:
412,173,13132,1,0,0:0:0:0:
306,108,13347,5,8,0:0:0:0:
431,184,13561,1,2,0:0:0:0:
290,189,13775,1,0,0:0:0:0:
357,47,13990,1,10,0:0:0:0:
490,122,14204,5,2,0:0:0:0:
303,273,14418,1,0,0:0:0:0:
344,65,14632,1,0,0:0:0:0:
486,220,14847,1,0,0:0:0:0:
486,220,14954,1,0,0:0:0:0:
486,220,15061,6,0,L|378:235,1,101.999996887207,0|2,0:0|0:0,0:0:0:0:
303,273,15382,1,0,0:0:0:0:
303,273,15490,2,0,L|298:222,1,50.9999984436036,0|2,0:0|0:0,0:0:0:0:
252,147,15704,1,0,0:0:0:0:
207,265,15918,6,0,P|205:315|220:363,1,101.999996887207,2|0,0:0|0:0,0:0:0:0:
115,328,16347,2,0,P|64:326|16:341,1,101.999996887207
1,214,16775,6,0,L|52:226,1,50.9999984436036
101,161,16990,1,2,0:0:0:0:
94,134,17097,1,0,0:0:0:0:
143,252,17204,6,0,L|195:245,1,50.9999984436036,0|2,0:0|0:0,0:0:0:0:
190,153,17418,2,0,L|197:103,1,50.9999984436036,2|0,0:0|0:0,0:0:0:0:
303,307,17632,5,2,0:0:0:0:
283,77,17847,1,0,0:0:0:0:
450,200,18061,1,0,0:0:0:0:
425,194,18168,1,0,0:0:0:0:
401,199,18275,1,0,0:0:0:0:
378,209,18382,1,0,0:0:0:0:
359,232,18490,1,0,0:0:0:0:
283,77,18704,5,2,0:0:0:0:
283,77,18811,1,0,0:0:0:0:
283,77,18918,1,0,0:0:0:0:
240,267,19132,1,0,0:0:0:0:
168,202,19347,6,0,L|67:198,1,101.999996887207,2|0,0:0|0:0,0:0:0:0:
73,30,19775,1,0,0:0:0:0:
15,111,19990,1,0,0:0:0:0:
123,114,20204,6,0,L|173:108,1,50.9999984436036
242,24,20418,1,2,0:0:0:0:
251,61,20525,1,0,0:0:0:0:
356,149,20632,6,0,L|305:143,1,50.9999984436036,0|2,0:0|0:0,0:0:0:0:
218,196,20847,2,0,L|168:202,1,50.9999984436036,0|2,0:0|0:0,0:0:0:0:
67,294,21061,5,2,0:0:0:0:
123,114,21275,1,0,0:0:0:0:
177,297,21490,1,2,0:0:0:0:
39,164,21704,1,0,0:0:0:0:
168,202,21918,5,2,0:0:0:0:
168,202,22025,1,0,0:0:0:0:
168,202,22132,2,0,L|218:196,1,50.9999984436036
292,258,22347,2,0,L|342:264,1,50.9999984436036,2|0,0:0|0:0,0:0:0:0:
408,198,22561,2,0,L|458:192,1,50.9999984436036
473,316,22775,6,0,P|407:283|354:334,1,152.999995330811,2|0,0:0|0:0,0:0:0:0:
361,364,23204,2,0,L|339:245,1,101.999996887207,2|0,0:0|0:0,0:0:0:0:
314,157,23632,5,2,0:0:0:0:
284,140,23739,1,0,0:0:0:0:
251,141,23846,1,0,0:0:0:0:
222,158,23953,1,0,0:0:0:0:
166,238,24061,6,0,L|116:244,1,50.9999984436036,2|0,0:0|0:0,0:0:0:0:
50,178,24275,2,0,L|0:172,1,50.9999984436036
202,52,24490,6,0,L|257:45,1,55.2499974708558,2|0,0:0|0:0,0:0:0:0:
314,157,24704,2,0,L|369:163,1,55.2499974708558,2|0,0:0|0:0,0:0:0:0:
265,332,24918,6,0,L|210:325,1,55.2499974708558,2|0,0:0|0:0,0:0:0:0:
166,238,25132,2,0,L|111:244,1,55.2499974708558,2|0,0:0|0:0,0:0:0:0:
215,154,25347,5,2,0:0:0:0:
226,119,25454,1,2,0:0:0:0:
221,83,25561,1,2,0:0:0:0:
202,52,25668,1,2,0:0:0:0:
140,112,25776,5,2,0:0:0:0:
100,124,25883,1,2,0:0:0:0:
60,117,25990,1,2,0:0:0:0:
27,93,26097,1,2,0:0:0:0:
122,28,26204,1,0,0:0:0:0:
140,112,26632,5,0,0:0:0:0:
215,154,26847,1,0,0:0:0:0:
274,2,27061,5,0,0:0:0:0:
293,33,27168,1,0,0:0:0:0:
298,69,27275,1,0,0:0:0:0:
287,104,27382,1,0,0:0:0:0:
295,186,27490,6,0,L|305:237,1,50.9999984436036,0|0,0:0|0:0,0:0:0:0:
407,214,27918,6,0,P|351:206|303:236,1,114.749996498108,2|0,0:0|0:0,0:0:0:0:
488,253,28347,2,0,P|496:197|466:149,1,114.749996498108,2|0,0:0|0:0,0:0:0:0:
267,156,28775,6,0,B|244:109|244:109|190:105|190:105|156:139|156:139|163:195,1,212.5,8|0,0:0|0:0,0:0:0:0:
172,296,29097,6,0,P|228:288|276:318,1,114.749996498108,2|0,0:0|0:0,0:0:0:0:
466,149,29418,2,0,P|410:141|362:171,1,114.749996498108,2|0,0:0|0:0,0:0:0:0:
367,357,29847,5,2,0:0:0:0:
367,357,29954,1,2,0:0:0:0:
274,318,30061,6,0,B|219:330|219:330|172:296,1,114.750000437737,8|0,0:0|0:0,0:0:0:0:
85,254,30382,2,0,B|67:310|67:310|96:359,1,114.749996498108,2|0,0:0|0:0,0:0:0:0:
195,140,30704,6,0,B|177:84|177:84|133:64,1,106.25,2|0,0:0|0:0,0:0:0:0:
172,296,30918,1,8,0:0:0:0:
328,219,31132,6,0,B|274:211|274:211|233:242,1,106.25,2|0,0:0|0:0,0:0:0:0:
407,257,31347,6,0,B|464:267|464:267|512:237,1,114.749996498108,2|0,0:0|0:0,0:0:0:0:
347,324,31775,2,0,B|318:276|318:276|328:219,1,114.749996498108,2|0,0:0|0:0,0:0:0:0:
224,150,32204,6,0,B|191:164|191:164|135:131,1,93.5000028533936,8|0,0:0|0:0,0:0:0:0:
245,45,32418,6,0,P|218:94|224:150,1,114.750000437737,2|0,0:0|0:0,0:0:0:0:
328,218,32740,2,0,P|334:161|307:112,1,114.750000437737,2|0,0:0|0:0,0:0:0:0:
141,134,33061,5,2,1:3:0:0:
81,180,33168,1,10,1:3:0:0:
14,144,33275,1,10,1:3:0:0:
103,207,33490,6,0,L|206:214,1,89.2499972763062,2|0,0:0|0:0,0:0:0:0:
54,290,33811,2,0,L|153:285,1,89.2499972763062,2|0,0:0|0:0,0:0:0:0:
286,326,34132,1,8,0:0:0:0:
313,165,34347,6,0,L|313:92,1,63.7500024318696,2|0,0:0|0:0,0:0:0:0:
231,200,34561,2,0,P|229:239|222:268,1,63.7500024318696,2|0,0:0|0:0,0:0:0:0:
120,81,34775,6,0,P|164:46|221:47,1,114.749996498108,2|0,0:0|0:0,0:0:0:0:
57,142,35204,2,0,P|31:91|41:36,1,114.749996498108,2|0,0:0|0:0,0:0:0:0:
128,192,35632,6,0,L|105:367,1,170,8|0,0:0|0:0,0:0:0:0:
238,368,35954,6,0,P|248:312|222:262,1,114.749996498108,2|0,0:0|0:0,0:0:0:0:
143,86,36275,2,0,P|117:136|127:191,1,114.749996498108,2|0,0:0|0:0,0:0:0:0:
316,228,36704,5,2,0:0:0:0:
316,228,36811,1,2,0:0:0:0:
349,89,36918,6,0,B|301:119|301:119|245:103,1,114.750000437737,8|0,0:0|0:0,0:0:0:0:
143,86,37239,2,0,B|145:144|145:144|189:180,1,114.749996498108,2|0,0:0|0:0,0:0:0:0:
289,16,37561,5,2,0:0:0:0:
316,228,37775,1,8,0:0:0:0:
421,147,37990,6,0,B|454:102|454:102|441:45,1,114.749996498108,2|0,0:0|0:0,0:0:0:0:
390,226,38204,6,0,P|355:269|357:325,1,114.749996498108,2|0,0:0|0:0,0:0:0:0:
256,295,38632,2,0,P|199:293|156:328,1,114.749996498108,2|0,0:0|0:0,0:0:0:0:
43,361,39061,6,0,B|62:330|62:330|39:270,1,93.5000028533936,8|0,0:0|0:0,0:0:0:0:
160,130,39275,6,0,B|122:174|122:174|120:230,1,114.750000437737,2|0,0:0|0:0,0:0:0:0:
33,144,39597,2,0,B|71:100|71:100|72:43,1,114.750000437737,2|0,0:0|0:0,0:0:0:0:
176,45,39918,5,2,1:3:0:0:
206,56,40025,1,10,1:3:0:0:
236,68,40132,1,10,1:3:0:0:
236,68,40240,1,2,1:3:0:0:
159,130,40347,6,0,P|148:170|157:211,1,85,2|0,0:0|0:0,0:0:0:0:
242,173,40668,2,0,P|278:196|320:198,1,85,2|0,0:0|0:0,0:0:0:0:
281,0,40990,1,8,0:0:0:0:
383,118,41204,6,0,P|377:88|377:42,1,63.7500024318696,2|0,0:0|0:0,0:0:0:0:
480,94,41418,2,0,L|473:175,1,63.7500024318696,2|0,0:0|0:0,0:0:0:0:
437,286,41632,6,0,L|376:303,1,55.2499974708558,2|0,0:0|0:0,0:0:0:0:
307,238,41847,1,0,0:0:0:0:
307,238,41954,1,0,0:0:0:0:
307,238,42061,2,0,L|247:229,1,55.2499974708558,8|0,0:0|0:0,0:0:0:0:
227,321,42275,2,0,P|221:347|206:371,1,55.2499974708558
153,242,42490,5,2,0:0:0:0:
153,242,42597,2,0,P|152:214|160:188,1,55.2499974708558
169,49,42811,1,0,0:0:0:0:
169,49,42918,2,0,L|114:56,1,55.2499974708558,8|0,0:0|0:0,0:0:0:0:
29,134,43132,2,0,L|83:141,1,55.2499974708558
236,124,43347,6,0,B|307:105|345:156|345:156|306:174,1,165.749992412568,2|0,0:0|0:0,0:0:0:0:
160,188,43775,1,8,0:0:0:0:
160,188,43990,1,0,0:0:0:0:
254,284,44204,5,2,0:0:0:0:
248,297,44311,1,0,0:0:0:0:
238,308,44418,2,0,P|229:281|230:254,1,55.2499974708558,8|0,0:0|0:0,0:0:0:0:
306,175,44632,6,0,P|333:174|359:182,1,55.2499974708558,2|0,0:0|0:0,0:0:0:0:
325,319,44847,2,0,P|316:346|299:367,1,55.2499974708558,8|0,0:0|0:0,0:0:0:0:
444,229,45061,6,0,L|505:212,1,55.2499974708558,2|0,0:0|0:0,0:0:0:0:
421,108,45275,1,0,0:0:0:0:
427,121,45382,1,0,0:0:0:0:
437,132,45489,2,0,P|446:105|445:78,1,55.2499974708558,8|0,0:0|0:0,0:0:0:0:
346,48,45704,2,0,L|281:41,1,55.2499974708558
228,118,45918,6,0,L|173:123,1,55.2499974708558,2|0,0:0|0:0,0:0:0:0:
91,49,46132,2,0,L|145:43,1,55.2499974708558
142,204,46347,2,0,L|87:209,1,55.2499974708558,8|0,0:0|0:0,0:0:0:0:
5,135,46561,2,0,L|59:129,1,55.2499974708558
159,217,46775,5,2,0:0:0:0:
159,217,46990,1,0,0:0:0:0:
145,353,47204,2,0,P|134:327|135:300,1,55.2499974708558,8|0,0:0|0:0,0:0:0:0:
243,219,47418,2,0,P|253:244|252:271,1,55.2499974708558
159,217,47632,5,8,0:0:0:0:
162,189,47740,1,0,0:0:0:0:
177,165,47847,2,0,P|198:146|224:138,1,55.2499974708558
306,275,48061,6,0,L|250:271,1,55.2499974708558,8|0,0:0|0:0,0:0:0:0:
309,118,48275,2,0,L|364:114,1,55.2499974708558
403,304,48490,6,0,P|393:278|390:250,1,55.2499974708558,2|0,0:0|0:0,0:0:0:0:
441,170,48704,2,0,P|450:144|453:116,1,55.2499974708558
387,22,48918,2,0,P|360:28|332:29,1,55.2499974708558,8|0,0:0|0:0,0:0:0:0:
254,110,49132,2,0,P|280:116|308:117,1,55.2499974708558
169,54,49347,5,2,0:0:0:0:
169,54,49454,2,0,L|161:108,1,55.2499974708558
132,219,49668,1,0,0:0:0:0:
132,219,49775,2,0,P|105:226|77:226,1,55.2499974708558,8|0,0:0|0:0,0:0:0:0:
26,132,49990,2,0,P|53:132|80:139,1,55.2499974708558
229,199,50204,6,0,B|265:262|227:315|227:315|212:311|194:289,1,165.749992412568,2|0,0:0|0:0,0:0:0:0:
292,260,50632,1,8,0:0:0:0:
292,260,50847,1,0,0:0:0:0:
360,345,51061,5,2,0:0:0:0:
379,348,51168,1,0,0:0:0:0:
393,336,51275,2,0,P|397:308|394:281,1,55.2499974708558,8|0,0:0|0:0,0:0:0:0:
493,176,51490,6,0,L|430:207,1,55.2499974708558,2|0,0:0|0:0,0:0:0:0:
291,174,51704,2,0,L|341:199,1,55.2499974708558,8|0,0:0|0:0,0:0:0:0:
434,109,51918,6,0,P|441:82|443:54,1,55.2499974708558,2|0,0:0|0:0,0:0:0:0:
328,84,52132,1,0,0:0:0:0:
337,73,52240,1,0,0:0:0:0:
343,60,52347,2,0,P|315:57|288:60,1,55.2499974708558,8|0,0:0|0:0,0:0:0:0:
211,119,52561,2,0,L|141:128,1,55.2499974708558
66,49,52775,6,0,L|67:104,1,55.2499974708558,2|0,0:0|0:0,0:0:0:0:
156,126,52990,2,0,L|155:182,1,55.2499974708558
44,185,53204,2,0,L|45:240,1,55.2499974708558,8|0,0:0|0:0,0:0:0:0:
127,263,53419,2,0,L|125:318,1,55.2499974708558
29,348,53632,5,2,0:0:0:0:
29,348,53847,1,0,0:0:0:0:
127,263,54061,2,0,P|151:252|190:254,1,55.2499974708558,8|0,0:0|0:0,0:0:0:0:
247,358,54275,2,0,P|223:369|184:367,1,55.2499974708558
263,214,54490,5,8,0:0:0:0:
274,199,54597,1,0,0:0:0:0:
286,185,54704,2,0,P|297:209|295:248,1,55.2499974708558
342,321,54918,6,0,L|349:386,3,46.7500014266968,8|0|0|0,0:0|0:0|0:0|0:0,0:0:0:0:
302,119,55347,5,2,0:0:0:0:
294,152,55561,1,0,0:0:0:0:
286,185,55775,1,2,0:0:0:0:
278,218,55990,1,0,0:0:0:0:
270,251,56204,1,2,0:0:0:0:
411,282,56632,5,2,0:0:0:0:
378,292,56846,1,0,0:0:0:0:
346,302,57061,1,2,0:0:0:0:
283,364,57490,1,2,0:0:0:0:
183,322,57918,5,2,0:0:0:0:
167,298,58025,1,0,0:0:0:0:
185,276,58132,1,0,0:0:0:0:
211,286,58240,1,0,0:0:0:0:
210,314,58347,1,2,0:0:0:0:
99,362,58561,1,0,0:0:0:0:
26,304,58776,5,2,0:0:0:0:
29,270,58990,1,0,0:0:0:0:
33,236,59205,1,2,0:0:0:0:
37,202,59419,1,0,0:0:0:0:
41,169,59633,1,2,0:0:0:0:
123,111,60061,5,2,0:0:0:0:
130,145,60276,1,0,0:0:0:0:
139,176,60490,1,2,0:0:0:0:
200,62,60918,1,2,0:0:0:0:
232,59,61132,1,0,0:0:0:0:
343,132,61347,5,2,0:0:0:0:
360,105,61454,1,0,0:0:0:0:
340,81,61561,1,0,0:0:0:0:
312,92,61669,1,0,0:0:0:0:
313,123,61776,1,2,0:0:0:0:
407,188,61990,1,0,0:0:0:0:
335,264,62204,5,2,0:0:0:0:
302,268,62418,1,0,0:0:0:0:
268,272,62632,1,2,0:0:0:0:
234,276,62847,1,0,0:0:0:0:
200,279,63061,1,2,0:0:0:0:
71,204,63490,5,2,0:0:0:0:
105,208,63705,1,0,0:0:0:0:
139,211,63919,1,2,0:0:0:0:
198,151,64347,1,2,0:0:0:0:
333,85,64775,5,2,0:0:0:0:
343,54,64882,1,0,0:0:0:0:
318,34,64989,1,0,0:0:0:0:
290,52,65097,1,0,0:0:0:0:
300,84,65204,1,2,0:0:0:0:
423,138,65418,1,0,0:0:0:0:
329,309,65632,6,0,B|317:286|317:286|322:218,1,85,2|0,0:0|0:0,0:0:0:0:
228,170,65954,6,0,P|235:194|237:219,1,50.9999984436036,2|0,0:0|0:0,0:0:0:0:
156,384,66275,6,0,B|175:318|175:318|201:380,1,136,2|0,0:0|0:0,0:0:0:0:
134,210,66597,5,2,0:0:0:0:
112,197,66704,2,0,P|87:202|64:213,1,50.9999984436036
265,301,66918,6,0,L|334:309,1,63.7500024318696,2|0,0:0|0:0,0:0:0:0:
458,212,67132,6,0,B|469:172|469:172|465:129,1,85,2|0,0:0|0:0,0:0:0:0:
366,235,67347,5,0,0:0:0:0:
366,235,67454,1,0,0:0:0:0:
366,235,67561,1,0,0:0:0:0:
366,235,67668,1,0,0:0:0:0:
366,223,67775,5,0,0:0:0:0:
375,193,67882,1,0,0:0:0:0:
366,164,67990,1,0,0:0:0:0:
369,134,68097,1,0,0:0:0:0:
385,95,68204,5,0,0:0:0:0:
365,45,68311,1,0,0:0:0:0:
315,29,68418,1,0,0:0:0:0:
271,58,68525,1,0,0:0:0:0:
193,95,68632,6,0,L|142:86,1,50.9999984436036,0|0,0:0|1:0,2:0:0:0:
436,222,69061,6,0,L|360:205,2,68,2|0|8,0:0|0:0|0:0,0:0:0:0:
262,264,70132,5,2,0:0:0:0:
262,264,70240,1,2,0:0:0:0:
376,297,70347,2,0,L|443:312,2,68,2|0|2,0:0|0:0|0:0,0:0:0:0:
185,229,71632,6,0,B|175:256|175:256|176:278,1,50.9999984436036,8|0,0:0|0:0,0:0:0:0:
161,336,71847,2,0,L|161:310,1,25.4999992218018,0|0,0:0|2:0,0:0:0:0:
92,251,72061,6,0,L|44:259,1,38.2499988327027,0|0,2:0|0:0,0:0:0:0:
30,153,72275,2,0,L|105:164,1,76.4999976654053,0|0,0:0|2:0,0:0:0:0:
272,261,72490,6,0,B|328:245|328:245|358:251,2,89.2499972763062,2|2|2,0:0|0:0|0:0,0:0:0:0:
444,274,73240,5,2,0:0:0:0:
446,161,73347,2,0,P|400:156|355:168,1,93.5000028533936,8|0,0:0|0:0,0:0:0:0:
253,355,73775,6,0,B|309:339|309:339|339:345,2,89.2499972763062,2|2|2,0:0|0:0|0:0,0:0:0:0:
177,228,74632,6,0,L|169:164,1,50.9999984436036,8|0,0:0|0:0,0:0:0:0:
122,293,74847,1,2,0:0:0:0:
259,215,75061,6,0,L|246:100,1,89.2499972763062,2|0,0:0|0:0,0:0:0:0:
122,293,75490,2,0,L|33:282,1,89.2499972763062,2|0,0:0|0:0,0:0:0:0:
61,89,75918,6,0,L|137:72,2,68,2|0|8,0:0|0:0|0:0,0:0:0:0:
237,133,76989,5,2,0:0:0:0:
234,137,77097,1,2,0:0:0:0:
121,164,77204,2,0,L|54:179,2,68,2|0|2,0:0|0:0|0:0,0:0:0:0:
395,75,78490,6,0,P|403:98|405:124,1,50.9999984436036,8|0,0:0|0:0,0:0:0:0:
320,140,78704,2,0,L|326:114,1,25.4999992218018,0|0,0:0|2:0,2:0:0:0:
395,200,78918,6,0,P|418:200|441:191,1,38.2499988327027,0|0,2:0|0:0,2:0:0:0:
497,267,79132,2,0,P|459:271|424:286,1,76.4999976654053,0|0,0:0|2:0,2:0:0:0:
210,326,79347,6,0,B|198:297|198:297|204:239,2,89.2499972763062,2|2|2,0:0|0:0|0:0,0:0:0:0:
222,152,80097,5,2,0:0:0:0:
133,177,80204,2,0,P|87:185|41:176,1,93.5000028533936,8|0,0:0|0:0,0:0:0:0:
149,76,80632,6,0,B|208:57|208:57|234:63,1,89.2499972763062,2|0,0:0|0:0,0:0:0:0:
314,141,81061,6,0,B|307:189|307:189|322:226,1,89.2499972763062,2|0,0:0|0:0,0:0:0:0:
499,186,81490,6,0,P|458:171|415:182,1,89.2499972763062,2|0,0:0|0:0,0:0:0:0:
378,300,81918,6,0,P|353:316|324:317,1,59.4999981842042,2|0,0:0|0:0,0:0:0:0:
227,295,82240,6,0,L|224:355,1,59.4999981842042,2|0,0:0|0:0,0:0:0:0:
231,206,82561,5,2,0:0:0:0:
125,314,82775,5,10,0:0:0:0:
125,314,82882,1,0,0:0:0:0:
125,314,82990,2,0,P|98:322|70:324,1,55.2499974708558
31,212,83204,1,10,0:0:0:0:
28,208,83311,1,0,0:0:0:0:
26,203,83418,2,0,P|53:205|80:212,1,55.2499974708558
169,108,83632,5,10,0:0:0:0:
186,93,83740,2,0,L|182:163,1,55.2499974708558
78,86,83954,1,10,0:0:0:0:
61,101,84062,2,0,L|65:31,1,55.2499974708558
300,124,84275,2,0,L|296:194,1,55.2499974708558,10|0,0:0|0:0,0:0:0:0:
237,299,84490,5,10,0:0:0:0:
234,304,84597,1,0,0:0:0:0:
231,308,84704,2,0,P|223:281|224:254,1,55.2499974708558
363,310,84918,1,10,0:0:0:0:
363,310,85025,1,0,0:0:0:0:
363,310,85132,2,0,P|370:283|369:256,1,55.2499974708558
287,159,85347,5,10,0:0:0:0:
296,179,85454,2,0,L|225:168,1,55.2499974708558
388,137,85668,1,10,0:0:0:0:
379,117,85775,2,0,L|450:128,1,55.2499974708558
512,41,85990,2,0,L|457:32,1,55.2499974708558,10|0,0:0|0:0,0:0:0:0:
295,52,86204,5,10,0:0:0:0:
298,48,86311,1,0,0:0:0:0:
301,45,86418,2,0,P|268:42|230:56,1,55.2499974708558
143,113,86632,1,10,0:0:0:0:
140,117,86739,1,0,0:0:0:0:
137,121,86847,2,0,P|164:126|192:123,1,55.2499974708558
34,85,87061,5,10,0:0:0:0:
17,69,87168,2,0,L|6:143,1,55.2499974708558
49,213,87383,1,10,0:0:0:0:
66,197,87490,2,0,L|77:271,1,55.2499974708558
11,319,87704,2,0,L|0:393,1,55.2499974708558,10|0,0:0|0:0,0:0:0:0:
137,379,87918,5,10,0:0:0:0:
137,379,88025,1,0,0:0:0:0:
137,379,88132,2,0,P|164:378|191:373,1,55.2499974708558
258,277,88347,2,0,P|230:277|203:282,1,55.2499974708558,10|0,0:0|0:0,0:0:0:0:
298,360,88561,2,0,L|358:368,1,55.2499974708558
466,279,88775,6,0,L|411:286,1,55.2499974708558,10|0,0:0|0:0,0:0:0:0:
445,164,88990,5,0,0:0:0:0:
440,195,89097,1,10,0:0:0:0:
337,225,89204,6,0,L|330:146,1,55.2499974708558,10|0,0:0|0:0,0:0:0:0:
386,97,89418,2,0,L|391:42,1,55.2499974708558,10|0,0:0|0:0,0:0:0:0:
171,188,89632,5,10,0:0:0:0:
171,188,89740,1,0,0:0:0:0:
171,188,89847,2,0,P|198:185|224:177,1,55.2499974708558
240,77,90060,1,10,0:0:0:0:
243,73,90168,1,0,0:0:0:0:
246,69,90275,2,0,P|219:61|191:59,1,55.2499974708558
59,122,90490,5,10,0:0:0:0:
73,137,90597,2,0,L|64:214,1,55.2499974708558
185,203,90811,1,10,0:0:0:0:
171,188,90918,2,0,L|162:265,1,55.2499974708558
94,360,91132,2,0,L|87:305,1,55.2499974708558,10|0,0:0|0:0,0:0:0:0:
237,355,91347,5,10,0:0:0:0:
237,355,91454,1,0,0:0:0:0:
236,354,91561,2,0,P|264:358|291:357,1,55.2499974708558
388,279,91775,1,10,0:0:0:0:
391,275,91882,1,0,0:0:0:0:
394,271,91989,2,0,P|366:267|339:268,1,55.2499974708558
378,160,92204,5,10,0:0:0:0:
364,175,92311,2,0,L|355:98,1,55.2499974708558
465,169,92525,1,10,0:0:0:0:
479,154,92632,2,0,L|488:231,1,55.2499974708558
259,150,92847,2,0,L|252:95,1,55.2499974708558,10|0,0:0|0:0,0:0:0:0:
142,88,93061,5,10,0:0:0:0:
144,84,93168,1,0,0:0:0:0:
146,80,93275,2,0,P|118:79|91:85,1,55.2499974708558
141,185,93490,1,10,0:0:0:0:
141,185,93597,1,0,0:0:0:0:
141,185,93704,2,0,P|142:217|134:246,1,55.2499974708558
109,353,93918,5,10,0:0:0:0:
96,335,94025,2,0,L|151:329,1,55.2499974708558
274,294,94240,1,10,0:0:0:0:
287,276,94347,2,0,L|231:270,1,55.2499974708558
365,209,94561,2,0,L|420:203,1,55.2499974708558,10|0,0:0|0:0,0:0:0:0:
483,122,94775,6,0,P|424:59|349:102,1,187.000005706787,10|8,0:0|0:0,0:0:0:0:
264,166,95418,1,0,0:0:0:0:
212,87,95632,2,0,L|157:91,1,46.7500014266968
156,134,95847,2,0,L|109:130,1,46.7500014266968
27,80,96061,2,0,P|12:124|19:169,1,93.5000028533936,8|0,0:0|0:0,0:0:0:0:
95,269,96490,5,8,2:1:0:0:
170,233,98632,1,2,0:0:0:0:
163,315,99275,1,2,0:0:0:0:
95,269,99704,1,2,0:0:0:0:
245,301,99918,5,2,0:0:0:0:
273,223,100347,1,2,0:0:0:0:
301,145,102061,1,2,0:0:0:0:
354,208,102704,1,2,0:0:0:0:
273,223,103132,1,2,0:0:0:0:
399,143,103347,5,2,0:0:0:0:
433,66,105490,1,2,0:0:0:0:
353,84,106132,1,2,0:0:0:0:
273,102,106561,1,2,0:0:0:0:
378,162,106775,5,2,0:0:0:0:
353,84,107204,1,2,0:0:0:0:
378,162,108918,1,2,0:0:0:0:
329,228,109561,1,2,0:0:0:0:
296,152,109990,1,2,0:0:0:0:
247,218,110204,6,0,L|157:210,1,68,4|2,1:3|1:2,1:2:0:0:
96,233,110525,2,0,L|112:264,1,34,0|10,1:2|1:2,1:2:0:0:
24,190,110847,2,0,L|45:95,1,68,2|2,1:2|1:2,1:2:0:0:
69,51,111275,2,0,L|61:6,1,34,4|0,1:3|1:2,1:2:0:0:
147,33,111490,2,0,L|162:105,1,68,10|2,1:2|1:2,1:2:0:0:
233,201,111918,6,0,L|240:123,1,68,4|2,1:3|1:2,1:2:0:0:
327,52,112347,2,0,L|320:119,1,68,10|2,1:2|1:2,1:2:0:0:
354,198,112775,2,0,L|408:206,1,34,2|0,1:2|1:2,1:2:0:0:
413,171,112989,2,0,L|461:162,1,34,2|0,1:2|1:2,1:2:0:0:
475,136,113204,2,0,L|488:202,1,68,10|2,1:2|1:2,1:2:0:0:
445,279,113633,6,0,L|355:294,1,68,4|2,1:3|1:2,1:2:0:0:
302,333,113954,2,0,L|326:358,1,34,0|10,1:2|1:2,1:2:0:0:
222,309,114276,2,0,L|217:211,1,68,2|2,1:2|1:2,1:2:0:0:
148,180,114704,2,0,L|132:258,1,68,4|10,1:3|1:2,1:2:0:0:
53,224,115132,6,0,L|66:157,2,68,2|4|2,1:2|1:3|1:2,1:2:0:0:
127,101,115775,2,0,L|189:75,1,68,10|2,1:2|1:2,1:2:0:0:
265,111,116204,2,0,L|303:112,1,34,2|0,1:2|1:2,1:2:0:0:
360,164,116418,2,0,L|398:165,1,34,2|0,1:2|1:2,1:2:0:0:
476,97,116632,2,0,L|472:164,1,68,10|4,1:2|1:3,1:2:0:0:
436,290,117061,6,0,P|402:264|361:267,1,85,4|2,1:3|1:2,1:2:0:0:
356,281,117382,1,0,1:2:0:0:
278,304,117490,2,0,P|238:291|200:308,1,85,4|2,1:3|1:2,1:2:0:0:
197,322,117811,1,0,1:2:0:0:
110,335,117918,6,0,L|103:292,1,42.5,4|0,1:3|1:2,1:2:0:0:
121,204,118132,1,0,1:2:0:0:
121,204,118240,2,0,L|114:161,1,42.5,4|0,1:3|1:2,1:2:0:0:
43,102,118454,1,0,1:2:0:0:
43,102,118561,2,0,L|36:59,1,42.5,4|0,1:3|1:2,1:2:0:0:
141,47,118775,6,0,P|181:34|219:51,1,85,4|2,1:3|1:2,1:2:0:0:
219,65,119096,1,0,1:2:0:0:
298,100,119204,2,0,P|338:86|375:104,1,85,4|2,1:3|1:2,1:2:0:0:
378,117,119525,1,0,1:2:0:0:
459,143,119632,6,0,L|452:186,1,42.5,4|0,1:3|1:2,1:2:0:0:
473,283,119847,1,0,1:2:0:0:
473,283,119954,2,0,L|466:326,1,42.5,4|0,1:3|1:2,1:2:0:0:
370,380,120168,1,0,1:2:0:0:
370,380,120275,2,0,L|376:338,1,42.5,4|0,1:3|1:2,1:2:0:0:
346,248,120490,5,4,1:3:0:0:
315,219,120597,1,4,1:3:0:0:
273,214,120704,1,4,1:3:0:0:
236,233,120811,1,4,1:3:0:0:
206,264,120918,5,4,1:3:0:0:
169,283,121025,1,4,1:3:0:0:
127,278,121132,1,4,1:3:0:0:
96,249,121239,1,4,1:3:0:0:
74,211,121347,6,0,L|58:278,2,56.6666666666667,4|4|4,1:3|1:3|1:3,1:3:0:0:
123,129,121775,6,0,L|109:73,2,56.6666666666667,4|4|4,1:3|1:3|1:3,1:3:0:0:
174,18,122204,5,0,1:2:0:0:
226,92,122632,2,0,P|255:98|297:98,1,59.4999981842042
436,100,123061,1,0,0:0:0:0:
421,79,123168,1,0,0:0:0:0:
407,57,123275,2,0,P|398:90|397:127,1,63.7500024318696,8|0,0:0|0:0,0:0:0:0:
432,229,123490,1,0,0:0:0:0:
319,211,123704,6,0,L|280:219,1,25.4999992218018,2|0,0:0|0:0,0:0:0:0:
370,321,123918,5,2,0:0:0:0:
370,321,124025,1,0,0:0:0:0:
370,321,124132,2,0,P|338:316|306:319,1,63.7500024318696
197,359,124347,1,2,0:0:0:0:
197,359,124454,1,0,0:0:0:0:
197,359,124561,2,0,P|165:363|133:360,1,63.7500024318696
109,219,124775,5,2,0:0:0:0:
128,195,124882,2,0,L|141:276,1,63.7500024318696
33,149,125097,1,2,0:0:0:0:
14,173,125204,2,0,L|1:92,1,63.7500024318696
127,35,125418,2,0,L|140:116,1,63.7500024318696,2|0,0:0|0:0,0:0:0:0:
249,125,125632,6,0,L|229:0,1,127.500004863739,2|0,0:0|0:0,0:0:0:0:
436,57,126061,2,0,P|377:43|346:94,1,127.500004863739,2|0,0:0|0:0,0:0:0:0:
342,206,126490,6,0,L|405:214,1,63.7500024318696,2|0,0:0|0:0,0:0:0:0:
490,153,126704,1,8,0:0:0:0:
495,189,126811,1,2,0:0:0:0:
496,290,126918,6,0,L|432:298,1,63.7500024318696
347,364,127132,2,0,L|320:280,1,63.7500024318696,8|0,0:0|0:0,0:0:0:0:
254,198,127347,5,2,0:0:0:0:
252,194,127454,1,0,0:0:0:0:
249,191,127561,2,0,P|217:194|189:210,1,63.7500024318696
65,270,127775,1,2,0:0:0:0:
65,270,127882,1,0,0:0:0:0:
65,270,127990,2,0,P|92:285|123:288,1,63.7500024318696
60,157,128204,5,2,0:0:0:0:
84,138,128311,2,0,L|3:125,1,63.7500024318696
186,70,128525,1,2,0:0:0:0:
162,51,128632,2,0,L|243:38,1,63.7500024318696
324,111,128847,2,0,L|386:121,1,63.7500024318696,2|0,0:0|0:0,0:0:0:0:
493,64,129061,6,0,B|487:55|477:50|477:50|453:71|501:109|471:162,1,127.500004863739,2|0,0:0|0:0,0:0:0:0:
402,267,129490,2,0,P|384:241|377:210,1,63.7500024318696,2|0,0:0|0:0,0:0:0:0:
503,259,129704,2,0,L|501:337,1,63.7500024318696
343,345,129918,6,0,L|259:362,1,63.7500024318696,2|0,0:0|0:0,0:0:0:0:
207,305,130132,1,0,0:0:0:0:
212,269,130239,1,2,0:0:0:0:
89,356,130347,6,0,P|86:318|90:290,1,42.5
125,233,130561,2,0,P|128:201|128:170,1,63.7500024318696,2|0,0:0|0:0,0:0:0:0:
59,78,130775,5,2,0:0:0:0:
56,73,130882,1,0,0:0:0:0:
53,69,130990,2,0,P|82:57|120:58,1,63.7500024318696
218,112,131204,2,0,B|249:114|249:114|286:102,1,63.7500024318696,8|0,0:0|0:0,0:0:0:0:
387,63,131418,2,0,P|418:71|450:73,1,63.7500024318696
390,39,131632,6,0,B|374:89|411:116|391:169,1,127.500004863739,2|0,0:0|0:0,0:0:0:0:
384,179,131954,1,2,0:0:0:0:
231,205,132061,6,0,B|262:194|262:194|293:196,1,63.7500024318696,8|0,0:0|0:0,0:0:0:0:
405,282,132275,2,0,L|341:277,1,63.7500024318696,2|0,0:0|0:0,0:0:0:0:
228,337,132490,6,0,P|166:335|124:287,1,127.500004863739,2|0,0:0|0:0,0:0:0:0:
33,160,132918,2,0,B|49:128|49:128|66:173|50:218,1,127.500004863739,8|0,0:0|0:0,0:0:0:0:
168,193,133347,6,0,L|233:205,1,63.7500024318696,2|0,0:0|0:0,0:0:0:0:
265,117,133561,1,8,0:0:0:0:
260,81,133668,1,2,0:0:0:0:
172,103,133775,6,0,P|160:73|157:41,1,63.7500024318696
300,2,133990,2,0,L|386:24,1,63.7500024318696,8|0,0:0|0:0,0:0:0:0:
437,155,134204,5,2,0:0:0:0:
434,159,134311,1,0,0:0:0:0:
431,163,134418,2,0,P|419:133|419:101,1,63.7500024318696
422,273,134632,2,0,B|424:304|424:304|412:341,1,63.7500024318696,8|0,0:0|0:0,0:0:0:0:
301,264,134847,2,0,P|269:264|239:276,1,63.7500024318696
243,304,135061,6,0,B|227:254|264:227|244:174,1,127.500004863739,2|0,0:0|0:0,0:0:0:0:
237,164,135383,1,2,0:0:0:0:
98,195,135490,6,0,B|128:205|128:205|160:203,1,63.7500024318696,8|0,0:0|0:0,0:0:0:0:
111,97,135704,2,0,P|79:95|49:105,1,63.7500024318696,2|0,0:0|0:0,0:0:0:0:
218,67,135918,6,0,B|246:50|267:49|267:49|296:62|340:55,1,110.499994941712,2|0,0:0|0:0,0:0:0:0:
427,36,136347,1,2,0:0:0:0:
427,36,136561,1,0,0:0:0:0:
396,212,136775,5,2,0:0:0:0:
387,194,136882,1,0,0:0:0:0:
385,174,136990,1,0,0:0:0:0:
390,155,137097,1,2,0:0:0:0:
401,139,137204,6,0,P|428:127|459:130,1,55.2499974708558,0|2,0:0|0:0,0:0:0:0:
501,226,137418,2,0,P|491:257|472:282,1,63.7500024318696,2|0,0:0|0:0,0:0:0:0:
314,330,137632,5,2,0:0:0:0:
134,292,137918,1,0,0:0:0:0:
182,228,138061,1,8,0:0:0:0:
12,250,138347,1,0,0:0:0:0:
16,171,138489,5,2,0:0:0:0:
182,228,138918,1,8,0:0:0:0:
310,117,139347,6,0,P|286:59|228:113,1,147.333326588949,2|0,0:0|0:0,0:0:0:0:
359,186,139775,1,8,0:0:0:0:
435,198,139918,1,0,0:0:0:0:
499,154,140061,1,0,0:0:0:0:
441,216,140204,5,2,0:0:0:0:
470,39,140490,1,0,0:0:0:0:
406,84,140632,1,8,0:0:0:0:
334,54,140775,2,0,L|250:50,1,73.6666632944744
142,107,141061,5,2,0:0:0:0:
131,180,141204,1,0,0:0:0:0:
199,153,141347,1,0,0:0:0:0:
115,140,141490,5,8,0:0:0:0:
172,186,141633,1,0,0:0:0:0:
183,113,141776,1,0,0:0:0:0:
104,213,141918,5,2,0:0:0:0:
287,248,142347,1,8,0:0:0:0:
430,140,142775,6,0,P|482:95|422:29,2,170,2|8|2,0:0|0:0|0:0,0:0:0:0:
336,75,143918,1,0,0:0:0:0:
293,135,144061,1,8,0:0:0:0:
232,92,144204,1,0,0:0:0:0:
161,114,144347,1,0,0:0:0:0:
145,41,144490,5,2,0:0:0:0:
88,218,144775,1,0,0:0:0:0:
164,194,144918,1,8,0:0:0:0:
202,342,145204,1,0,0:0:0:0:
252,280,145347,5,2,0:0:0:0:
418,337,145775,1,8,0:0:0:0:
481,172,146204,6,0,P|502:106|453:56,1,147.333326588949,2|0,0:0|0:0,0:0:0:0:
396,113,146632,1,8,0:0:0:0:
320,125,146775,1,0,0:0:0:0:
256,81,146918,1,0,0:0:0:0:
314,143,147061,5,2,0:0:0:0:
263,309,147347,1,0,0:0:0:0:
199,264,147489,1,8,0:0:0:0:
127,294,147632,2,0,L|43:298,1,73.6666632944744
82,187,147918,5,2,0:0:0:0:
150,160,148061,1,0,0:0:0:0:
93,114,148204,1,0,0:0:0:0:
123,193,148347,5,8,0:0:0:0:
134,120,148490,1,0,0:0:0:0:
66,147,148633,1,0,0:0:0:0:
191,166,148775,5,2,0:0:0:0:
301,20,149204,1,8,0:0:0:0:
443,138,149632,6,0,P|495:183|435:249,2,170,2|8|2,0:0|0:0|0:0,0:0:0:0:
345,208,150775,1,0,0:0:0:0:
329,281,150918,1,8,0:0:0:0:
258,259,151061,1,0,0:0:0:0:
197,302,151204,1,0,0:0:0:0:
154,242,151347,5,2,0:0:0:0:
79,73,151632,1,0,0:0:0:0:
56,151,151775,1,8,0:0:0:0:
197,2,152061,1,0,0:0:0:0:
238,71,152204,5,2,0:0:0:0:
309,31,152347,1,0,0:0:0:0:
360,96,152490,1,0,0:0:0:0:
436,68,152632,6,0,P|440:32|454:-1,1,73.6666632944744,8|0,0:0|0:0,0:0:0:0:
485,134,152918,1,0,0:0:0:0:
432,197,153061,6,0,P|372:224|406:280,1,147.333326588949,2|0,0:0|0:0,0:0:0:0:
323,329,153489,1,8,0:0:0:0:
243,313,153632,1,0,0:0:0:0:
180,364,153775,1,0,0:0:0:0:
236,295,153918,5,2,0:0:0:0:
46,252,154204,1,0,0:0:0:0:
100,191,154347,5,8,0:0:0:0:
49,127,154490,1,0,0:0:0:0:
100,65,154632,1,0,0:0:0:0:
209,127,154775,6,0,L|294:141,1,73.6666632944744,2|0,0:0|0:0,0:0:0:0:
339,81,155061,1,0,0:0:0:0:
494,209,155204,6,0,L|409:223,1,73.6666632944744,8|0,0:0|0:0,0:0:0:0:
364,163,155490,1,0,0:0:0:0:
304,290,155632,5,2,0:0:0:0:
270,224,155775,1,0,0:0:0:0:
230,284,155918,1,0,0:0:0:0:
320,301,156061,5,8,0:0:0:0:
272,203,156204,1,0,0:0:0:0:
212,294,156347,1,0,0:0:0:0:
380,233,156490,6,0,P|447:270|416:341,2,170,2|8|2,0:0|0:0|0:0,0:0:0:0:
230,284,157632,1,0,0:0:0:0:
177,345,157775,1,8,0:0:0:0:
134,275,157918,1,0,0:0:0:0:
54,289,158061,1,0,0:0:0:0:
23,213,158204,5,2,0:0:0:0:
185,138,158490,1,0,0:0:0:0:
114,98,158632,1,8,0:0:0:0:
315,82,158918,1,0,0:0:0:0:
355,152,159061,1,2,0:0:0:0:
355,12,159490,5,8,0:0:0:0:
315,82,159632,1,0,0:0:0:0:
355,152,159775,1,0,0:0:0:0:
394,221,159918,6,0,P|421:162|477:195,1,147.333326588949,2|0,0:0|0:0,0:0:0:0:
407,314,160347,1,8,0:0:0:0:
331,284,160490,1,0,0:0:0:0:
266,331,160632,1,0,0:0:0:0:
328,264,160775,5,2,0:0:0:0:
134,302,161061,1,0,0:0:0:0:
79,241,161204,5,8,0:0:0:0:
131,178,161347,1,0,0:0:0:0:
74,120,161490,1,0,0:0:0:0:
195,88,161632,6,0,L|267:76,1,73.6666632944744,2|0,0:0|0:0,0:0:0:0:
307,5,161918,1,0,0:0:0:0:
465,160,162061,6,0,L|392:148,1,73.6666632944744,8|0,0:0|0:0,0:0:0:0:
353,77,162347,1,0,0:0:0:0:
280,200,162490,5,2,0:0:0:0:
373,273,162704,5,0,0:0:0:0:
373,273,162811,1,0,0:0:0:0:
373,273,162918,1,8,0:0:0:0:
267,312,163132,1,0,0:0:0:0:
168,243,163347,6,0,P|92:212|60:283,2,170,2|0|2,0:0|0:0|0:0,0:0:0:0:
186,255,164311,1,2,0:0:0:0:
260,140,164525,5,0,0:0:0:0:
243,129,164632,2,0,L|247:183,2,42.5,2|2|0,0:0|0:0|0:0,0:0:0:0:
