osu file format v14

[General]
AudioFilename: audio.mp3
AudioLeadIn: 0
PreviewTime: 115875
Countdown: 0
SampleSet: Soft
StackLeniency: 0.2
Mode: 0
LetterboxInBreaks: 0
WidescreenStoryboard: 1

[Editor]
Bookmarks: 675,13475,15575,18375,21475,24075,26275,51875,64675,77475,90275,103075,115875,122275,147875,173475
DistanceSpacing: 0.5
BeatDivisor: 4
GridSize: 16
TimelineZoom: 3.199999

[Metadata]
Title:Pocari
TitleUnicode:Pocari
Artist:Trifect
ArtistUnicode:Trifect
Creator:Doguu
Version:Trickari
Source:
Tags:
BeatmapID:1396332
BeatmapSetID:659325

[Difficulty]
HPDrainRate:8
CircleSize:4
OverallDifficulty:7.6
ApproachRate:9
SliderMultiplier:1.6
SliderTickRate:1

[Events]
//Background and Video events
0,0,"pocari.jpg",0,0
//Break Periods
2,77675,89675
//Storyboard Layer 0 (Background)
//Storyboard Layer 1 (Fail)
//Storyboard Layer 2 (Pass)
//Storyboard Layer 3 (Foreground)
//Storyboard Sound Samples

[TimingPoints]
675,400,4,2,0,25,1,0
675,-113.636363636364,4,2,0,25,0,0
11300,-113.636363636364,4,2,0,5,0,0
11475,-113.636363636364,4,2,0,25,0,0
13475,-113.636363636364,4,2,0,40,0,0
25475,-100,4,3,0,45,0,0
26275,-100,4,1,0,45,0,0
26875,-66.6666666666667,4,1,0,45,0,0
29775,-80,4,1,0,45,0,0
30075,-133.333333333333,4,1,0,45,0,0
32675,-75.0000000000188,4,1,0,45,0,0
33275,-50,4,1,0,45,0,0
35875,-100,4,1,0,45,0,0
36275,-75.0000187500047,4,1,0,45,0,0
36475,-100,4,1,0,45,0,0
36875,-50,4,1,0,45,0,0
38075,-100,4,1,0,40,0,0
39075,-100,4,1,0,45,0,0
39675,-66.6666666666667,4,1,0,45,0,0
42575,-80,4,1,0,45,0,0
42875,-133.333333333333,4,1,0,45,0,0
43275,-100,4,1,0,45,0,0
45475,-75.0000000000188,4,1,0,45,0,0
46075,-50,4,1,0,45,0,0
48675,-100,4,1,0,45,0,0
49075,-75.000001875,4,1,0,45,0,0
49275,-100,4,1,0,45,0,0
49675,-50,4,1,0,45,0,0
50875,-100,4,3,0,40,0,0
51075,-100,4,3,0,45,0,0
51875,-100,4,1,0,45,0,0
52475,-66.6666666666667,4,1,0,45,0,0
52975,-66.6666666666667,4,2,0,45,0,0
53475,-200,4,2,0,45,0,0
53500,-200,4,2,0,5,0,0
53775,-200,4,2,0,45,0,0
53800,-200,4,2,0,5,0,0
54075,-200,4,2,0,45,0,0
54100,-200,4,2,0,5,0,0
54275,-200,4,2,0,45,0,0
54300,-200,4,2,0,5,0,0
54575,-200,4,2,0,45,0,0
54600,-200,4,2,0,5,0,0
54875,-200,4,2,0,45,0,0
54900,-200,4,2,0,5,0,0
55075,-66.6666666666667,4,1,0,45,0,0
55375,-80,4,1,0,45,0,0
55675,-133.333333333333,4,1,0,45,0,0
56075,-100,4,1,0,45,0,0
56175,-100,4,2,0,45,0,0
56675,-117.647058823529,4,2,0,47,0,0
56700,-117.647058823529,4,2,0,5,0,0
56975,-117.647058823529,4,2,0,47,0,0
57000,-117.647058823529,4,2,0,5,0,0
57275,-117.647058823529,4,2,0,46,0,0
57300,-117.647058823529,4,2,0,5,0,0
57475,-117.647058823529,4,2,0,46,0,0
57500,-117.647058823529,4,2,0,5,0,0
57775,-117.647058823529,4,2,0,47,0,0
57800,-117.647058823529,4,2,0,5,0,0
58075,-117.647058823529,4,2,0,47,0,0
58100,-117.647058823529,4,2,0,5,0,0
58275,-75.0000000000188,4,1,0,45,0,0
58875,-50,4,1,0,45,0,0
59375,-50,4,2,0,45,0,0
59875,-160,4,2,0,49,0,0
59900,-160,4,2,0,5,0,0
60175,-160,4,2,0,49,0,0
60200,-160,4,2,0,5,0,0
60475,-160,4,2,0,47,0,0
60500,-160,4,2,0,5,0,0
60675,-160,4,2,0,47,0,0
60700,-160,4,2,0,5,0,0
60975,-160,4,2,0,49,0,0
61000,-160,4,2,0,5,0,0
61275,-160,4,2,0,49,0,0
61300,-160,4,2,0,5,0,0
61475,-100,4,1,0,45,0,0
61875,-75.000001875,4,1,0,45,0,0
62075,-100,4,1,0,45,0,0
62475,-50,4,1,0,45,0,0
63075,-100,4,2,0,51,0,0
63100,-100,4,2,0,5,0,0
63375,-100,4,2,0,51,0,0
63400,-100,4,2,0,5,0,0
63675,-100,4,2,0,48,0,0
63700,-100,4,2,0,5,0,0
63875,-100,4,2,0,48,0,0
63900,-100,4,2,0,5,0,0
64175,-100,4,2,0,51,0,0
64200,-100,4,2,0,5,0,0
64475,-100,4,2,0,51,0,0
64500,-100,4,2,0,5,0,0
64675,-100,4,1,0,45,0,0
65275,-66.6666666666667,4,1,0,45,0,0
65775,-66.6666666666667,4,2,0,45,0,0
66275,-66.6666666666667,4,2,0,60,0,0
66300,-66.6666666666667,4,2,0,5,0,0
66575,-66.6666666666667,4,2,0,60,0,0
66600,-66.6666666666667,4,2,0,5,0,0
66875,-66.6666666666667,4,2,0,54,0,0
66900,-66.6666666666667,4,2,0,5,0,0
67075,-66.6666666666667,4,2,0,54,0,0
67100,-66.6666666666667,4,2,0,5,0,0
67375,-66.6666666666667,4,2,0,60,0,0
67400,-66.6666666666667,4,2,0,5,0,0
67675,-66.6666666666667,4,2,0,60,0,0
67700,-66.6666666666667,4,2,0,5,0,0
67875,-66.6666666666667,4,1,0,45,0,0
68175,-80,4,1,0,45,0,0
68475,-133.333333333333,4,1,0,45,0,0
68975,-133.333333333333,4,2,0,45,0,0
69275,-53.3333333333333,4,2,0,58,0,0
69300,-53.3333333333333,4,2,0,5,0,0
69475,-53.3333333333333,4,2,0,70,0,0
69500,-53.3333333333333,4,2,0,5,0,0
69775,-53.3333333333333,4,2,0,70,0,0
69800,-53.3333333333333,4,2,0,5,0,0
70075,-53.3333333333333,4,2,0,58,0,0
70100,-53.3333333333333,4,2,0,5,0,0
70275,-53.3333333333333,4,2,0,58,0,0
70300,-53.3333333333333,4,2,0,5,0,0
70575,-53.3333333333333,4,2,0,70,0,0
70600,-53.3333333333333,4,2,0,5,0,0
70875,-53.3333333333333,4,2,0,70,0,0
70900,-53.3333333333333,4,2,0,5,0,0
71075,-75.0000000000188,4,1,0,45,0,0
71675,-50,4,1,0,45,0,0
72175,-50,4,2,0,45,0,0
72475,-66.6666666666667,4,2,0,80,0,0
72500,-66.6666666666667,4,2,0,5,0,0
72675,-66.6666666666667,4,2,0,80,0,0
72700,-66.6666666666667,4,2,0,20,0,0
72975,-66.6666666666667,4,2,0,80,0,0
73000,-66.6666666666667,4,2,0,20,0,0
73275,-66.6666666666667,4,2,0,40,0,0
73300,-66.6666666666667,4,2,0,20,0,0
73475,-66.6666666666667,4,2,0,40,0,0
73500,-66.6666666666667,4,2,0,20,0,0
73775,-66.6666666666667,4,2,0,80,0,0
73800,-66.6666666666667,4,2,0,20,0,0
74075,-66.6666666666667,4,2,0,80,0,0
74100,-66.6666666666667,4,2,0,20,0,0
74275,-53.3333333333333,4,2,0,60,0,0
74300,-53.3333333333333,4,2,0,23,0,0
74575,-53.3333333333333,4,2,0,90,0,0
74600,-53.3333333333333,4,2,0,23,0,0
74875,-53.3333333333333,4,2,0,55,0,0
74900,-53.3333333333333,4,2,0,23,0,0
75075,-53.3333333333333,4,2,0,95,0,0
75100,-53.3333333333333,4,2,0,24,0,0
75275,-53.3333333333333,4,2,0,70,0,0
75375,-53.3333333333333,4,2,0,95,0,0
75400,-53.3333333333333,4,2,0,24,0,0
75675,-53.3333333333333,4,2,0,50,0,0
75700,-53.3333333333333,4,2,0,24,0,0
75875,-50,4,2,0,100,0,0
75900,-50,4,2,0,25,0,0
76175,-50,4,2,0,100,0,0
76200,-50,4,2,0,25,0,0
76475,-50,4,2,0,40,0,0
76500,-50,4,2,0,25,0,0
76675,-100,4,3,0,45,0,0
77475,-200,4,2,0,20,0,0
90275,-666.666666666667,4,2,0,10,0,0
96675,-500,4,2,0,10,0,0
99875,-333.333333333333,4,2,0,10,0,0
103075,-200,4,2,0,10,0,0
106275,-181.818181818182,4,2,0,10,0,0
109475,-133.333333333333,4,2,0,10,0,0
112275,-74.0740740740741,4,2,0,10,0,0
112675,-133.333333333333,4,2,0,10,0,0
115875,400,4,2,0,10,1,0
121475,-100,4,3,0,50,0,0
122275,-57.1428571428571,4,1,0,55,0,1
122675,-66.6666666666667,4,1,0,55,0,1
123075,-133.333333333333,4,1,0,55,0,1
123608,-83.3333333333333,4,2,0,35,0,1
123875,-74.0740740740741,4,2,0,50,0,1
124141,-66.6666666666667,4,2,0,65,0,1
124408,-60.6060606060606,4,2,0,80,0,1
124675,-66.6666666666667,4,3,0,65,0,1
125475,-57.1428571428571,4,1,0,55,0,1
125875,-66.6666666666667,4,1,0,55,0,1
126275,-133.333333333333,4,1,0,55,0,1
126875,-66.6666666666667,4,2,0,35,0,1
127075,-66.6666666666667,4,2,0,50,0,1
127475,-50,4,2,0,65,0,1
127875,-57.1428571428571,4,3,0,65,0,1
128675,-57.1428571428571,4,1,0,55,0,1
129875,-100,4,2,0,35,0,1
130175,-86.9565217391304,4,2,0,45,0,1
130475,-76.9230769230769,4,2,0,55,0,1
130775,-68.9655172413793,4,2,0,65,0,1
131075,-62.5,4,2,0,75,0,1
131100,-62.5,4,2,0,55,0,1
131375,-57.1428571428571,4,2,0,85,0,1
131675,-52.6315789473684,4,2,0,95,0,1
131875,-57.1428571428571,4,1,0,55,0,1
133208,-83.3333333333333,4,2,0,35,0,1
133475,-74.0740740740741,4,2,0,50,0,1
133741,-66.6666666666667,4,2,0,65,0,1
134008,-60.6060606060606,4,2,0,80,0,1
134275,-66.6666666666667,4,3,0,65,0,1
135075,-57.1428571428571,4,1,0,55,0,1
135875,-80,4,1,0,55,0,1
136475,-74.0740740740741,4,1,0,55,0,1
137075,-68.9655172413793,4,1,0,55,0,1
137475,-80,4,3,0,65,0,1
138275,-54.054054054054,4,1,0,55,0,1
138875,-57.1428571428571,4,1,0,55,0,1
139075,-80,4,1,0,55,0,1
139675,-66.6666666666667,4,2,0,45,0,1
139875,-66.6666666666667,4,2,0,50,0,1
140075,-60,4,2,0,55,0,1
140275,-57.1428571428571,4,2,0,60,0,1
140475,-50,4,2,0,65,0,1
140675,-57.1428571428571,4,3,0,65,0,1
141475,-57.1428571428571,4,1,0,55,0,1
142075,-57.1428571428571,4,1,0,55,0,1
142275,-80,4,1,0,55,0,1
142675,-100,4,2,0,35,0,1
142975,-86.9565217391304,4,2,0,45,0,1
143275,-76.9230769230769,4,2,0,55,0,1
143575,-68.9655172413793,4,2,0,65,0,1
143875,-62.5,4,2,0,75,0,1
143900,-62.5,4,2,0,55,0,1
144175,-57.1428571428571,4,2,0,85,0,1
144475,-52.6315789473684,4,2,0,95,0,1
144675,-57.1428571428571,4,1,0,55,0,1
145475,-100,4,1,0,55,0,1
146075,-66.6666666666667,4,2,0,45,0,1
146275,-66.6666666666667,4,2,0,50,0,1
146475,-60,4,2,0,55,0,1
146675,-57.1428571428571,4,2,0,60,0,1
146875,-50,4,2,0,65,0,1
147075,-100,4,3,0,65,0,1
147875,-100,4,1,0,45,0,0
148475,-66.6666666666667,4,1,0,45,0,0
150275,-100,4,1,0,45,0,0
151075,-66.6666666666667,4,1,0,45,0,0
151375,-80,4,1,0,45,0,0
152675,-133.333333333333,4,1,0,45,0,0
154275,-75.0000000000188,4,1,0,45,0,0
154875,-50,4,1,0,45,0,0
156675,-133.333333333333,4,1,0,45,0,0
157475,-100,4,1,0,45,0,0
157875,-75.0000187500047,4,1,0,45,0,0
158075,-100,4,1,0,45,0,0
158475,-50,4,1,0,45,0,0
159475,-100,4,1,0,40,0,0
159875,-66.6666666666667,4,1,0,40,0,0
160675,-100,4,1,0,45,0,0
161275,-66.6666666666667,4,1,0,45,0,0
163075,-100,4,1,0,45,0,0
163875,-66.6666666666667,4,1,0,45,0,0
164175,-80,4,1,0,45,0,0
164475,-133.333333333333,4,1,0,45,0,0
164875,-100,4,1,0,45,0,0
167075,-75.0000000000188,4,1,0,45,0,0
167675,-50,4,1,0,45,0,0
169475,-133.333333333333,4,1,0,45,0,0
170275,-100,4,1,0,45,0,0
170675,-75.000001875,4,1,0,45,0,0
170875,-100,4,1,0,45,0,0
171275,-50,4,1,0,45,0,0
172275,-133.333333333333,4,1,0,45,0,0
172675,-133.333333333333,4,1,0,35,0,0
173475,-285.714285714286,4,2,0,45,0,0

[HitObjects]
68,197,675,5,2,0:0:0:0:
184,66,1075,2,0,L|195:99,2,35.2000010742188
240,233,1675,6,0,L|194:99,1,140.800004296875
306,104,3075,5,0,0:0:0:0:
422,160,3275,1,0,0:0:0:0:
326,228,3475,1,0,0:0:0:0:
426,270,3675,1,0,0:0:0:0:
306,104,3875,5,2,0:0:0:0:
306,104,4475,5,0,0:0:0:0:
188,79,4675,1,0,0:0:0:0:
75,120,4875,1,0,0:0:0:0:
37,103,5275,5,0,0:0:0:0:
233,133,6275,5,0,0:0:0:0:
37,103,6675,1,0,0:0:0:0:
83,190,7075,5,2,0:0:0:0:
106,150,8075,1,0,0:0:0:0:
200,262,8675,5,0,0:0:0:0:
295,238,9475,2,0,L|263:344,2,105.600003222656
282,99,10275,5,2,0:0:0:0:
282,99,11275,6,0,L|280:91,1,8.8000002685547
389,108,11475,1,0,0:0:0:0:
458,190,11675,1,0,0:0:0:0:
340,213,12675,5,0,0:0:0:0:
172,171,13075,1,0,0:0:0:0:
74,210,13475,6,0,P|106:250|153:273,1,105.600003222656,2|0,0:0|0:0,0:0:0:0:
188,276,13875,1,8,0:2:0:0:
340,213,14075,1,0,0:0:0:0:
187,66,14275,2,0,P|136:73|92:102,1,105.600003222656,2|0,0:0|0:0,0:0:0:0:
73,132,14675,1,8,0:2:0:0:
336,209,14875,1,0,0:0:0:0:
340,213,15075,6,0,L|448:174,2,105.600003222656,2|2|2,0:0|0:0|0:0,0:0:0:0:
247,149,15875,2,0,L|226:262,1,105.600003222656,2|2,0:0|0:0,0:0:0:0:
36,106,16475,2,0,L|63:128,1,35.2000010742188,2|0,0:0|0:0,0:0:0:0:
124,199,16675,6,0,B|148:172|148:172|160:105,1,105.600003222656,2|0,0:0|0:0,0:0:0:0:
167,68,17075,1,8,0:0:0:0:
1,40,17275,1,0,0:0:0:0:
15,217,17475,2,0,B|25:250|25:250|78:296,1,105.600003222656,2|0,0:0|0:0,0:0:0:0:
106,320,17875,1,8,0:0:0:0:
149,155,18075,1,0,0:0:0:0:
153,159,18275,2,0,L|172:55,2,105.600003222656,2|2|2,0:0|0:0|0:0,0:0:0:0:
275,60,19075,1,2,0:0:0:0:
233,294,19475,1,8,0:0:0:0:
356,196,19875,6,0,L|336:299,1,105.600003222656,2|0,0:0|0:0,0:0:0:0:
330,334,20275,1,8,0:0:0:0:
249,204,20475,1,0,0:0:0:0:
253,208,20675,2,0,L|199:298,1,105.600003222656,2|0,0:0|0:0,0:0:0:0:
181,329,21075,1,8,0:0:0:0:
148,180,21275,1,0,0:0:0:0:
152,184,21475,2,0,L|70:251,1,105.600003222656,2|0,0:0|0:0,0:0:0:0:
43,273,21875,1,8,0:0:0:0:
37,121,22075,1,0,0:0:0:0:
156,26,22275,2,0,L|223:107,2,105.600003222656,2|2|2,0:0|0:0|0:0,0:0:0:0:
290,188,23075,5,2,0:0:0:0:
132,321,23375,1,0,0:0:0:0:
132,321,23475,2,0,L|67:293,1,70.4000021484376,8|0,0:0|0:0,0:0:0:0:
280,292,23875,5,2,0:0:0:0:
133,238,24075,1,0,0:0:0:0:
133,238,24175,2,0,L|126:186,1,35.2000010742188,0|8,0:0|0:0,0:0:0:0:
205,197,24475,1,0,0:0:0:0:
101,130,25475,5,8,0:0:0:0:
249,133,25675,2,4,L|210:196,1,40
172,259,25875,1,4,0:0:0:0:
101,130,26075,1,4,0:0:0:0:
249,133,26275,6,0,B|321:171|321:171|341:202,1,120,4|0,0:0|0:0,0:0:0:0:
211,257,26675,2,0,L|170:259,1,40,0|2,0:0|0:3,0:0:0:0:
31,218,26875,2,0,B|49:185|49:185|117:140,1,120.000004577637,4|8,0:3|0:1,0:0:0:0:
341,203,27275,5,0,0:0:0:0:
31,218,27675,1,0,0:0:0:0:
250,295,28075,5,2,0:2:0:0:
122,125,28275,2,2,P|147:95|184:75,2,80.0000030517579,2|2|2,0:2|0:2|0:2,0:2:0:0:
95,214,28675,2,0,B|158:211|158:211|200:174|200:174|262:187|307:226,1,240.000009155274,8|8,0:0|0:3,0:0:0:0:
223,294,29475,6,0,L|197:177,1,120.000004577637,4|0,0:3|0:0,0:0:0:0:
281,108,29775,2,0,L|302:205,1,100,0|2,0:0|0:3,0:0:0:0:
92,157,30075,2,0,L|78:98,1,60.0000022888184,4|8,0:2|0:1,0:0:0:0:
162,29,30475,5,0,0:2:0:0:
111,244,30875,1,2,0:2:0:0:
342,354,31275,5,2,0:2:0:0:
209,237,31475,1,0,0:0:0:0:
219,327,31675,1,4,0:3:0:0:
418,305,31875,5,8,0:0:0:0:
20,349,32275,1,8,0:3:0:0:
198,146,32675,6,0,P|276:136|343:176,1,160,4|0,0:3|0:0,0:0:0:0:
294,272,33075,2,0,P|273:255|256:234,1,53.3333333333333,0|2,0:0|0:3,0:0:0:0:
257,235,33275,2,0,P|227:307|158:345,1,160,4|8,0:3|0:0,0:0:0:0:
104,100,33675,5,0,0:0:0:0:
151,241,34275,5,0,0:0:0:0:
57,194,34675,5,0,0:0:0:0:
266,123,34875,1,4,0:3:0:0:
127,171,35075,1,8,0:0:0:0:
197,147,35275,1,0,0:0:0:0:
337,100,35475,1,8,0:3:0:0:
443,65,35875,6,0,L|401:177,1,120,4|0,0:3|0:0,0:0:0:0:
475,268,36275,2,0,L|492:217,1,53.3333224826411,0|2,0:0|0:3,0:0:0:0:
306,143,36475,2,0,L|279:219,1,80,4|8,0:3|0:0,0:0:0:0:
317,295,36875,6,2,L|474:267,1,160,2|0,0:2|0:0,0:2:0:0:
180,191,37275,1,4,0:3:0:0:
332,192,38075,5,4,0:3:0:0:
180,191,38275,2,0,P|256:171|332:192,1,160,8|8,0:0|0:3,0:0:0:0:
51,256,39075,6,0,P|23:204|24:144,1,120,4|0,0:0|0:0,0:0:0:0:
145,173,39475,2,0,L|180:191,1,40,0|2,0:0|0:3,0:0:0:0:
273,274,39675,2,0,P|226:309|167:316,1,120,4|8,0:3|0:0,0:0:0:0:
24,144,40075,5,0,0:0:0:0:
273,274,40475,1,0,0:0:0:0:
58,264,40875,5,2,0:2:0:0:
254,179,41075,2,2,P|291:165|329:173,2,80.0000030517579,2|2|2,0:2|0:2|0:2,0:2:0:0:
167,213,41475,2,0,B|208:256|208:256|267:265|267:265|307:317|268:376,1,240.000009155274,8|8,0:0|0:3,0:0:0:0:
71,182,42275,6,0,P|104:134|159:111,1,120.000004577637,4|0,0:3|0:0,0:0:0:0:
207,300,42575,2,0,P|176:261|167:212,1,100,0|2,0:0|0:3,0:0:0:0:
324,201,42875,2,0,P|296:213|267:217,1,60.0000022888184,4|8,0:2|0:0,0:0:0:0:
269,116,43275,5,0,0:0:0:0:
92,280,43675,1,2,0:2:0:0:
157,98,44075,5,2,0:2:0:0:
203,297,44275,1,0,0:0:0:0:
278,228,44475,1,4,0:3:0:0:
105,267,44675,5,8,0:0:0:0:
451,188,45075,1,8,0:3:0:0:
157,98,45475,6,0,B|77:105|77:105|23:163,1,160,4|0,0:3|0:0,0:0:0:0:
121,251,45875,2,0,B|132:228|132:228|125:203,1,53.3333333333333,0|2,0:0|0:3,0:0:0:0:
124,202,46075,2,0,B|196:235|196:235|272:211,1,160,4|8,0:3|0:1,0:0:0:0:
419,46,46475,5,0,0:0:0:0:
488,254,47075,5,0,0:0:0:0:
273,211,47475,5,0,0:0:0:0:
55,263,47675,1,4,0:3:0:0:
194,195,47875,1,8,0:0:0:0:
117,214,48075,1,0,0:0:0:0:
19,333,48275,1,8,0:3:0:0:
120,92,48675,6,0,P|153:44|208:21,1,120.000004577637,4|0,0:3|0:0,0:0:0:0:
321,124,49075,2,0,P|348:121|372:110,1,53.3333333333333,0|2,0:0|0:3,0:0:0:0:
215,121,49275,2,0,P|220:160|239:195,1,80,4|8,0:3|0:0,0:0:0:0:
321,24,49675,6,2,P|249:55|221:128,1,160,2|0,0:2|0:0,0:2:0:0:
420,22,50075,1,4,0:3:0:0:
138,192,50875,5,4,0:0:0:0:
215,122,51075,1,8,0:0:0:0:
337,191,51275,2,4,L|303:211,1,40,4|4,0:0|0:0,0:0:0:0:
215,262,51475,1,4,0:0:0:0:
215,122,51675,1,4,0:0:0:0:
337,191,51875,6,0,B|380:259|380:259|382:296,1,120,4|0,0:0|0:0,0:0:0:0:
242,279,52275,2,0,L|205:260,1,40,0|2,0:0|0:3,0:0:0:0:
105,155,52475,2,0,B|137:135|137:135|218:130,1,120.000004577637,4|8,0:3|0:0,0:0:0:0:
381,271,52875,5,0,0:0:0:0:
385,275,52975,1,0,0:0:0:0:
206,260,53275,1,0,0:0:0:0:
309,113,53475,6,0,L|312:108,1,5
399,121,53775,2,0,L|402:116,1,5
489,129,54075,2,0,L|492:124,1,5,4|0,0:3|0:0,0:0:0:0:
258,187,54275,6,0,L|261:182,1,5,8|0,0:1|0:0,0:0:0:0:
348,195,54575,2,0,L|351:190,1,5
438,203,54875,2,0,L|441:198,1,5
320,295,55075,6,0,L|202:268,1,120.000004577637,4|0,0:3|0:0,0:0:0:0:
23,129,55375,2,0,L|120:150,1,100,0|2,0:0|0:3,0:0:0:0:
132,354,55675,2,0,L|73:340,1,60.0000022888184,4|8,0:2|0:0,0:0:0:0:
199,170,56075,5,0,0:0:0:0:
203,174,56175,1,0,0:0:0:0:
262,282,56475,1,4,0:3:0:0:
138,279,56675,6,0,L|130:283,1,8.50000016212464
114,198,56975,2,0,L|106:202,1,8.50000016212464
90,117,57275,2,0,L|82:121,1,8.50000016212464,4|0,0:3|0:0,0:0:0:0:
196,217,57475,6,0,L|188:221,1,8.50000016212464,8|0,0:1|0:0,0:0:0:0:
172,136,57775,2,0,L|164:140,1,8.50000016212464
148,55,58075,2,0,L|140:59,1,8.50000016212464
303,213,58275,6,0,P|272:285|204:323,1,160,4|0,0:3|0:0,0:0:0:0:
145,231,58675,2,0,P|170:221|196:217,1,53.3333333333333,0|2,0:0|0:3,0:0:0:0:
196,218,58875,2,0,P|148:156|150:77,1,160,4|8,0:3|0:0,0:0:0:0:
337,93,59275,5,0,0:0:0:0:
341,97,59375,1,0,0:0:0:0:
196,218,59675,1,0,0:0:0:0:
164,31,59875,6,0,L|157:42,1,12.5
253,64,60175,2,0,L|246:75,1,12.5
342,97,60475,2,0,L|335:108,1,12.5,4|0,0:3|0:0,0:0:0:0:
179,124,60675,6,0,L|172:135,1,12.5,8|0,0:1|0:0,0:0:0:0:
268,157,60975,2,0,L|261:168,1,12.5
357,190,61275,2,0,L|350:201,1,12.5
325,289,61475,6,0,L|240:373,1,120,4|0,0:3|0:0,0:0:0:0:
211,266,61875,2,0,L|248:228,1,53.3333333333333,0|2,0:0|0:3,0:0:0:0:
438,311,62075,2,0,L|380:366,1,80,4|8,0:3|0:0,0:0:0:0:
385,226,62475,6,2,B|442:169|442:169|520:150,1,160,2|0,0:2|0:0,0:2:0:0:
380,366,62875,1,4,0:3:0:0:
320,295,63075,6,0,L|329:312,1,20
232,240,63375,2,0,L|212:239,1,20
323,191,63675,2,0,L|333:174,1,20,4|0,0:3|0:0,0:0:0:0:
228,343,63875,6,0,L|217:359,1,20,8|0,0:1|0:0,0:0:0:0:
232,240,64175,2,0,L|222:223,1,20
319,294,64475,2,0,L|338:294,1,20
137,190,64675,6,0,P|79:178|33:138,1,120,4|0,0:0|0:0,0:0:0:0:
131,64,65075,2,0,L|167:48,1,40,0|2,0:0|0:3,0:0:0:0:
292,29,65275,2,0,P|288:87|256:137,1,120,4|8,0:3|0:0,0:0:0:0:
34,138,65675,5,0,0:0:0:0:
25,127,65775,1,0,2:0:0:0:
292,29,66075,1,0,0:0:0:0:
431,158,66275,6,0,P|440:202|429:245,1,60.0000022888184
337,295,66575,2,0,P|294:281|261:249,1,60.0000022888184
264,146,66875,2,0,P|297:115|340:103,1,60.0000022888184,4|0,0:3|0:0,0:0:0:0:
424,252,67075,6,0,P|390:282|347:294,1,60.0000022888184,8|0,0:1|0:0,0:0:0:0:
259,240,67375,2,0,P|249:195|260:152,1,60.0000022888184,0|4,0:0|0:3,0:0:0:0:
351,102,67675,2,0,P|393:115|426:147,1,60.0000022888184
303,301,67875,6,0,P|260:260|246:202,1,120.000004577637,4|0,0:3|0:0,0:0:0:0:
441,185,68175,2,0,P|397:209|347:210,1,100,0|2,0:0|0:3,0:0:0:0:
362,54,68475,2,0,P|369:83|368:112,1,60.0000022888184,4|8,0:2|0:0,0:0:0:0:
269,95,68875,5,0,0:0:0:0:
280,104,68975,1,0,2:0:0:0:
403,295,69275,2,0,P|368:280|331:279,1,75,4|0,0:3|0:0,0:0:0:0:
243,300,69475,6,0,P|208:290|178:267,1,75
168,127,69775,2,0,P|195:101|229:87,1,75
355,148,70075,2,0,P|364:184|360:221,1,75,4|0,0:3|0:0,0:0:0:0:
156,235,70275,6,0,P|147:199|151:162,1,75,8|0,0:1|0:0,0:0:0:0:
268,83,70575,2,0,P|303:93|333:116,1,75,0|4,0:0|0:3,0:0:0:0:
343,256,70875,2,0,P|316:282|282:296,1,75
311,153,71075,6,0,B|391:160|391:160|445:218,1,160,4|0,0:3|0:0,0:0:0:0:
347,306,71475,2,0,B|336:283|336:283|343:258,1,53.3333333333333,0|2,0:0|0:3,0:0:0:0:
344,257,71675,2,0,B|272:290|272:290|196:266,1,160,4|8,0:3|0:0,0:0:0:0:
181,91,72075,5,0,0:0:0:0:
194,85,72175,1,0,2:0:0:0:
355,232,72475,2,0,P|365:259|368:290,1,60.0000022888184
284,278,72675,6,0,P|224:272|175:239,1,120.000004577637
258,178,72975,2,0,P|291:128|344:102,1,120.000004577637
357,204,73275,2,0,P|373:229|382:257,1,60.0000022888184,4|0,0:3|0:0,0:0:0:0:
297,263,73475,6,0,P|237:270|183:248,1,120.000004577637,8|0,0:1|0:0,0:0:0:0:
251,171,73775,2,0,P|273:115|320:79,1,120.000004577637
353,175,74075,2,0,P|373:197|389:222,1,60.0000022888184
163,147,74275,6,0,P|107:97|86:26,1,150.000003576279,4|0,0:3|0:0,0:0:0:0:
93,135,74575,2,0,P|77:207|27:260,1,150.000003576279,0|2,0:0|0:3,0:0:0:0:
192,44,74875,2,0,P|225:26|262:20,1,75.0000017881394,4|0,0:3|0:0,0:0:0:0:
381,23,75075,6,0,P|449:51|492:112,1,150.000003576279,0|2,0:0|0:2,0:0:0:0:
474,235,75375,2,0,P|414:279|340:287,1,150.000003576279
233,275,75675,2,0,P|195:280|160:295,1,75.0000017881394,4|0,0:3|0:0,0:0:0:0:
234,383,75875,6,0,P|300:350|340:287,1,150.000003576279
333,156,76175,2,0,P|337:81|382:21,1,150.000003576279
333,156,76475,2,0,P|313:194|281:221,1,80,4|0,0:3|0:0,0:0:0:0:
249,82,76675,5,8,0:0:0:0:
384,117,76875,2,4,L|356:145,1,40
286,218,77075,1,4,0:0:0:0:
249,82,77275,1,4,0:0:0:0:
384,117,77475,5,2,0:2:0:0:
186,120,90275,6,0,P|256:105|326:119,1,143.999995605469,2|0,0:0|0:0,0:0:0:0:
303,239,93475,6,0,P|256:248|209:238,1,95.9999970703126,2|0,0:0|0:0,0:0:0:0:
190,227,95875,1,0,0:0:0:0:
322,227,96675,6,0,P|414:242|476:313,1,192,2|0,0:0|0:0,0:0:0:0:
434,223,99875,6,0,P|400:135|431:46,1,192,2|0,0:0|0:0,0:0:0:0:
434,223,102275,1,2,0:0:0:0:
59,362,103075,6,0,L|61:342,5,20,4|0|0|0|0|0,0:3|0:0|0:0|0:0|0:0|0:0,0:0:0:0:
129,284,103675,2,0,L|126:261,1,20,4|0,0:3|0:0,0:0:0:0:
59,206,103875,2,0,L|61:184,3,20,8|0|0|0,0:0|0:0|0:0|0:0,0:0:0:0:
129,128,104275,2,0,L|126:103,1,20,2|0,0:3|0:0,0:0:0:0:
59,50,104475,1,2,0:3:0:0:
59,50,104575,2,0,L|79:52,2,20,2|0|0,0:3|0:0|0:0,0:0:0:0:
162,24,104875,2,0,L|181:21,3,20,2|0|0|0,0:3|0:0|0:0|0:0,0:0:0:0:
265,50,105275,2,0,L|287:52,1,20,4|0,0:3|0:0,0:0:0:0:
368,24,105475,2,0,L|387:21,3,20,8|0|0|0,0:0|0:0|0:0|0:0,0:0:0:0:
471,50,105875,2,0,L|491:52,3,20,4|0|0|0,0:3|0:0|0:0|0:0,0:0:0:0:
393,112,106275,6,0,L|384:145,5,22.0000006713867,4|0|0|0|0|0,0:3|0:0|0:0|0:0|0:0|0:0,0:0:0:0:
306,174,106875,2,0,L|273:165,1,22.0000006713867,4|0,0:3|0:0,0:0:0:0:
244,87,107075,2,0,L|253:54,1,22.0000006713867,2|0,0:3|0:0,0:0:0:0:
331,25,107275,2,0,L|364:34,3,22.0000006713867,8|0|0|0,0:0|0:0|0:0|0:0,0:0:0:0:
393,112,107675,2,0,L|384:145,7,22.0000006713867,2|0|0|0|0|0|0|0,0:3|0:0|0:0|0:0|0:0|0:0|0:0|0:0,0:0:0:0:
463,185,108475,2,0,L|472:218,1,22.0000006713867,4|0,0:3|0:0,0:0:0:0:
393,258,108675,2,0,L|384:291,3,22.0000006713867,2|0|0|0,0:3|0:0|0:0|0:0,0:0:0:0:
463,331,109075,2,0,L|472:364,3,22.0000006713867,4|0|0|0,0:3|0:0|0:0|0:0,0:0:0:0:
294,342,109475,6,0,L|265:333,5,30.0000011444092,4|0|0|0|0|0,0:3|0:0|0:0|0:0|0:0|0:0,0:0:0:0:
189,344,110075,2,0,L|181:314,1,30.0000011444092,4|0,0:3|0:0,0:0:0:0:
134,254,110275,2,0,L|155:232,3,30.0000011444092,2|0|0|0,0:3|0:0|0:0|0:0,0:0:0:0:
184,161,110675,2,0,L|212:169,1,30.0000011444092,4|0,0:3|0:0,0:0:0:0:
289,157,110875,2,0,L|295:186,1,30.0000011444092,8|0,0:0|0:0,0:0:0:0:
344,245,111075,1,8,0:0:0:0:
344,245,111175,1,8,0:0:0:0:
344,245,111275,2,0,L|321:265,3,30.0000011444092,4|0|0|0,0:3|0:0|0:0|0:0,0:0:0:0:
269,334,111675,2,0,L|247:313,1,30.0000011444092,4|0,0:3|0:0,0:0:0:0:
194,245,111875,2,0,L|170:266,3,30.0000011444092,2|0|0|0,0:3|0:0|0:0|0:0,0:0:0:0:
119,333,112275,2,0,L|79:296,3,54.0000002059937,4|0|0|0,0:3|0:0|0:0|0:0,0:0:0:0:
81,202,112675,6,0,L|89:172,5,30.0000011444092,4|0|0|0|0|0,0:3|0:0|0:0|0:0|0:0|0:0,0:0:0:0:
155,95,113275,2,0,L|163:125,1,30.0000011444092,4|0,0:3|0:0,0:0:0:0:
229,202,113475,2,0,L|237:172,5,30.0000011444092,2|0|0|0|0|0,0:3|0:0|0:0|0:0|0:0|0:0,0:0:0:0:
303,95,114075,2,0,L|311:125,7,30.0000011444092,4|0|0|0|0|0|0|0,0:3|0:0|0:0|0:0|0:0|0:0|0:0|0:0,0:0:0:0:
377,202,114875,2,0,L|407:210,1,30.0000011444092,4|0,0:3|0:0,0:0:0:0:
499,202,115075,2,0,L|491:232,3,30.0000011444092,2|0|0|0,0:3|0:0|0:0|0:0,0:0:0:0:
499,324,115475,2,0,L|469:316,3,30.0000011444092,4|0|0|0,0:3|0:0|0:0|0:0,0:0:0:0:
256,192,115875,12,8,121475,0:0:0:0:
348,192,121675,6,4,L|313:212,1,40,4|4,0:0|0:0,0:0:0:0:
210,273,121875,1,4,0:0:0:0:
209,112,122075,1,4,0:0:0:0:
348,192,122275,6,0,B|431:220|431:220|494:271|494:271|489:231,1,210.000002002716,4|0,0:0|0:0,0:0:0:0:
450,90,122675,2,0,B|418:39|418:39|363:18,1,120,0|4,0:0|0:3,0:0:0:0:
198,2,123075,2,0,B|140:19|140:19|105:67,1,120,8|4,0:0|0:3,0:0:0:0:
144,225,123608,2,0,P|180:240|208:268,1,63.9999980468751
337,311,123875,2,0,P|376:306|414:316,1,72.0000002746582,2|0,0:0|0:0,0:0:0:0:
189,154,124141,2,0,P|150:143|111:148,1,80.0000030517579,0|2,0:0|0:0,0:0:0:0:
351,133,124408,2,0,P|320:103|279:88,1,88.0000008392334
104,67,124675,5,8,0:2:0:0:
104,67,125075,5,8,3:3:0:0:
100,84,125175,1,0,3:0:0:0:
96,101,125275,1,0,3:0:0:0:
92,118,125375,1,0,3:0:0:0:
88,135,125475,2,0,B|77:187|77:187|165:238|165:238|205:202,1,210.000002002716,4|0,0:0|0:0,0:0:0:0:
304,122,125875,2,0,B|350:84|350:84|371:139,1,120.000004577637,0|4,0:0|0:3,0:0:0:0:
468,234,126275,2,0,B|421:271|421:271|362:284,1,120,8|4,0:0|0:3,0:0:0:0:
257,231,126875,1,0,0:0:0:0:
257,231,126975,1,0,0:0:0:0:
257,231,127075,2,0,P|234:213|206:202,3,60.0000022888184,2|0|0|0,0:0|0:0|0:0|0:0,0:0:0:0:
111,251,127475,2,0,P|79:228|43:212,3,80,2|0|0|0,0:0|0:0|0:0|0:0,0:0:0:0:
13,67,127875,5,8,0:2:0:0:
290,116,128275,1,8,0:3:0:0:
152,92,128675,6,0,B|166:74|166:74|157:44|157:44|128:87|128:87|147:193|147:193|106:244,1,280.000002670288,4|0,0:0|0:0,0:0:0:0:
18,285,129275,2,0,B|65:337|65:337|134:337,1,140.000001335144,4|0,0:3|0:0,0:0:0:0:
426,296,129875,6,0,P|465:301|504:325,1,80,4|0,0:3|0:0,0:0:0:0:
462,255,130175,2,0,P|443:214|448:169,1,92.0000017547608
493,101,130475,2,0,P|509:53|502:2,1,103.999995239258,2|0,0:0|0:0,0:0:0:0:
408,52,130775,2,0,P|355:74|298:70,1,116.000003540039
209,137,131075,2,0,P|145:126|81:151,1,128,10|0,0:0|0:0,0:0:0:0:
205,101,131375,2,0,P|266:69|301:10,1,140.000001335144
72,70,131675,2,0,P|38:86|15:116,1,75.9999979705811,2|0,0:0|0:0,0:0:0:0:
155,227,131875,6,0,B|206:288|292:288|342:242|342:242|289:196,1,280.000002670288,4|0,0:0|0:0,0:0:0:0:
86,146,132475,2,0,B|31:189|31:189|1:252,1,140.000001335144,4|8,0:3|0:0,0:0:0:0:
288,195,133075,5,4,0:3:0:0:
372,181,133208,2,0,P|343:171|311:171,1,63.9999980468751
175,281,133475,2,0,P|186:248|207:218,1,72.0000002746582,2|0,0:0|0:0,0:0:0:0:
387,154,133741,2,0,P|332:146|291:167,1,80.0000030517579,0|2,0:0|0:0,0:0:0:0:
202,302,134008,2,0,P|203:247|227:213,1,88.0000008392334
417,130,134275,5,8,0:2:0:0:
456,35,134475,1,2,0:3:0:0:
436,38,134575,1,0,0:0:0:0:
416,41,134675,1,8,0:3:0:0:
396,46,134775,1,0,0:0:0:0:
376,50,134875,1,4,0:3:0:0:
356,56,134975,1,0,0:0:0:0:
336,61,135075,2,0,B|269:79|269:79|429:228,1,280.000002670288,4|0,0:0|0:0,0:0:0:0:
488,83,135675,5,4,0:3:0:0:
270,79,135875,2,0,B|258:127|258:127|274:176,1,100,8|0,0:0|0:0,0:0:0:0:
417,130,136275,1,4,0:3:0:0:
199,125,136475,2,0,B|222:203|222:203|241:222,1,108.000000411987,0|2,0:0|0:2,0:0:0:0:
411,45,136875,1,0,0:0:0:0:
161,201,137075,2,0,B|245:280,1,116.000003540039,2|0,0:2|0:0,0:0:0:0:
334,7,137475,5,8,0:2:0:0:
103,103,137875,6,0,L|151:113,1,50,8|0,0:3|0:0,0:0:0:0:
248,133,138075,1,4,0:3:0:0:
272,138,138175,1,4,0:3:0:0:
296,143,138275,2,0,B|197:254|197:254|152:113,1,295.99999887085,4|0,0:0|0:0,0:0:0:0:
279,48,138875,2,0,L|346:66,1,70.000000667572,4|0,0:3|0:0,0:0:0:0:
267,27,139075,2,0,B|363:54|363:54|422:134,1,200,8|4,0:0|0:3,0:0:0:0:
349,249,139675,5,0,0:0:0:0:
336,270,139775,1,0,0:0:0:0:
317,286,139875,2,0,P|290:299|260:304,1,60.0000022888184,2|0,0:0|0:0,0:0:0:0:
154,258,140075,2,0,P|139:228|134:196,1,66.6666666666667
186,84,140275,2,0,P|217:69|251:64,1,70.000000667572,2|0,0:0|0:0,0:0:0:0:
378,112,140475,2,0,P|395:147|402:186,1,80
345,330,140675,5,8,0:2:0:0:
166,53,141075,1,8,0:3:0:0:
299,265,141475,6,0,B|344:330|344:330|409:284|409:284|364:219|364:219|329:243,1,280.000002670288,4|0,0:0|0:0,0:0:0:0:
243,332,142075,2,0,L|175:314,1,70.000000667572,4|0,0:3|0:0,0:0:0:0:
254,354,142275,2,0,B|157:329|157:329|111:349,1,150,8|0,0:0|0:0,0:0:0:0:
65,369,142675,6,0,P|37:342|22:300,1,80,4|0,0:3|0:0,0:0:0:0:
16,224,142975,2,0,P|21:178|39:136,1,92.0000017547608
57,45,143275,2,0,P|101:72|151:81,1,103.999995239258,2|0,0:0|0:0,0:0:0:0:
249,37,143575,2,0,P|306:26|371:34,1,116.000003540039
488,52,143875,2,0,P|478:114|497:175,1,128,10|0,0:0|0:0,0:0:0:0:
436,70,144175,2,0,P|381:26|315:3,1,140.000001335144
159,108,144475,2,0,P|192:125|230:130,1,75.9999979705811,2|0,0:0|0:0,0:0:0:0:
351,111,144675,6,0,B|380:125|397:155|391:192|360:228|360:228|330:261|329:296|329:296|370:347,1,280.000002670288,4|0,0:0|0:0,0:0:0:0:
425,33,145475,2,0,B|351:11|351:11|272:39,1,160,8|4,0:0|0:3,0:0:0:0:
143,139,146075,1,0,0:0:0:0:
136,155,146175,1,0,0:0:0:0:
135,172,146275,2,0,P|137:202|159:255,1,60.0000022888184,2|0,0:0|0:0,0:0:0:0:
182,334,146475,2,0,P|209:315|231:291,1,66.6666666666667
306,202,146675,2,0,P|275:186|241:178,1,70.000000667572,2|0,0:0|0:0,0:0:0:0:
113,152,146875,2,0,P|115:191|126:229,1,80
214,363,147075,5,8,0:2:0:0:
311,276,147275,1,0,2:0:0:0:
187,235,147475,1,8,0:3:0:0:
163,227,147575,1,0,0:0:0:0:
139,219,147675,1,4,0:3:0:0:
115,211,147775,1,0,0:0:0:0:
91,203,147875,6,0,B|26:153|26:153|12:119,1,120,4|0,0:0|0:0,0:0:0:0:
149,87,148275,2,0,L|189:92,1,40,0|2,0:0|0:3,0:0:0:0:
320,157,148475,2,0,B|296:186|296:186|221:218,1,120.000004577637,4|8,0:3|0:0,0:0:0:0:
12,118,148875,5,0,0:0:0:0:
175,60,149075,1,0,0:0:0:0:
320,157,149275,1,0,0:0:0:0:
156,214,149675,5,2,0:2:0:0:
320,157,149875,2,2,P|358:166|392:187,2,80.0000030517579,2|2|2,0:2|0:2|0:2,0:2:0:0:
257,240,150275,2,0,L|242:318,1,80,8|0,0:0|0:0,0:0:0:0:
354,372,150675,2,0,L|339:294,1,80,4|0,0:3|0:0,0:0:0:0:
257,240,151075,6,0,L|155:175,1,120.000004577637,4|0,0:3|0:0,0:0:0:0:
166,67,151375,2,0,L|249:120,1,100,0|2,0:0|0:3,0:0:0:0:
67,235,151675,1,4,0:2:0:0:
46,165,151875,1,8,0:0:0:0:
26,95,152075,5,0,0:0:0:0:
142,283,152475,1,2,0:2:0:0:
192,173,152675,2,2,P|187:192|180:211,1,40.000001525879,2|2,0:2|0:2,0:2:0:0:
207,189,152941,2,2,P|197:206|185:222,1,40.000001525879,2|2,0:2|0:2,0:2:0:0:
213,90,153275,1,4,0:3:0:0:
142,283,153475,5,8,0:0:0:0:
414,54,153875,1,8,0:3:0:0:
309,216,154275,6,0,P|231:226|164:186,1,160,4|0,0:3|0:0,0:0:0:0:
213,90,154675,1,0,0:0:0:0:
234,107,154775,1,2,0:3:0:0:
250,127,154875,2,0,P|280:55|349:17,1,160,4|8,0:3|0:0,0:0:0:0:
432,23,155275,5,0,0:0:0:0:
356,121,155875,5,0,0:0:0:0:
450,168,156275,5,0,0:0:0:0:
241,239,156475,1,4,0:3:0:0:
450,168,156675,2,0,L|541:186,2,90.0000034332277,8|2|2,0:0|0:2|0:2,0:0:0:0:
358,263,157475,6,0,L|240:239,1,120,4|0,0:3|0:0,0:0:0:0:
163,325,157875,2,0,L|242:339,1,53.3333224826411,0|2,0:0|0:3,0:0:0:0:
259,139,158075,2,0,L|179:124,1,80,4|8,0:3|0:0,0:0:0:0:
111,172,158475,6,2,L|163:322,1,160,2|0,0:2|0:0,0:2:0:0:
193,23,158875,1,4,0:3:0:0:
358,263,159275,1,0,0:0:0:0:
240,238,159475,2,0,P|213:234|187:237,2,53.3333333333333,0|0|0,0:0|0:0|0:0,0:0:0:0:
329,319,159875,2,0,B|357:262|357:262|346:208|346:208|389:160|445:141,1,240.000009155274,8|8,0:0|0:3,0:0:0:0:
275,165,160675,6,0,P|218:149|159:163,1,120,4|0,0:0|0:0,0:0:0:0:
215,274,161075,2,0,L|240:304,1,40,0|2,0:0|0:3,0:0:0:0:
341,376,161275,2,0,P|364:322|358:263,1,120,4|8,0:3|0:0,0:0:0:0:
160,163,161675,5,0,0:0:0:0:
250,269,161875,1,0,0:0:0:0:
341,376,162075,1,0,0:0:0:0:
160,163,162675,5,0,0:0:0:0:
256,192,162875,1,4,0:3:0:0:
352,163,163075,2,0,L|417:116,1,80,8|0,0:0|0:0,0:0:0:0:
247,112,163475,2,0,L|255:191,1,80,4|0,0:3|0:0,0:0:0:0:
344,47,163875,6,0,P|291:21|232:29,1,120.000004577637,4|0,0:3|0:0,0:0:0:0:
285,217,164175,2,0,P|292:167|275:120,1,100,0|2,0:0|0:3,0:0:0:0:
134,189,164475,2,0,P|164:185|191:174,1,60.0000022888184,4|8,0:2|0:0,0:0:0:0:
139,88,164875,5,0,0:0:0:0:
374,142,165275,1,4,0:3:0:0:
413,211,165475,2,2,P|423:235|428:261,1,53.3333333333333,2|2,0:2|0:2,0:2:0:0:
432,219,165741,2,2,P|435:244|433:271,1,53.3333333333333,2|2,0:2|0:2,0:2:0:0:
298,249,166075,1,4,0:3:0:0:
243,129,166275,5,8,0:0:0:0:
353,369,166675,1,8,0:3:0:0:
243,129,167075,6,0,B|163:135|163:135|109:193,1,160,4|0,0:3|0:0,0:0:0:0:
206,281,167475,2,0,B|217:258|217:258|210:233,1,53.3333333333333,0|2,0:0|0:3,0:0:0:0:
210,232,167675,2,0,B|282:265|282:265|358:240,2,160,4|8|0,0:3|0:0|0:0,0:0:0:0:
203,243,168675,5,0,0:0:0:0:
359,240,169075,5,0,0:0:0:0:
141,292,169275,1,4,0:3:0:0:
359,240,169475,2,0,P|397:262|429:294,2,90.0000034332277,8|2|2,0:0|0:2|0:2,0:0:0:0:
304,323,170275,6,0,P|256:290|233:235,1,120.000004577637,4|0,0:3|0:0,0:0:0:0:
336,121,170675,2,0,P|332:94|321:70,1,53.3333333333333,0|2,0:0|0:3,0:0:0:0:
333,228,170875,2,0,P|372:222|407:203,1,80,4|8,0:3|0:0,0:0:0:0:
236,122,171275,6,2,P|267:194|340:222,1,160,2|0,0:2|0:0,0:2:0:0:
234,23,171675,1,4,0:3:0:0:
150,207,172075,5,0,0:0:0:0:
210,265,172275,2,0,L|249:274,2,40.000001525879,0|0|0,0:0|0:0|0:0,0:0:0:0:
130,288,172675,5,0,0:0:0:0:
69,230,173075,1,0,0:0:0:0:
150,207,173475,5,2,0:2:0:0:
