osu file format v14

[General]
AudioFilename: audio.mp3
AudioLeadIn: 0
PreviewTime: 54275
Countdown: 0
SampleSet: Soft
StackLeniency: 0.7
Mode: 0
LetterboxInBreaks: 0
WidescreenStoryboard: 1

[Editor]
DistanceSpacing: 0.4
BeatDivisor: 4
GridSize: 32
TimelineZoom: 1.2

[Metadata]
Title:Sore ga Zenbu, Yume ni Tsunagaru (Short Ver.)
TitleUnicode:それが全部、夢につながる (Short Ver.)
Artist:Trial & Error feat. bunny*kaisui
ArtistUnicode:Trial & Error feat. bunny☆kaisui
Creator:Yuuma
Version:Insane
Source:
Tags:Souichi Sakagami idol Sally Mikado Miyabi Ryo Yuasa Akira Onose featured artist fa japanese pop jpop j-pop mappers' guild mpg
BeatmapID:2198092
BeatmapSetID:1051792

[Difficulty]
HPDrainRate:6
CircleSize:4
OverallDifficulty:8
ApproachRate:8.7
SliderMultiplier:1.8
SliderTickRate:1

[Events]
//Background and Video events
0,0,"osu! Spring Fanart 2018 - 2Su.png",0,0
//Break Periods
//Storyboard Layer 0 (Background)
//Storyboard Layer 1 (Fail)
//Storyboard Layer 2 (Pass)
//Storyboard Layer 3 (Foreground)
//Storyboard Layer 4 (Overlay)
//Storyboard Sound Samples

[TimingPoints]
204,359.281437125748,4,2,1,60,1,0
204,-133.333333333333,4,2,1,60,0,0
5952,-100,4,2,1,70,0,0
17449,-125,4,2,1,50,0,0
27509,-166.666666666667,4,2,1,50,0,0
28946,-111.111111111111,4,2,1,50,0,0
40443,-142.857142857143,4,2,1,50,0,0
46192,-111.111111111111,4,2,1,60,0,0
54635,-100,4,2,1,70,0,1
60922,-76.9230769230769,4,2,1,100,0,1
61281,-100,4,2,1,70,0,1
62359,-76.9230769230769,4,2,1,100,0,1
62718,-100,4,2,1,70,0,1
72419,-76.9230769230769,4,2,1,100,0,1
72778,-100,4,2,1,70,0,1
73856,-76.9230769230769,4,2,1,100,0,1
74215,-100,4,2,1,70,0,1
76730,-100,4,2,1,70,0,0
95413,-100,4,2,1,5,0,0

[Colours]
Combo1 : 250,190,230
Combo2 : 130,200,230
Combo3 : 255,230,140
Combo4 : 170,245,170

[HitObjects]
389,326,204,6,0,B|430:315|430:315|363:382|277:323|319:303|253:250|173:241|139:265|134:310|175:330|205:315|212:288,1,405.000015449525,6|0,0:0|0:0,0:0:0:0:
327,203,1461,6,0,B|415:157|372:66|372:66|318:141|241:119|241:119|274:78|250:34,1,405.000015449525,6|0,0:0|0:0,0:0:0:0:
168,64,2718,1,2,0:0:0:0:
100,179,3078,6,0,B|28:225|28:225|154:177|154:177|228:245|334:199,1,405.000015449525,6|2,0:0|0:0,0:0:0:0:
457,144,4335,6,0,P|427:239|421:300,1,135.000005149842,6|2,0:0|0:0,0:0:0:0:
372,67,4874,1,6,0:0:0:0:
372,67,5233,1,14,0:0:0:0:
326,202,5413,1,14,0:0:0:0:
223,94,5593,2,0,L|222:123,6,16.8750006437302,0|0|0|0|0|0|0,3:0|3:0|3:0|3:0|3:0|3:0|3:0,0:0:0:0:
213,85,5952,6,0,P|253:108|310:100,1,90,6|0,0:0|0:0,0:0:0:0:
489,53,6311,2,0,P|449:30|392:38,1,90,2|0,0:0|0:0,0:0:0:0:
375,248,6671,2,0,B|407:141|407:141|399:89,1,135,2|0,0:0|0:0,0:0:0:0:
428,116,7030,2,0,L|443:230,1,90,10|0,0:0|0:0,0:0:0:0:
344,347,7389,6,0,P|294:353|256:322,1,90,2|0,0:0|0:0,0:0:0:0:
132,333,7748,2,0,P|151:286|197:269,1,90,10|0,0:0|0:0,0:0:0:0:
250,156,8108,2,0,P|280:196|272:244,1,90,2|0,0:0|0:0,0:0:0:0:
185,270,8467,2,0,L|39:253,1,135,10|0,0:0|0:0,0:0:0:0:
0,148,8826,6,0,P|83:175|131:95,1,180,2|8,0:0|0:0,0:0:0:0:
52,57,9365,1,0,0:0:0:0:
227,17,9545,2,0,L|216:133,1,90,2|0,0:0|0:0,0:0:0:0:
118,264,9904,2,0,L|109:174,1,90,8|0,0:0|0:0,0:0:0:0:
314,73,10263,6,0,B|412:60|384:152|482:136,1,180,2|10,0:0|0:0,0:0:0:0:
327,173,10802,1,2,0:0:0:0:
190,123,10982,2,0,P|144:103|87:94,1,90,2|0,0:0|0:0,0:0:0:0:
216,249,11341,2,0,P|287:277|315:278,1,90,10|0,0:0|0:0,0:0:0:0:
440,240,11701,1,4,0:0:0:0:
298,89,11880,5,2,0:0:0:0:
298,89,12060,2,0,L|286:193,1,90,10|0,0:0|0:0,0:0:0:0:
381,293,12419,1,2,0:0:0:0:
442,132,12599,1,2,0:0:0:0:
499,288,12778,2,0,L|488:198,1,90,8|0,0:0|0:0,0:0:0:0:
474,59,13138,1,4,0:0:0:0:
287,178,13317,5,2,0:0:0:0:
287,178,13497,2,0,P|344:179|383:140,1,90,10|0,0:0|0:0,0:0:0:0:
296,40,13856,1,2,0:0:0:0:
184,211,14036,1,2,0:0:0:0:
119,109,14215,2,0,P|162:86|207:90,1,90,8|0,0:0|0:0,0:0:0:0:
369,161,14575,6,0,B|395:269|325:229|348:356,2,180,6|10|2,0:0|0:0|0:0,0:0:0:0:
428,304,15473,1,0,0:0:0:0:
284,196,15653,1,10,0:0:0:0:
450,83,15832,5,6,0:0:0:0:
450,83,16192,1,6,0:0:0:0:
358,255,16371,1,6,0:0:0:0:
218,120,16551,1,6,0:0:0:0:
218,120,16910,5,0,1:0:0:0:
340,150,17090,1,0,1:0:0:0:
92,285,17449,5,6,0:0:0:0:
92,285,17808,2,0,P|76:228|92:193,1,72,2|0,0:0|0:0,0:0:0:0:
180,233,18168,1,2,0:0:0:0:
130,130,18347,2,0,L|44:115,1,72,2|0,0:0|0:0,0:0:0:0:
235,169,18706,1,2,0:0:0:0:
235,169,18796,1,0,0:0:0:0:
235,169,18886,6,0,L|318:155,1,72,0|0,0:0|0:0,0:0:0:0:
221,13,19245,2,0,L|209:97,1,72,0|0,0:0|0:0,0:0:0:0:
320,57,19605,1,2,0:0:0:0:
408,103,19784,2,0,L|423:177,1,72,2|0,0:0|0:0,0:0:0:0:
364,272,20144,1,2,0:0:0:0:
364,272,20233,1,0,0:0:0:0:
364,272,20323,6,0,P|410:256|438:252,1,72,2|0,0:0|0:0,0:0:0:0:
262,230,20683,2,0,P|283:186|300:163,1,72,0|0,0:0|0:0,0:0:0:0:
162,272,21042,2,0,P|146:226|142:198,1,72,0|0,0:0|0:0,0:0:0:0:
152,372,21401,1,2,0:0:0:0:
152,372,21581,1,2,0:0:0:0:
264,330,21760,5,2,0:0:0:0:
152,372,21940,2,0,L|63:351,1,72,2|0,0:0|0:0,0:0:0:0:
246,235,22299,1,2,0:0:0:0:
246,235,22479,2,0,L|332:251,1,72,0|0,0:0|0:0,0:0:0:0:
135,274,22838,1,0,0:0:0:0:
93,160,23018,1,2,0:0:0:0:
222,119,23198,6,0,L|232:29,1,72,2|0,0:0|0:0,0:0:0:0:
202,207,23557,1,2,0:0:0:0:
118,57,23736,1,2,0:0:0:0:
202,207,23916,2,0,P|244:195|276:190,1,72,0|0,0:0|0:0,0:0:0:0:
336,101,24275,2,0,P|386:118|417:136,1,72,0|2,0:0|0:0,0:0:0:0:
432,130,24545,1,0,0:0:0:0:
432,130,24635,6,0,P|422:171|418:217,1,72,2|0,0:0|0:0,0:0:0:0:
435,309,24994,1,2,0:0:0:0:
285,191,25174,1,2,0:0:0:0:
264,309,25353,2,0,L|343:294,1,72,0|0,0:0|0:0,0:0:0:0:
489,213,25712,2,0,L|410:198,1,72,0|2,0:0|0:0,0:0:0:0:
314,63,26072,6,0,P|272:143|301:212,2,144,2|2|2,0:0|0:0|0:0,0:0:0:0:
356,138,26970,1,0,0:0:0:0:
211,216,27150,2,0,P|165:202|130:195,1,72,2|0,0:0|0:0,0:0:0:0:
38,129,27509,6,0,P|114:192|120:72,1,269.999991760254,2|0,0:0|1:0,0:0:0:0:
40,32,28587,1,8,1:0:0:0:
83,288,28946,5,6,0:0:0:0:
83,288,29305,2,0,P|74:226|78:196,1,80.9999975280763,10|2,0:0|0:0,0:0:0:0:
176,233,29665,1,2,0:0:0:0:
206,343,29844,2,0,L|117:364,1,80.9999975280763,2|8,0:0|0:0,0:0:0:0:
281,264,30203,1,2,0:0:0:0:
281,264,30293,1,0,0:0:0:0:
281,264,30383,6,0,L|372:273,1,80.9999975280763,2|0,0:0|0:0,0:0:0:0:
247,171,30742,2,0,L|236:86,1,80.9999975280763,8|0,0:0|0:0,0:0:0:0:
349,190,31102,1,2,0:0:0:0:
456,128,31281,2,0,L|447:227,1,80.9999975280763,2|8,0:0|0:0,0:0:0:0:
366,63,31641,1,2,0:0:0:0:
366,63,31730,1,0,0:0:0:0:
366,63,31820,6,0,P|332:40|282:41,1,80.9999975280763,6|0,0:0|0:0,0:0:0:0:
247,171,32180,2,0,P|283:153|308:109,1,80.9999975280763,10|0,0:0|0:0,0:0:0:0:
212,13,32539,2,0,P|209:53|234:96,1,80.9999975280763,2|0,0:0|0:0,0:0:0:0:
366,63,32898,1,10,0:0:0:0:
247,171,33078,1,2,0:0:0:0:
442,105,33257,5,6,0:0:0:0:
442,105,33437,2,0,L|425:211,1,80.9999975280763,2|8,0:0|0:0,0:0:0:0:
348,318,33796,1,2,0:0:0:0:
313,153,33976,2,0,L|330:241,1,80.9999975280763,2|0,0:0|0:0,0:0:0:0:
451,289,34335,1,8,0:0:0:0:
276,358,34515,1,2,0:0:0:0:
276,358,34605,1,0,0:0:0:0:
276,358,34695,6,0,P|183:333|102:324,1,161.999995056153,6|10,0:0|0:0,0:0:0:0:
23,332,35233,1,2,0:0:0:0:
54,207,35413,2,0,P|112:228|163:227,1,80.9999975280763,0|0,0:0|0:0,0:0:0:0:
294,184,35772,2,0,P|256:210|204:221,1,80.9999975280763,8|2,0:0|0:0,0:0:0:0:
112,79,36132,6,0,P|189:87|147:137,1,161.999995056153,6|10,0:0|0:0,0:0:0:0:
277,42,36671,1,2,0:0:0:0:
388,89,36850,2,0,P|406:135|398:184,1,80.9999975280763,0|0,0:0|0:0,0:0:0:0:
272,241,37209,2,0,P|258:170|266:146,1,80.9999975280763,8|0,0:0|0:0,0:0:0:0:
487,320,37569,6,0,L|389:306,1,80.9999975280763,6|0,0:0|0:0,0:0:0:0:
259,163,37928,2,0,L|360:148,1,80.9999975280763,10|0,0:0|0:0,0:0:0:0:
275,360,38287,2,0,L|177:346,1,80.9999975280763,2|0,0:0|0:0,0:0:0:0:
47,168,38646,2,0,L|148:153,1,80.9999975280763,10|0,0:0|0:0,0:0:0:0:
313,264,39006,5,14,0:0:0:0:
264,66,39186,1,10,0:0:0:0:
199,257,39365,1,2,0:0:0:0:
269,51,39545,1,14,0:0:0:0:
350,22,39904,5,8,0:0:0:0:
382,155,40084,1,8,0:0:0:0:
382,155,40443,6,0,B|344:143|344:143|242:164,1,125.999996154785,6|2,0:0|0:0,0:0:0:0:
179,127,40982,1,2,0:0:0:0:
179,127,41072,1,2,0:0:0:0:
179,127,41162,2,0,P|164:164|221:240,1,125.999996154785,2|10,0:0|0:0,0:0:0:0:
461,333,41880,6,0,B|473:295|473:295|452:193,1,125.999996154785,6|2,0:0|0:0,0:0:0:0:
489,130,42419,1,2,0:0:0:0:
489,130,42509,1,2,0:0:0:0:
489,130,42599,2,0,P|452:115|376:172,1,125.999996154785,2|10,0:0|0:0,0:0:0:0:
242,337,43317,6,0,L|330:328,1,62.9999980773926,6|0,0:0|0:0,0:0:0:0:
259,249,43677,2,0,L|196:255,1,62.9999980773926,2|2,0:0|0:0,0:0:0:0:
169,275,43946,1,2,0:0:0:0:
169,275,44036,2,0,L|160:187,1,62.9999980773926,2|0,0:0|0:0,0:0:0:0:
63,193,44395,2,0,L|69:255,1,62.9999980773926,10|0,0:0|0:0,0:0:0:0:
158,120,44754,6,0,B|260:90|239:183|346:151,1,188.999994232178,6|2,0:0|0:0,0:0:0:0:
358,145,45383,1,2,0:0:0:0:
358,145,45473,2,0,L|369:60,1,62.9999980773926,2|0,0:0|0:0,0:0:0:0:
431,285,45832,1,8,0:0:0:0:
431,285,46192,6,0,P|373:270|266:261,2,161.999995056153,6|8|2,0:0|0:0|0:0,0:0:0:0:
401,173,47090,1,0,0:0:0:0:
490,125,47269,2,0,P|500:197|486:226,1,80.9999975280763,10|0,0:0|0:0,0:0:0:0:
342,83,47629,6,0,B|257:81|288:157|192:145,2,161.999995056153,2|8|2,0:0|0:0|0:0,0:0:0:0:
200,63,48527,1,0,0:0:0:0:
340,163,48706,2,0,L|342:63,1,80.9999975280763,10|0,0:0|0:0,0:0:0:0:
120,31,49066,6,0,L|132:117,1,80.9999975280763,2|0,0:0|0:0,0:0:0:0:
167,301,49425,2,0,L|65:288,1,80.9999975280763,10|0,0:0|0:0,0:0:0:0:
196,188,49784,1,2,0:0:0:0:
307,345,49964,1,2,0:0:0:0:
329,220,50144,2,0,L|431:207,1,80.9999975280763,10|0,0:0|0:0,0:0:0:0:
223,162,50503,6,0,P|198:237|262:313,1,161.999995056153,2|10,0:0|0:0,0:0:0:0:
390,337,51042,1,2,0:0:0:0:
400,152,51221,1,2,0:0:0:0:
400,152,51401,1,2,0:0:0:0:
282,224,51581,1,10,0:0:0:0:
464,285,51760,1,2,0:0:0:0:
421,63,51940,6,0,P|358:68|331:98,1,80.9999975280763,2|0,0:0|0:0,0:0:0:0:
282,224,52299,2,0,P|309:166|296:128,1,80.9999975280763,10|0,0:0|0:0,0:0:0:0:
212,23,52659,2,0,P|247:75|287:83,1,80.9999975280763,2|0,0:0|0:0,0:0:0:0:
400,152,53018,1,10,0:0:0:0:
71,147,53377,5,2,0:0:0:0:
262,80,53557,2,0,L|251:192,1,80.9999975280763,2|0,0:0|0:0,0:0:0:0:
244,312,53916,1,2,0:0:0:0:
244,312,54275,5,2,0:0:0:0:
160,283,54455,1,8,1:0:0:0:
329,333,54635,6,0,P|406:328|416:222,1,180,6|2,0:0|0:0,0:0:0:0:
412,200,55084,1,2,0:0:0:0:
412,200,55174,2,0,L|509:177,1,90,10|2,0:0|0:0,0:0:0:0:
336,250,55533,1,2,0:0:0:0:
232,117,55712,2,0,L|251:220,1,90,2|10,0:0|0:0,0:0:0:0:
178,334,56072,1,6,0:0:0:0:
125,188,56251,1,0,0:0:0:0:
276,326,56431,5,2,0:0:0:0:
312,103,56611,1,10,0:0:0:0:
197,290,56790,1,2,0:0:0:0:
382,160,56970,1,2,0:0:0:0:
172,209,57150,1,2,0:0:0:0:
172,209,57329,1,8,0:0:0:0:
276,326,57509,6,0,L|287:125,1,180,6|2,0:0|0:0,0:0:0:0:
313,124,57958,1,2,0:0:0:0:
313,124,58048,2,0,L|308:24,1,90,10|2,0:0|0:0,0:0:0:0:
205,191,58407,1,2,0:0:0:0:
89,91,58587,2,0,L|69:197,1,90,2|8,0:0|0:0,0:0:0:0:
129,301,58946,1,6,0:0:0:0:
205,191,59126,1,0,0:0:0:0:
187,374,59305,5,2,0:0:0:0:
114,178,59485,1,10,0:0:0:0:
259,320,59665,1,2,0:0:0:0:
284,83,59844,1,2,0:0:0:0:
192,248,60024,1,2,0:0:0:0:
161,25,60203,1,10,0:0:0:0:
161,25,60383,1,2,0:0:0:0:
275,172,60563,6,0,L|121:150,1,135,6|0,0:0|0:0,0:0:0:0:
56,88,60922,2,0,P|37:191|65:225,1,116.999994644165,10|0,0:0|0:0,0:0:0:0:
209,343,61281,6,0,P|201:270|100:261,1,180,2|10,0:0|0:0,0:0:0:0:
108,355,61820,1,2,0:0:0:0:
304,372,62000,6,0,L|317:212,1,135,6|0,0:0|0:0,0:0:0:0:
395,168,62359,2,0,L|412:313,1,116.999994644165,10|0,0:0|0:0,0:0:0:0:
305,105,62718,1,0,0:0:0:0:
305,105,63078,1,10,0:0:0:0:
389,79,63257,1,2,0:0:0:0:
227,162,63437,6,0,P|208:114|221:56,1,90,6|0,0:0|0:0,0:0:0:0:
312,198,63796,2,0,P|363:205|406:245,1,90,10|0,0:0|0:0,0:0:0:0:
237,253,64156,2,0,P|204:293|148:311,1,90,2|0,0:0|0:0,0:0:0:0:
227,162,64515,1,10,0:0:0:0:
321,289,64695,1,0,0:0:0:0:
321,289,64784,1,0,0:0:0:0:
321,289,64874,5,14,0:0:0:0:
326,61,65054,1,10,0:0:0:0:
237,253,65233,1,10,0:0:0:0:
110,57,65413,1,14,0:0:0:0:
181,355,65772,1,8,0:0:0:0:
181,355,66132,6,0,P|171:249|186:152,1,180,6|2,0:0|0:0,0:0:0:0:
193,144,66581,1,2,0:0:0:0:
193,144,66671,2,0,L|96:126,1,90,10|2,0:0|0:0,0:0:0:0:
256,248,67030,1,2,0:0:0:0:
310,98,67209,2,0,L|403:79,1,90,2|8,0:0|0:0,0:0:0:0:
366,210,67569,1,6,0:0:0:0:
229,168,67748,1,0,0:0:0:0:
324,57,67928,5,2,0:0:0:0:
284,248,68108,1,10,0:0:0:0:
132,94,68287,1,2,0:0:0:0:
333,153,68467,1,2,0:0:0:0:
162,293,68647,1,2,0:0:0:0:
162,293,68826,1,8,0:0:0:0:
243,75,69006,6,0,L|259:273,1,180,6|2,0:0|0:0,0:0:0:0:
262,286,69455,1,2,0:0:0:0:
262,286,69545,2,0,P|321:320|370:309,1,90,10|2,0:0|0:0,0:0:0:0:
376,188,69904,1,2,0:0:0:0:
441,363,70084,2,0,P|471:305|465:272,1,90,2|10,0:0|0:0,0:0:0:0:
441,137,70443,1,6,0:0:0:0:
367,266,70623,1,0,0:0:0:0:
338,58,70802,5,2,0:0:0:0:
454,240,70982,1,10,0:0:0:0:
257,153,71162,1,2,0:0:0:0:
452,28,71341,2,0,L|442:134,1,90,2|2,0:0|0:0,0:0:0:0:
330,254,71701,1,10,0:0:0:0:
330,254,71880,1,2,0:0:0:0:
157,113,72060,6,0,L|171:286,1,135,6|0,0:0|0:0,0:0:0:0:
119,335,72419,2,0,P|176:347|229:324,1,116.999994644165,10|0,0:0|0:0,0:0:0:0:
367,136,72778,6,0,P|288:159|296:268,1,180,2|10,0:0|0:0,0:0:0:0:
326,326,73317,1,2,0:0:0:0:
486,228,73497,6,0,L|332:210,1,135,6|0,0:0|0:0,0:0:0:0:
250,246,73856,2,0,L|238:115,1,116.999994644165,10|0,0:0|0:0,0:0:0:0:
340,33,74215,1,0,0:0:0:0:
340,33,74575,1,10,0:0:0:0:
319,111,74754,1,2,0:0:0:0:
258,53,74934,6,0,L|130:74,1,90,6|0,0:0|0:0,0:0:0:0:
88,284,75293,2,0,L|194:267,1,90,10|0,0:0|0:0,0:0:0:0:
448,108,75653,2,0,L|441:208,1,90,10|0,0:0|0:0,0:0:0:0:
275,369,76012,2,0,L|262:254,1,90,10|0,0:0|0:0,0:0:0:0:
258,53,76371,5,14,0:0:0:0:
176,269,76551,1,10,0:0:0:0:
80,43,76730,1,14,0:0:0:0:
80,43,77090,5,2,0:0:0:0:
59,133,77269,1,2,3:2:0:0:
154,103,77449,2,0,L|245:114,1,90,2|2,0:0|0:0,0:0:0:0:
263,101,77718,1,2,0:0:0:0:
263,101,77808,6,0,P|316:126|363:130,1,90,6|0,0:0|0:0,0:0:0:0:
475,232,78168,2,0,P|427:275|400:320,1,90,10|0,0:0|0:0,0:0:0:0:
274,360,78527,2,0,P|275:298|256:201,1,135,2|0,0:0|0:0,0:0:0:0:
241,204,78886,2,0,L|139:192,1,90,10|0,0:0|0:0,0:0:0:0:
26,333,79245,6,0,L|16:233,1,90,2|0,0:0|0:0,0:0:0:0:
86,68,79605,2,0,L|71:167,1,90,10|0,0:0|0:0,0:0:0:0:
160,318,79964,2,0,L|249:333,1,90,2|0,0:0|0:0,0:0:0:0:
428,212,80323,2,0,L|302:236,1,90,10|0,0:0|0:0,0:0:0:0:
240,56,80683,6,0,P|185:132|224:233,1,180,2|8,0:0|0:0,0:0:0:0:
284,308,81221,1,0,0:0:0:0:
354,129,81401,2,0,P|290:135|256:174,1,90,2|0,0:0|0:0,0:0:0:0:
367,290,81760,2,0,P|431:284|465:245,1,90,8|0,0:0|0:0,0:0:0:0:
447,69,82120,6,0,P|380:35|271:51,1,180,2|10,0:0|0:0,0:0:0:0:
156,102,82659,1,2,0:0:0:0:
277,159,82838,2,0,L|273:269,1,90,2|0,0:0|0:0,0:0:0:0:
168,353,83198,2,0,L|154:248,1,90,8|0,0:0|0:0,0:0:0:0:
140,132,83557,1,6,0:0:0:0:
248,52,83736,5,2,0:0:0:0:
248,52,83916,2,0,L|361:35,1,90,10|0,0:0|0:0,0:0:0:0:
252,183,84275,1,2,0:0:0:0:
140,132,84455,1,2,0:0:0:0:
140,132,84635,2,0,L|28:120,1,90,8|0,0:0|0:0,0:0:0:0:
142,265,84994,1,4,0:0:0:0:
282,336,85174,5,2,0:0:0:0:
282,336,85353,2,0,P|293:260|295:228,1,90,10|0,0:0|0:0,0:0:0:0:
388,308,85712,1,2,0:0:0:0:
381,104,85892,1,2,0:0:0:0:
381,104,86072,2,0,P|391:181|402:232,1,90,8|0,0:0|0:0,0:0:0:0:
244,152,86431,6,0,B|151:141|172:234|78:222,2,180,6|10|2,0:0|0:0|0:0,0:0:0:0:
244,152,87509,2,0,L|230:54,1,90,10|0,0:0|0:0,0:0:0:0:
240,240,87868,6,0,P|282:227|340:223,1,90,6|0,0:0|0:0,0:0:0:0:
431,117,88227,2,0,P|388:103|343:99,1,90,8|0,0:0|0:0,0:0:0:0:
222,255,88587,2,0,P|264:242|322:238,1,90,2|0,0:0|0:0,0:0:0:0:
464,269,88946,1,10,0:0:0:0:
464,269,89305,6,0,P|454:352|452:381,1,90,6|0,0:0|0:0,0:0:0:0:
310,281,89665,2,0,P|305:236|299:191,1,90,10|0,0:0|0:0,0:0:0:0:
407,106,90024,2,0,P|397:189|395:218,1,90,2|0,0:0|0:0,0:0:0:0:
226,354,90383,2,0,P|221:309|215:264,1,90,10|0,0:0|0:0,0:0:0:0:
135,91,90742,5,14,0:0:0:0:
94,298,90922,1,8,0:0:0:0:
261,105,91102,1,10,0:0:0:0:
310,332,91281,1,8,0:0:0:0:
147,158,91461,1,10,0:0:0:0:
360,247,91641,1,8,0:0:0:0:
366,27,91820,2,0,L|354:118,1,90,10|0,0:0|0:0,0:0:0:0:
256,192,92180,5,6,0:0:0:0:
256,192,92269,12,0,95413,0:0:0:0:
