osu file format v14

[General]
AudioFilename: audio.mp3
AudioLeadIn: 0
PreviewTime: 58674
Countdown: 0
SampleSet: None
StackLeniency: 0.4
Mode: 0
LetterboxInBreaks: 0
WidescreenStoryboard: 0

[Editor]
Bookmarks: 5341,16007,26674,37341,48007,53341,53507,53674,53841,58674,69341,77341
DistanceSpacing: 3.5
BeatDivisor: 4
GridSize: 16
TimelineZoom: 1.7

[Metadata]
Title:ZESSAN*UNMEI-CHU feat. GUMI (Short Ver.)
TitleUnicode:ZESSAN★UNMEI-CHU feat. GUMI (Short Ver.)
Artist:Trial & Error
ArtistUnicode:Trial & Error
Creator:Burt
Version:Insane
Source:
Tags:
BeatmapID:1777668
BeatmapSetID:850237

[Difficulty]
HPDrainRate:6
CircleSize:3.8
OverallDifficulty:7
ApproachRate:9
SliderMultiplier:1.8
SliderTickRate:1

[Events]
//Background and Video events
0,0,"21514_vocaloid_gumi.jpg",0,0
//Break Periods
//Storyboard Layer 0 (Background)
//Storyboard Layer 1 (Fail)
//Storyboard Layer 2 (Pass)
//Storyboard Layer 3 (Foreground)
//Storyboard Sound Samples

[TimingPoints]
8,333.333333333333,4,1,0,100,1,0
8,-100,4,1,0,40,0,0
4841,-200,4,1,0,40,0,0
5341,-111.111111111111,4,3,0,50,0,0
5841,-142.857142857143,4,3,0,51,0,0
6174,-111.111111111111,4,3,0,51,0,0
7507,-142.857142857143,4,3,0,51,0,0
8002,-111.111111111111,4,3,0,50,0,0
8507,-142.857142857143,4,3,0,50,0,0
8757,-111.111111111111,4,3,0,50,0,0
10174,-142.857142857143,4,3,0,50,0,0
10674,-111.111111111111,4,3,0,50,0,0
11174,-142.857142857143,4,3,0,50,0,0
11424,-111.111111111111,4,3,0,50,0,0
12674,-142.857142857142,4,3,0,50,0,0
13341,-111.111111111111,4,3,0,50,0,0
13841,-142.857142857143,4,3,0,50,0,0
14091,-111.111111111111,4,3,0,50,0,0
15507,-142.857142857142,4,3,0,50,0,0
16007,-90.9090909090907,4,2,0,35,0,0
16424,-111.111111111111,4,2,0,35,0,0
17091,-90.9090909090909,4,2,0,35,0,0
19007,-111.111111111111,4,2,0,35,0,0
19424,-90.9090909090909,4,2,0,35,0,0
20507,-58.8235294117647,4,2,0,35,0,0
21257,-90.9090909090909,4,2,0,35,0,0
22507,-200,4,2,0,35,0,0
22674,-200,4,2,0,5,0,0
22841,-90.9090909090909,4,2,0,40,0,0
26007,-71.4285714285714,4,2,0,40,0,0
26674,-90.9090909090909,4,2,0,40,0,0
27091,-111.111111111111,4,2,0,40,0,0
27507,-90.9090909090909,4,2,0,40,0,0
29591,-71.4285714285714,4,2,0,40,0,0
29924,-90.9090909090909,4,2,0,40,0,0
33091,-125,4,2,0,40,0,0
33591,-76.9230769230769,4,2,0,40,0,0
37257,-142.857142857143,4,3,0,40,0,0
39591,-250.000000000001,4,3,0,40,0,0
39924,-142.857142857143,4,3,0,40,0,0
42507,-200,4,3,0,40,0,0
44007,-250.000000000001,4,3,0,40,0,0
44424,-166.666666666667,4,3,0,40,0,0
48007,-90.909090909091,4,3,0,40,0,0
48507,-200,4,3,0,40,0,0
49091,-90.9090909090909,4,3,0,40,0,0
49591,-200,4,3,0,40,0,0
50341,-90.9090909090909,4,3,0,40,0,0
51091,-200,4,3,0,40,0,0
51674,-90.909090909091,4,3,0,40,0,0
52341,-200,4,3,0,40,0,0
56007,-250,4,3,0,40,0,0
57341,-76.9230769230769,4,3,0,40,0,0
58674,-76.9230769230769,4,3,0,40,0,1
58924,-66.6666666666667,4,3,0,40,0,1
59341,-76.9230769230769,4,3,0,40,0,1
59924,-62.5,4,3,0,40,0,1
60257,-76.9230769230769,4,3,0,40,0,1
60591,-66.6666666666667,4,3,0,40,0,1
62591,-90.9090909090909,4,3,0,40,0,1
62924,-100,4,3,0,40,0,1
63257,-111.111111111111,4,3,0,40,0,1
63591,-125,4,3,0,40,0,1
65924,-71.4285714285714,4,3,0,40,0,1
66674,-71.4285714285714,4,3,0,8,0,1
66841,-71.4285714285714,4,3,0,40,0,1
67341,-71.4285714285714,4,3,0,8,0,1
67507,-71.4285714285714,4,3,0,40,0,1
67757,-133.333333333333,4,3,0,40,0,1
69341,-133.333333333333,4,3,0,40,0,0
72007,-76.9230769230769,4,3,0,40,0,0
74674,-133.333333333333,4,3,0,40,0,0
77341,-100,4,3,0,40,0,0
80091,-133.333333333333,4,3,0,40,0,0
80674,-133.333333333333,4,3,0,5,0,0

[Colours]
Combo1 : 159,162,240
Combo2 : 255,171,79
Combo3 : 145,236,121
Combo4 : 213,136,189

[HitObjects]
313,78,8,53,0,0:0:0:0:
313,78,174,2,0,P|331:163|316:269,1,180
2,188,841,2,0,P|44:185|96:193,1,90
197,249,1174,2,0,B|272:228|291:313|377:279,1,180,0|0,0:3|0:3,0:3:0:0:
454,84,1674,1,0,0:0:0:0:
367,282,1841,1,0,0:0:0:0:
292,60,2007,1,0,0:0:0:0:
292,60,2091,1,0,0:0:0:0:
292,60,2174,1,0,0:0:0:0:
189,98,2341,1,8,0:0:0:0:
189,98,2507,6,4,P|161:180|215:269,1,180
354,315,3007,2,0,L|363:209,1,90
382,43,3341,1,0,0:0:0:0:
382,43,3507,2,0,L|372:148,1,90
234,303,3841,2,0,B|179:241|252:194|207:131,1,180,0|0,0:3|0:3,0:3:0:0:
59,317,4341,1,8,0:0:0:0:
69,247,4507,1,8,0:0:0:0:
77,174,4674,1,8,0:0:0:0:
85,103,4841,2,0,L|75:198,1,90
321,325,5341,6,0,L|229:317,1,80.9999975280763
60,297,5674,1,4,0:0:0:0:
51,108,5841,2,0,P|47:73|62:29,1,62.9999980773926
105,39,6174,2,0,P|90:77|95:117,1,80.9999975280763
406,222,6507,2,0,L|244:207,1,161.999995056153
316,97,7007,1,0,0:0:0:0:
114,269,7174,1,4,0:0:0:0:
159,117,7507,6,0,B|193:62|193:62|253:34,1,125.999996154785
378,42,8007,6,0,L|370:122,1,80.9999975280763
355,309,8341,1,0,0:0:0:0:
25,266,8507,2,0,P|42:292|68:311,1,62.9999980773926
109,295,8840,2,0,P|76:271|57:236,1,80.9999975280763
273,58,9174,2,0,L|256:254,1,161.999995056153
155,185,9674,1,0,0:0:0:0:
387,279,9841,1,4,0:0:0:0:
227,318,10174,6,0,B|159:322|159:322|104:280,1,125.999996154785
60,224,10674,6,0,L|67:143,1,80.9999975280763
173,33,11007,1,8,0:0:0:0:
360,85,11174,2,0,P|387:103|403:140,1,62.9999980773926
366,172,11507,2,0,P|349:135|319:110,1,80.9999975280763
96,70,11841,2,0,L|113:266,1,161.999995056153
1,175,12341,1,0,0:0:0:0:
237,321,12507,1,4,0:0:0:0:
107,263,12841,6,0,B|55:220|55:220|39:161,1,125.999996154785,0|0,3:0|3:0,3:0:0:0:
47,80,13341,6,0,L|127:88,1,80.9999975280763
306,105,13674,1,8,0:0:0:0:
108,184,13841,2,0,P|83:206|75:249,1,62.9999980773926
114,269,14174,2,0,P|126:231|154:202,1,80.9999975280763
413,249,14507,2,0,L|251:234,1,161.999995056153
322,131,15007,1,0,0:0:0:0:
116,336,15174,1,4,0:0:0:0:
80,65,15507,6,0,B|122:110|122:110|116:197,1,125.999996154785
93,287,16007,6,0,P|46:306|30:350,2,99.0000030212403,0|0|0,3:0|3:0|3:0,3:0:0:0:
198,330,16507,2,0,P|288:307|270:227,1,161.999995056153
289,251,17007,1,0,0:0:0:0:
56,186,17174,2,0,P|140:223|203:156,1,198.000006042481
337,60,17674,2,0,P|299:51|319:86,1,99.0000030212403
439,229,18007,2,0,P|410:317|317:318,1,198.000006042481
151,161,18507,2,0,P|114:153|138:186,1,99.0000030212403
292,207,18841,1,0,0:0:0:0:
132,319,19007,2,0,P|44:304|42:214,1,161.999995056153
175,79,19507,2,0,P|146:40|157:157,1,396.000012084961
153,159,20341,1,0,0:0:0:0:
425,18,20507,5,0,0:0:0:0:
425,18,20674,2,2,P|422:93|411:173,1,153.000002918243
331,284,21007,2,2,P|334:209|344:128,1,153.000002918243
275,41,21341,6,0,P|246:129|153:130,1,198.000006042481
25,75,21841,2,0,B|-14:179|69:256,1,198.000006042481
67,255,22341,1,0,0:0:0:0:
198,184,22507,6,0,L|270:136,1,67.5
353,84,22841,1,8,0:0:0:0:
308,223,23007,1,8,0:0:0:0:
353,84,23174,1,8,0:0:0:0:
308,223,23341,1,4,0:0:0:0:
100,197,23841,5,0,0:0:0:0:
100,197,24007,2,0,P|117:241|176:220,1,99.0000030212403
278,47,24341,2,0,P|361:71|366:190,1,198.000006042481
305,316,24841,1,0,0:0:0:0:
280,109,25007,1,0,0:0:0:0:
280,109,25174,2,0,P|328:180|240:232,1,198.000006042481
65,219,25674,2,0,P|30:190|71:201,1,99.0000030212403
362,281,26007,2,2,P|300:271|245:240,1,125.999996154785
161,57,26341,2,2,P|222:66|277:97,1,125.999996154785
436,249,26674,6,0,P|449:297|425:337,2,99.0000030212403,0|0|0,3:0|3:0|3:0,3:0:0:0:
238,265,27174,2,0,P|328:242|310:162,1,161.999995056153
329,186,27674,1,0,0:0:0:0:
88,85,27841,2,0,P|94:177|183:201,1,198.000006042481
339,72,28341,2,0,P|327:34|308:69,1,99.0000030212403
379,301,28674,1,0,0:0:0:0:
318,138,28841,1,0,0:0:0:0:
379,301,29007,1,0,0:0:0:0:
379,301,29174,6,0,P|294:340|230:273,1,198.000006042481
163,54,29674,2,0,P|200:18|177:66,1,125.999996154785
128,240,30007,1,0,0:0:0:0:
344,102,30174,2,0,P|392:101|292:163,1,396.000012084961
40,65,31007,1,0,0:0:0:0:
40,65,31174,1,0,0:0:0:0:
33,250,31341,2,0,B|109:223|140:308|226:276,1,198.000006042481,0|0,0:3|0:3,0:3:0:0:
436,305,32007,6,0,P|343:304|318:210,1,198.000006042481
471,115,32507,2,0,B|434:217|307:217,1,198.000006042481
316,216,33007,1,0,0:0:0:0:
184,48,33174,2,0,P|218:93|225:38,1,144
68,145,33674,2,0,P|66:264|158:322,1,233.999989288331
457,85,34341,5,0,0:0:0:0:
373,184,34507,1,0,0:0:0:0:
361,48,34674,2,0,B|306:27|241:26|241:26|186:53|151:111,1,233.999989288331
70,203,35174,2,0,P|58:279|195:305,1,233.999989288331
184,314,35674,1,0,0:0:0:0:
402,135,35841,2,0,P|429:95|381:138,1,233.999989288331
364,327,36507,1,0,0:0:0:0:
251,91,36674,1,0,0:0:0:0:
251,91,37007,5,0,0:0:0:0:
184,152,37174,1,0,0:0:0:0:
99,221,37341,6,0,B|132:262|193:265|233:249|212:217|189:192|159:203|141:273|171:330,1,251.999992309571
166,320,38174,1,8,0:0:0:0:
345,320,38341,1,8,0:0:0:0:
345,320,38674,6,0,B|371:273|353:203|323:192|300:217|279:249|319:265|380:262|413:221,1,251.999992309571
411,222,39507,1,8,0:0:0:0:
302,160,39674,2,0,L|253:157,1,36
86,135,40007,6,0,B|118:95|179:92|219:108|198:140|175:165|145:154|127:84|153:37,1,251.999992309571
152,37,40841,1,8,0:0:0:0:
359,37,41007,1,8,0:0:0:0:
359,37,41341,6,0,B|384:84|366:154|336:165|313:140|292:108|332:92|393:95|426:136,1,251.999992309571
425,134,42174,1,8,0:0:0:0:
425,134,42341,1,8,0:0:0:0:
365,318,42674,6,0,L|183:287,1,180
65,268,43507,1,8,0:0:0:0:
65,268,43674,1,8,0:0:0:0:
78,97,44007,2,0,P|104:122|142:138,1,72
229,152,44507,2,0,P|288:151|335:130,1,107.999996704102
433,61,45007,1,8,0:0:0:0:
320,272,45341,2,0,P|226:308|111:256,1,215.999993408203
122,268,46174,1,8,0:0:0:0:
122,268,46341,1,8,0:0:0:0:
353,137,46674,5,0,0:0:0:0:
75,173,46841,1,0,0:0:0:0:
83,180,46924,1,0,0:0:0:0:
83,180,47007,1,0,0:0:0:0:
251,279,47174,5,0,0:0:0:0:
195,43,47341,1,0,0:0:0:0:
195,43,47674,1,0,0:0:0:0:
396,91,48007,6,0,P|424:151|404:204,1,99.0000030212403
330,306,48341,1,8,0:0:0:0:
191,193,48507,2,0,P|200:152|244:172,1,90
330,306,49007,1,4,0:0:0:0:
134,353,49341,6,0,P|180:342|221:307,1,99.0000030212403
296,190,49674,1,8,0:0:0:0:
388,66,49841,2,0,P|370:29|333:45,1,90
296,190,50341,1,4,0:0:0:0:
168,30,50674,6,0,P|136:66|131:115,1,99.0000030212403
148,266,51007,1,8,0:0:0:0:
306,211,51174,2,0,P|339:236|315:270,1,90
148,266,51674,1,4,0:0:0:0:
363,318,52007,6,0,P|405:277|411:225,1,99.0000030212403,0|0,3:0|3:0,3:0:0:0:
367,98,52341,1,8,0:0:0:0:
217,25,52507,2,0,P|184:50|208:84,1,90
367,98,53007,1,4,0:0:0:0:
159,296,53341,5,0,0:0:0:0:
181,43,53507,5,0,0:0:0:0:
235,203,53674,1,0,0:0:0:0:
401,285,53841,1,0,0:0:0:0:
351,72,54174,5,0,0:0:0:0:
235,203,54341,1,0,0:0:0:0:
50,213,54508,1,0,0:0:0:0:
153,74,54674,5,0,0:0:0:0:
250,296,54841,1,8,0:0:0:0:
297,72,55007,5,0,0:0:0:0:
164,302,55174,1,8,0:0:0:0:
223,74,55341,5,0,0:0:0:0:
332,287,55508,1,8,0:0:0:0:
88,279,55841,5,0,0:0:0:0:
331,308,56007,2,0,P|399:277|399:214,1,144
329,41,56841,1,0,0:0:0:0:
303,37,57007,1,0,0:0:0:0:
271,32,57174,1,0,0:0:0:0:
112,25,57341,6,0,L|122:146,1,116.999994644165
140,335,57674,2,0,L|129:213,1,116.999994644165
183,78,58007,6,2,P|203:58|229:43,1,58.4999973220826
372,229,58174,2,2,P|351:248|325:263,1,58.4999973220826
201,248,58341,2,2,P|181:227|166:201,1,58.4999973220826
353,59,58507,6,2,P|372:79|387:105,1,58.4999973220826
397,292,58674,2,0,P|351:328|291:337,1,116.999994644165
81,105,59007,2,0,L|93:239,1,135.000005149842
385,353,59341,1,0,0:0:0:0:
385,353,59507,2,0,P|327:343|280:305,1,116.999994644165
198,151,59841,5,0,0:0:0:0:
198,151,60007,2,0,P|236:111|232:166,1,144
36,139,60341,2,0,P|34:196|60:248,1,116.999994644165
166,325,60674,2,0,P|230:323|303:310,1,135.000005149842
437,270,61007,1,0,0:0:0:0:
207,151,61174,6,0,P|164:105|251:137,1,270.000010299683
219,284,61674,1,0,0:0:0:0:
339,109,61841,6,0,P|392:77|341:150,1,270.000010299683
120,80,62341,2,0,P|53:95|89:160,1,135.000005149842
146,333,62674,6,2,L|155:224,1,99.0000030212403
214,179,63007,2,0,L|206:273,1,90
255,320,63341,2,2,L|264:217,1,80.9999975280763
318,214,63674,2,0,L|310:311,1,72
160,157,64007,5,0,0:0:0:0:
287,37,64341,5,0,0:0:0:0:
303,324,64507,1,0,0:0:0:0:
303,324,64841,5,0,0:0:0:0:
160,157,65007,1,0,0:0:0:0:
385,43,65341,5,0,0:0:0:0:
384,316,65507,1,0,0:0:0:0:
224,95,65674,1,0,0:0:0:0:
484,179,65841,1,0,0:0:0:0:
224,264,66007,2,0,P|166:237|120:196,1,125.999996154785
80,20,66341,2,0,P|124:10|172:47,1,62.9999980773926
199,68,66507,6,0,B|187:231|187:231|246:184,1,188.999994232178
273,174,66841,2,0,P|348:146|392:172,1,125.999996154785
333,221,67174,6,0,B|237:353|237:353|222:279,1,188.999994232178
207,246,67508,2,0,P|127:193|102:243,1,125.999996154785
79,335,67841,2,0,B|237:299|412:305|412:305|400:259|400:259|412:221,1,405.000015449525
26,59,69341,6,0,L|170:72,1,135.000005149842
249,79,69841,1,0,0:0:0:0:
361,88,70174,1,0,0:0:0:0:
465,178,70507,2,0,L|322:165,1,135.000005149842
258,160,71007,1,0,0:0:0:0:
179,153,71174,1,0,0:0:0:0:
67,143,71507,2,0,L|54:286,1,135.000005149842
224,288,72007,6,0,P|176:304|224:224,1,233.999989288331
368,96,72507,2,0,P|416:96|368:112,1,116.999994644165
336,192,72841,2,0,P|288:192|336:208,1,116.999994644165
378,268,73174,2,0,P|258:279|218:183,1,233.999989288331
86,98,73674,2,0,P|38:98|86:114,1,116.999994644165
142,169,74174,2,0,P|190:246|102:223,1,233.999989288331
32,352,74674,6,0,L|175:339,1,135.000005149842
255,332,75174,1,0,0:0:0:0:
366,322,75507,1,0,0:0:0:0:
471,233,75840,2,0,L|327:245,1,135.000005149842
264,251,76340,1,0,0:0:0:0:
184,258,76507,1,0,0:0:0:0:
72,268,76840,2,0,L|59:124,1,135.000005149842
238,195,77341,6,0,B|184:137|239:69|239:24|239:24|257:66|342:103|302:198,1,360
256,349,78674,5,0,0:0:0:0:
98,191,78841,1,0,0:0:0:0:
256,34,79007,1,0,0:0:0:0:
413,192,79174,1,0,0:0:0:0:
144,303,79674,5,0,0:0:0:0:
144,80,79841,1,0,0:0:0:0:
367,80,80007,1,0,0:0:0:0:
367,302,80174,2,0,P|347:354|347:281,1,202.500007724762
