osu file format v14

[General]
AudioFilename: audio.mp3
AudioLeadIn: 0
PreviewTime: 45248
Countdown: 0
SampleSet: Soft
StackLeniency: 0.4
Mode: 0
LetterboxInBreaks: 0
WidescreenStoryboard: 1

[Editor]
DistanceSpacing: 1
BeatDivisor: 4
GridSize: 16
TimelineZoom: 1.3

[Metadata]
Title:Tokoyami no keiyaku KEGARETA-SHOUJO feat. GUMI (Short Ver.)
TitleUnicode:常闇の契約 ケガレタショウジョ feat. GUMI (Short Ver.)
Artist:Trial & Error
ArtistUnicode:Trial & Error
Creator:Basensorex
Version:Normal
Source:
Tags:japanese rock j-rock jrock fa featured artist megpoid and vocaloid pepekcz booliix reform kujinn [karcher] karcher my angel ram my_angel_ram
BeatmapID:2996620
BeatmapSetID:1415543

[Difficulty]
HPDrainRate:3.8
CircleSize:3.5
OverallDifficulty:4.2
ApproachRate:5.5
SliderMultiplier:0.999999999999999
SliderTickRate:1

[Events]
//Background and Video events
0,0,"bg.jpg",0,0
//Break Periods
//Storyboard Layer 0 (Background)
//Storyboard Layer 1 (Fail)
//Storyboard Layer 2 (Pass)
//Storyboard Layer 3 (Foreground)
//Storyboard Layer 4 (Overlay)
//Storyboard Sound Samples

[TimingPoints]
3801,315.789473684211,4,2,22,65,1,0
15169,-111.111111111111,4,2,22,50,0,0
35379,-111.111111111111,4,2,22,55,0,0
42958,-111.111111111111,4,2,22,50,0,0
44222,-100,4,2,22,65,0,0
45327,-90.9090909090909,4,2,22,70,0,1
64274,-111.111111111111,4,2,22,55,0,0
65537,-100,4,2,22,55,0,0
68064,-100,4,2,22,65,0,0
78169,-100,4,2,22,50,0,0
83695,-100,4,2,22,5,0,0

[Colours]
Combo1 : 209,102,5
Combo2 : 22,207,46
Combo3 : 37,146,81
Combo4 : 157,157,157

[HitObjects]
66,353,3801,6,0,L|52:245,1,99.9999999999999,10|10,0:2|0:3,0:0:0:0:
46,204,4274,1,14,0:2:0:0:
119,136,4590,2,0,L|126:72,1,50,6|6,1:3|0:3,0:0:0:0:
164,54,4906,6,0,B|208:39|238:68|238:68|267:98|312:83,1,150,6|10,1:2|0:2,0:2:0:0:
404,71,5695,1,2,1:2:0:0:
404,71,5853,2,0,L|410:120,1,50,2|10,1:2|0:2,0:2:0:0:
454,143,6169,2,0,L|440:250,1,99.9999999999999,2|0,1:2|1:2,0:2:0:0:
435,292,6643,1,10,0:2:0:0:
355,351,6958,2,0,P|331:342|304:340,1,50,2|2,1:2|1:2,0:0:0:0:
273,310,7274,1,10,0:2:0:0:
273,310,7432,6,0,P|209:334|125:332,1,150,2|10,1:2|0:2,0:2:0:0:
40,296,8222,1,2,1:2:0:0:
40,296,8379,2,0,L|46:246,1,50,2|10,1:2|0:2,0:2:0:0:
51,196,8695,1,2,1:2:0:0:
134,140,9011,2,0,L|127:90,1,50,2|10,1:2|0:2,0:0:0:0:
146,43,9327,2,0,P|193:23|241:33,1,99.9999999999999,2|2,0:2|1:2,0:2:0:0:
286,64,9801,1,8,0:2:0:0:
286,64,9958,6,0,B|329:101|329:101|318:193,1,150,6|10,1:2|0:2,0:2:0:0:
241,256,10748,1,2,1:2:0:0:
241,256,10906,2,0,L|247:305,1,50,2|10,1:2|0:2,0:2:0:0:
275,346,11222,2,0,P|322:365|370:355,1,99.9999999999999,2|0,1:2|1:2,0:2:0:0:
415,337,11696,1,10,0:2:0:0:
488,269,12011,2,0,P|479:245|477:218,1,50,0|2,1:2|1:2,0:0:0:0:
448,186,12327,1,10,0:2:0:0:
448,186,12485,6,0,P|467:138|457:90,1,99.9999999999999,6|0,1:2|1:2,0:2:0:0:
439,45,12958,1,10,0:2:0:0:
342,17,13274,1,8,0:2:0:0:
277,93,13590,1,8,0:2:0:0:
184,54,13906,6,0,L|76:67,1,99.9999999999999,8|10,0:2|0:2,0:0:0:0:
28,149,14537,1,10,0:2:0:0:
28,149,14695,1,14,0:2:0:0:
14,283,15169,6,0,P|59:293|102:296,1,89.999997253418,2|2,1:2|1:2,0:0:0:0:
165,368,15801,1,2,1:2:0:0:
165,368,15958,2,0,P|192:358|215:357,1,44.999998626709,2|0,0:2|1:2,0:2:0:0:
252,364,16274,2,0,P|307:329|315:265,1,134.999995880127,2|0,0:2|1:2,0:2:0:0:
277,183,17064,1,0,1:2:0:0:
187,176,17379,2,0,P|160:186|136:186,1,44.999998626709,2|2,1:2|0:2,0:0:0:0:
99,181,17695,6,0,P|89:136|85:92,1,89.999997253418,0|2,1:2|1:2,0:2:0:0:
148,27,18327,1,2,1:2:0:0:
148,27,18485,2,0,P|175:37|198:37,1,44.999998626709,2|0,0:2|1:2,0:2:0:0:
220,73,18801,2,0,P|265:63|308:59,1,89.999997253418,2|0,0:2|0:2,0:2:0:0:
352,69,19274,1,2,1:2:0:0:
431,27,19590,1,2,1:2:0:0:
501,83,19906,1,2,1:2:0:0:
490,172,20222,6,0,B|383:149|423:220|318:204,1,179.999994506836,2|0,1:2|1:2,0:2:0:0:
276,192,21011,1,2,0:2:0:0:
210,129,21327,2,0,P|105:143|85:247,1,224.999993133545,2|2,0:2|1:2,0:0:0:0:
142,317,22432,1,2,1:2:0:0:
231,308,22748,6,0,P|241:263|244:219,2,89.999997253418,2|2|2,1:2|1:2|1:2,0:0:0:0:
311,348,23695,1,2,1:2:0:0:
395,380,24011,2,0,P|440:370|483:366,2,89.999997253418,2|2|2,1:2|1:2|1:2,0:0:0:0:
379,291,24958,1,2,1:2:0:0:
447,232,25274,6,0,P|457:187|460:143,1,89.999997253418,2|2,1:2|1:2,0:0:0:0:
450,57,25906,1,2,1:2:0:0:
450,57,26064,2,0,P|423:47|399:46,1,44.999998626709,2|0,0:2|1:2,0:2:0:0:
378,11,26379,2,0,P|331:25|232:24,1,134.999995880127,2|0,0:2|1:2,0:2:0:0:
179,87,27169,1,0,1:2:0:0:
107,38,27485,2,0,P|80:28|56:27,1,44.999998626709,2|2,1:2|0:2,0:0:0:0:
19,36,27801,6,0,P|29:81|32:124,1,89.999997253418,0|2,1:2|1:2,0:2:0:0:
108,182,28432,1,2,1:2:0:0:
108,182,28590,2,0,P|98:209|97:232,1,44.999998626709,2|0,0:2|1:2,0:2:0:0:
59,250,28906,2,0,P|69:295|72:338,1,89.999997253418,2|0,0:2|0:2,0:2:0:0:
104,369,29379,1,2,1:2:0:0:
174,313,29695,1,2,1:2:0:0:
238,376,30011,1,2,1:2:0:0:
312,325,30327,6,0,P|405:374|480:316,1,179.999994506836,2|0,1:2|1:2,0:2:0:0:
490,307,31116,1,2,0:2:0:0:
483,217,31432,2,0,B|356:241|400:157|270:177,1,224.999993133545,2|2,0:2|1:2,0:0:0:0:
183,199,32537,1,2,1:2:0:0:
154,284,32853,6,0,P|164:329|167:372,2,89.999997253418,2|2|2,1:2|1:2|1:2,0:2:0:0:
69,252,33801,1,2,1:2:0:0:
97,167,34116,2,0,P|107:122|110:78,2,89.999997253418,2|2|2,1:2|1:2|1:2,0:2:0:0:
183,199,35063,1,2,1:2:0:0:
267,167,35379,6,2,L|255:71,1,89.999997253418,6|8,1:2|0:2,3:2:0:0:
187,18,36011,2,0,P|163:9|136:7,1,44.999998626709,0|8,1:2|0:2,0:0:0:0:
100,17,36327,1,0,1:2:0:0:
54,94,36643,2,0,L|-9:86,2,44.999998626709,10|0|0,0:2|1:2|1:2,0:2:0:0:
86,125,37116,2,0,P|105:172|97:218,1,89.999997253418,10|10,0:2|0:2,0:2:0:0:
86,253,37590,1,2,1:2:0:0:
50,335,37906,6,0,L|145:346,1,89.999997253418,2|10,1:2|0:2,3:2:0:0:
200,280,38537,2,0,L|263:272,1,44.999998626709,0|10,1:2|0:2,0:0:0:0:
289,268,38854,1,0,1:2:0:0:
369,308,39169,2,0,P|360:331|358:358,2,44.999998626709,10|0|0,0:2|1:2|1:2,0:2:0:0:
410,288,39643,2,0,P|413:243|395:203,1,89.999997253418,10|8,0:2|0:2,0:2:0:0:
371,164,40117,1,0,1:2:0:0:
294,117,40432,6,0,L|204:106,1,89.999997253418,6|10,1:2|0:2,3:2:0:0:
114,102,41064,2,0,P|105:125|103:152,1,44.999998626709,0|10,1:2|0:2,0:0:0:0:
100,190,41380,1,0,1:2:0:0:
43,260,41695,2,0,L|-20:267,2,44.999998626709,10|0|0,0:2|1:2|1:2,0:2:0:0:
68,297,42169,2,0,L|157:307,1,89.999997253418,10|8,0:2|0:2,0:2:0:0:
202,314,42643,1,2,1:2:0:0:
236,231,42958,6,0,B|295:180|426:230|346:305|475:304,1,269.999991760254,6|0,1:2|0:0,0:2:0:0:
511,212,44222,2,0,L|503:148,1,50,10|2,0:2|1:2,0:0:0:0:
467,138,44537,1,2,1:2:0:0:
467,138,44695,2,0,L|482:12,1,99.9999999999999,14|14,0:2|0:2,0:0:0:0:
373,4,45327,5,6,1:2:0:0:
299,86,45643,1,2,1:2:0:0:
299,86,45801,2,0,L|189:72,1,110.000003356934,10|2,0:2|1:2,0:2:0:0:
135,65,46274,1,2,1:2:0:0:
40,118,46590,1,2,1:2:0:0:
40,118,46748,2,0,B|22:170|22:170|40:222,1,110.000003356934,2|10,3:2|0:2,0:2:0:0:
63,272,47222,1,2,0:2:0:0:
141,349,47537,2,0,L|220:339,1,55.0000016784668,2|8,0:0|0:0,0:0:0:0:
231,301,47853,6,0,B|341:292|280:343|399:338,1,165.0000050354,2|8,1:2|0:2,0:2:0:0:
488,297,48643,2,0,L|494:242,1,55.0000016784668,2|0,1:2|1:2,0:0:0:0:
501,187,48958,1,8,0:2:0:0:
399,143,49274,2,0,L|385:33,1,110.000003356934,2|8,3:2|0:2,0:2:0:0:
282,7,49906,1,2,1:2:0:0:
282,7,50064,2,0,P|256:16|227:19,1,55.0000016784668,8|8,0:2|1:2,0:0:0:0:
174,16,50379,5,6,1:2:0:0:
165,129,50695,1,2,1:2:0:0:
165,129,50853,2,0,L|275:143,1,110.000003356934,10|2,0:2|1:2,0:2:0:0:
328,152,51326,1,2,1:2:0:0:
418,223,51642,1,2,1:2:0:0:
418,223,51801,2,0,B|436:275|436:275|418:327,1,110.000003356934,2|10,3:2|0:2,0:2:0:0:
399,378,52274,1,2,0:2:0:0:
304,322,52590,2,0,L|249:315,1,55.0000016784668,2|8,0:0|0:0,0:0:0:0:
200,339,52906,6,0,B|96:351|96:351|54:308,1,165.0000050354,6|10,1:2|0:2,0:2:0:0:
6,209,53695,2,0,L|12:154,1,55.0000016784668,2|2,1:2|1:2,0:0:0:0:
19,102,54011,1,8,0:2:0:0:
19,102,54169,2,0,B|71:84|71:84|123:102,1,110.000003356934,6|8,1:2|0:2,0:2:0:0:
173,123,54643,1,8,0:2:0:0:
253,48,54958,2,0,P|278:57|307:60,1,55.0000016784668,0|8,1:2|0:2,0:0:0:0:
363,51,55274,1,8,0:2:0:0:
363,51,55432,6,0,B|410:96|410:96|398:195,1,165.0000050354,6|10,1:2|0:2,0:2:0:0:
300,247,56222,2,0,L|306:301,1,55.0000016784668,2|2,1:2|1:2,0:0:0:0:
316,360,56537,1,8,0:2:0:0:
316,360,56695,2,0,B|368:378|368:378|420:360,1,110.000003356934,6|0,1:2|1:2,0:2:0:0:
469,335,57169,1,8,0:2:0:0:
512,236,57485,1,2,1:2:0:0:
512,236,57643,2,0,L|505:181,1,55.0000016784668,2|8,1:2|0:2,0:0:0:0:
496,127,57958,6,0,B|386:118|447:169|328:164,1,165.0000050354,6|10,1:2|0:2,0:2:0:0:
305,269,58748,2,0,P|279:259|250:256,1,55.0000016784668,2|2,1:2|1:2,0:0:0:0:
215,297,59063,1,8,0:2:0:0:
215,297,59222,2,0,B|163:315|163:315|111:297,1,110.000003356934,6|0,1:2|1:2,0:2:0:0:
62,272,59695,1,10,0:2:0:0:
54,162,60011,2,0,L|0:155,2,55.0000016784668,2|10|10,1:2|0:2|0:2,0:0:0:0:
87,117,60485,6,0,B|150:109|150:109|186:137|186:137|249:129,1,165.0000050354,6|10,1:2|0:2,0:2:0:0:
316,49,61274,1,2,1:2:0:0:
316,49,61432,2,0,P|341:39|370:36,1,55.0000016784668,2|8,1:2|0:2,0:0:0:0:
423,44,61748,2,0,L|409:154,1,110.000003356934,6|8,1:2|0:2,0:2:0:0:
401,207,62222,1,8,0:2:0:0:
292,222,62537,2,0,L|298:276,1,55.0000016784668,2|0,3:2|1:2,0:0:0:0:
305,331,62853,1,8,0:2:0:0:
198,360,63169,6,0,B|146:378|146:378|94:360,1,110.000003356934,6|8,1:2|0:2,0:2:0:0:
18,279,63801,2,0,P|27:253|30:224,1,55.0000016784668,8|0,0:2|1:2,0:0:0:0:
22,176,64116,1,8,0:2:0:0:
22,176,64274,6,0,P|10:111|149:81,1,224.999993133545,6|8,1:2|0:2,0:2:0:0:
172,93,65222,2,0,L|177:137,1,44.999998626709,2|8,1:2|0:2,0:0:0:0:
219,164,65537,6,0,L|205:274,1,99.9999999999999,6|2,1:2|0:2,0:2:0:0:
199,313,66011,1,10,0:2:0:0:
287,360,66327,2,0,L|336:353,1,50,0|2,1:2|1:2,0:0:0:0:
390,353,66643,1,10,0:2:0:0:
390,353,66801,2,0,P|410:306|400:258,1,99.9999999999999,2|10,1:2|0:2,0:2:0:0:
380,213,67274,2,0,L|386:163,1,50,2|2,1:2|1:2,0:2:0:0:
392,113,67590,1,10,0:2:0:0:
452,33,67906,1,10,0:2:0:0:
452,33,68064,6,0,P|388:9|304:11,1,150,6|10,1:2|0:2,0:2:0:0:
217,49,68853,1,2,1:2:0:0:
217,49,69011,2,0,L|167:42,1,50,2|8,1:2|0:2,0:2:0:0:
117,44,69327,2,0,P|97:91|107:139,1,99.9999999999999,2|0,1:2|1:2,0:2:0:0:
122,185,69801,1,10,0:2:0:0:
65,267,70116,2,0,P|74:292|77:321,1,50,2|2,1:2|1:2,0:0:0:0:
82,369,70432,1,10,0:2:0:0:
82,369,70590,6,0,B|126:384|156:355|156:355|185:325|230:340,1,150,2|10,1:2|0:2,0:2:0:0:
320,369,71380,1,2,1:2:0:0:
320,369,71537,2,0,L|369:362,1,50,2|8,1:2|0:2,0:2:0:0:
419,358,71853,1,2,1:2:0:0:
495,293,72169,2,0,P|504:269|507:245,1,50,0|10,1:2|0:2,0:0:0:0:
501,195,72485,2,0,P|454:175|406:185,1,99.9999999999999,2|2,0:2|1:2,0:2:0:0:
366,210,72959,1,10,0:2:0:0:
366,210,73116,6,0,B|274:199|274:199|237:242,1,150,6|10,1:2|0:2,0:2:0:0:
180,327,73906,1,2,1:2:0:0:
180,327,74064,2,0,L|130:320,1,50,2|10,1:2|0:2,0:2:0:0:
80,315,74379,2,0,P|60:268|70:220,1,99.9999999999999,2|0,1:2|1:2,0:2:0:0:
86,173,74854,1,10,0:2:0:0:
127,82,75169,2,0,L|176:75,1,50,2|2,1:2|1:2,0:0:0:0:
213,41,75485,1,10,0:2:0:0:
213,41,75643,6,0,L|321:54,1,99.9999999999999,6|0,1:2|1:2,0:2:0:0:
361,60,76116,1,10,0:2:0:0:
450,105,76432,1,10,0:2:0:0:
459,204,76748,1,10,0:2:0:0:
377,261,77064,6,0,P|330:281|282:271,1,99.9999999999999,8|10,0:2|0:2,0:0:0:0:
204,218,77695,1,10,0:2:0:0:
204,218,77853,1,6,1:2:0:0:
127,283,78169,1,6,1:2:0:0:
256,192,78327,12,0,83695,0:2:0:0:
