osu file format v14

[General]
AudioFilename: audio.mp3
AudioLeadIn: 0
PreviewTime: 45248
Countdown: 0
SampleSet: Soft
StackLeniency: 0.4
Mode: 0
LetterboxInBreaks: 0
WidescreenStoryboard: 1

[Editor]
DistanceSpacing: 1.4
BeatDivisor: 4
GridSize: 16
TimelineZoom: 5.299997

[Metadata]
Title:Tokoyami no keiyaku KEGARETA-SHOUJO feat. GUMI (Short Ver.)
TitleUnicode:常闇の契約 ケガレタショウジョ feat. GUMI (Short Ver.)
Artist:Trial & Error
ArtistUnicode:Trial & Error
Creator:Basensorex
Version:Karcher's Extra
Source:
Tags:japanese rock j-rock jrock fa featured artist megpoid and vocaloid pepekcz booliix reform kujinn [karcher] karcher my angel ram my_angel_ram
BeatmapID:2939233
BeatmapSetID:1415543

[Difficulty]
HPDrainRate:5.5
CircleSize:4.2
OverallDifficulty:8.2
ApproachRate:9.1
SliderMultiplier:1.7
SliderTickRate:1

[Events]
//Background and Video events
0,0,"bg.jpg",0,0
//Break Periods
//Storyboard Layer 0 (Background)
//Storyboard Layer 1 (Fail)
//Storyboard Layer 2 (Pass)
//Storyboard Layer 3 (Foreground)
//Storyboard Layer 4 (Overlay)
//Storyboard Sound Samples

[TimingPoints]
3801,315.789473684211,4,2,22,65,1,0
3801,-200,4,2,22,65,0,0
4906,-100,4,2,22,65,0,0
12485,-83.3333333333333,4,2,22,65,0,0
15169,-142.857142857143,4,2,22,50,0,0
35379,-125,4,2,22,55,0,0
42958,-200,4,2,22,50,0,0
44222,-200,4,2,22,65,0,0
44695,-100,4,2,22,65,0,0
44774,-100,4,2,22,5,0,0
45011,-100,4,2,22,65,0,0
45090,-100,4,2,22,5,0,0
45327,-90.9090909090909,4,2,22,70,0,1
64274,-133.333333333333,4,2,22,55,0,0
65537,-100,4,2,22,55,0,0
68064,-100,4,2,22,65,0,0
75643,-83.3333333333333,4,2,22,65,0,0
78169,-83.3333333333333,4,2,22,50,0,0
83695,-83.3333333333333,4,2,22,5,0,0

[Colours]
Combo1 : 209,102,5
Combo2 : 22,207,46
Combo3 : 37,146,81
Combo4 : 157,157,157

[HitObjects]
37,80,3801,5,10,0:2:0:0:
230,163,3958,1,10,0:3:0:0:
230,163,4037,1,8,0:3:0:0:
230,163,4116,1,10,0:3:0:0:
35,252,4274,5,14,0:2:0:0:
122,161,4432,2,0,L|125:217,2,42.5,4|6|6,1:3|1:3|0:3,0:0:0:0:
285,95,4906,6,0,B|326:67|326:67|309:191,1,170,6|0,1:2|1:2,0:2:0:0:
225,331,5379,2,0,L|241:247,1,85,10|0,0:2|0:2,0:2:0:0:
400,143,5695,1,2,1:2:0:0:
332,314,5853,1,2,1:2:0:0:
230,163,6011,1,10,0:2:0:0:
208,350,6169,6,0,P|140:373|85:289,1,170,2|0,1:2|1:2,0:2:0:0:
230,163,6643,2,0,L|216:259,1,85,10|0,0:2|0:2,0:2:0:0:
178,36,6958,1,2,1:2:0:0:
69,148,7116,2,0,L|56:63,1,85,2|10,1:2|0:2,0:0:0:0:
248,173,7432,6,0,B|332:200|332:200|413:167,1,170,2|0,1:2|1:2,0:2:0:0:
320,24,7906,2,0,L|327:110,1,85,10|0,0:2|0:2,0:2:0:0:
492,222,8222,1,2,1:2:0:0:
413,69,8379,1,2,1:2:0:0:
350,234,8537,1,10,0:2:0:0:
500,107,8695,6,0,P|506:61|488:15,1,85,2|0,1:2|3:2,0:2:0:0:
320,24,9011,1,2,1:2:0:0:
286,28,9090,1,2,1:2:0:0:
255,42,9169,1,10,0:2:0:0:
235,69,9248,1,0,3:0:0:0:
225,101,9327,1,2,0:2:0:0:
225,135,9406,1,0,3:0:0:0:
240,165,9485,5,0,1:2:0:0:
397,101,9643,2,0,L|301:116,1,85,2|8,1:2|0:2,0:0:0:0:
135,101,9958,6,0,B|88:81|88:81|119:200,1,170,6|0,1:2|1:2,0:2:0:0:
207,357,10432,2,0,L|216:258,1,85,10|0,0:2|0:2,0:2:0:0:
313,114,10748,1,2,1:2:0:0:
350,286,10906,1,2,1:2:0:0:
211,163,11064,1,10,0:2:0:0:
392,61,11222,6,0,B|430:115|430:115|399:217,1,170,2|0,1:2|1:2,0:2:0:0:
497,331,11695,2,0,L|486:244,1,85,10|0,0:2|0:2,0:2:0:0:
309,204,12011,1,0,1:2:0:0:
309,204,12169,2,0,L|298:288,1,85,2|10,1:2|0:2,0:0:0:0:
392,61,12485,6,0,P|325:13|234:82,1,203.999993774414,6|0,1:2|1:2,0:2:0:0:
140,286,12958,2,0,L|125:178,1,101.999996887207,10|0,0:2|1:2,0:0:0:0:
23,25,13274,1,8,0:2:0:0:
251,166,13432,1,2,1:2:0:0:
12,253,13590,1,8,0:2:0:0:
161,42,13748,1,2,1:2:0:0:
231,317,13906,6,0,P|283:330|338:311,1,101.999996887207,8|0,0:2|1:2,0:0:0:0:
460,162,14222,2,0,L|448:269,1,101.999996887207,10|0,0:2|1:2,0:0:0:0:
448,263,14458,1,0,1:0:0:0:
448,263,14537,1,10,0:2:0:0:
346,50,14695,1,14,0:2:0:0:
226,276,15169,5,2,1:2:0:0:
226,276,15485,2,0,P|218:244|221:212,1,59.4999981842042,2|0,1:2|0:2,0:2:0:0:
304,177,15801,1,2,1:2:0:0:
304,177,15958,2,0,L|297:105,1,59.4999981842042,2|0,0:2|1:2,0:2:0:0:
228,70,16274,1,2,0:2:0:0:
228,70,16432,6,0,B|188:93|188:93|113:72,2,118.999996368408,0|0|0,1:2|1:2|1:2,0:0:0:0:
310,25,17222,1,2,0:2:0:0:
310,25,17379,2,0,L|373:34,1,59.4999981842042,2|2,1:2|0:2,0:0:0:0:
447,88,17695,6,0,L|458:212,2,118.999996368408,0|2|2,1:2|1:2|1:2,0:2:0:0:
358,126,18485,2,0,L|366:194,1,59.4999981842042,2|0,0:2|1:2,0:2:0:0:
462,291,18801,1,2,0:2:0:0:
462,291,18958,6,0,B|427:290|404:271|404:271|374:273|345:295,1,118.999996368408,0|2,1:2|1:2,0:0:0:0:
194,369,19590,1,2,1:2:0:0:
51,265,19906,1,2,1:2:0:0:
181,163,20222,6,0,P|200:219|168:287,2,118.999996368408,2|0|0,1:2|1:2|1:2,0:2:0:0:
99,132,21011,2,0,L|90:68,1,59.4999981842042,2|0,0:2|1:2,0:2:0:0:
157,12,21327,1,2,0:2:0:0:
157,12,21485,6,0,B|210:34|210:34|275:12,2,118.999996368408,2|0|2,1:2|1:2|1:2,0:2:0:0:
22,140,22432,1,2,1:2:0:0:
22,140,22590,1,0,0:2:0:0:
17,229,22748,6,0,P|49:224|74:206,1,59.4999981842042,2|0,1:2|0:2,0:2:0:0:
141,251,23064,2,0,P|152:220|149:190,1,59.4999981842042,2|0,1:2|0:2,0:0:0:0:
222,154,23379,2,0,P|201:128|173:116,1,59.4999981842042,2|0,1:2|0:2,0:2:0:0:
178,35,23695,2,0,P|146:40|121:58,1,59.4999981842042,2|0,1:2|0:2,0:2:0:0:
94,134,24011,6,0,L|65:138,2,19.8333327280681,2|2|2,1:2|0:0|0:0,0:2:0:0:
222,154,24327,2,0,L|289:166,1,59.4999981842042,2|0,1:2|0:2,0:2:0:0:
350,236,24643,2,0,L|283:248,1,59.4999981842042,2|0,1:2|0:2,0:2:0:0:
210,315,24958,2,0,L|277:327,1,59.4999981842042,2|0,1:2|0:2,0:2:0:0:
344,383,25274,5,2,1:2:0:0:
344,383,25590,2,0,L|408:372,1,59.4999981842042,2|0,1:2|0:2,0:2:0:0:
489,331,25906,1,2,1:2:0:0:
489,331,26064,2,0,L|494:266,1,59.4999981842042,2|0,0:2|1:2,0:2:0:0:
445,188,26379,1,2,0:2:0:0:
445,188,26537,6,0,P|414:219|341:203,2,118.999996368408,0|0|0,1:2|1:2|1:2,0:0:0:0:
485,102,27327,1,2,0:2:0:0:
485,102,27485,2,0,L|479:33,1,59.4999981842042,2|2,1:2|0:2,0:0:0:0:
374,24,27801,6,0,B|337:3|337:3|258:28,2,118.999996368408,0|2|2,1:2|1:2|1:2,0:2:0:0:
197,82,28590,2,0,P|181:52|181:21,1,59.4999981842042,2|0,0:2|1:2,0:2:0:0:
282,119,28906,1,2,0:2:0:0:
282,119,29064,6,0,P|300:177|266:243,1,118.999996368408,0|2,1:2|1:2,0:0:0:0:
126,300,29695,1,2,1:2:0:0:
280,381,30011,1,2,1:2:0:0:
455,261,30327,6,0,L|463:137,2,118.999996368408,2|0|0,1:2|1:2|1:2,0:2:0:0:
393,92,31116,2,0,P|414:69|444:60,1,59.4999981842042,2|0,0:2|1:2,0:2:0:0:
381,174,31432,1,2,0:2:0:0:
381,174,31590,6,0,B|340:195|340:195|265:177,2,118.999996368408,2|0|2,1:2|1:2|1:2,0:2:0:0:
262,97,32379,1,0,0:2:0:0:
262,97,32537,2,0,L|194:91,1,59.4999981842042,2|0,1:2|0:2,0:2:0:0:
125,57,32853,6,0,P|116:89|121:118,1,59.4999981842042,2|0,1:2|0:2,0:2:0:0:
63,179,33169,2,0,P|90:197|119:201,1,59.4999981842042,2|0,1:2|0:2,0:2:0:0:
159,275,33485,2,0,P|185:254|198:228,1,59.4999981842042,2|0,1:2|0:2,0:2:0:0:
280,212,33801,2,0,P|268:180|247:160,1,59.4999981842042,2|0,1:2|0:2,0:2:0:0:
202,90,34117,6,0,P|229:78|259:78,1,59.4999981842042,2|0,1:2|0:2,0:2:0:0:
313,16,34432,2,0,P|332:37|342:66,1,59.4999981842042,2|0,1:2|0:2,0:2:0:0:
417,98,34748,2,0,P|402:123|377:141,1,59.4999981842042,2|0,1:2|0:2,0:2:0:0:
370,223,35064,2,0,P|341:216|316:199,1,59.4999981842042,2|0,1:2|0:2,0:2:0:0:
238,217,35379,5,6,1:2:0:0:
238,217,35537,1,0,0:2:0:0:
139,99,35695,2,0,B|113:148|113:148|141:228,1,136,8|0,0:2|1:2,0:2:0:0:
192,301,36169,2,0,L|184:374,1,68,8|0,0:2|1:2,0:0:0:0:
336,180,36643,6,0,L|262:191,2,68,10|0|0,0:2|1:2|1:2,0:2:0:0:
418,108,37116,2,0,P|465:95|507:161,1,136,10|10,0:2|0:2,0:2:0:0:
507,159,37590,1,2,1:2:0:0:
381,378,37906,5,2,1:2:0:0:
381,378,38064,1,0,0:2:0:0:
241,296,38222,2,0,B|280:265|280:265|366:288,1,136,10|0,0:2|1:2,0:2:0:0:
449,315,38695,2,0,L|516:304,1,68,10|0,0:2|1:2,0:0:0:0:
352,127,39169,6,0,L|348:205,2,68,10|0|0,0:2|1:2|1:2,0:2:0:0:
456,42,39643,2,0,P|408:4|346:39,1,136,10|8,0:2|0:2,0:2:0:0:
348,34,40116,1,0,1:2:0:0:
182,194,40432,5,6,1:2:0:0:
182,194,40590,1,0,0:2:0:0:
63,133,40748,2,0,B|115:129|115:129|131:108|131:108|192:103,1,136,10|0,0:2|1:2,0:2:0:0:
264,151,41222,2,0,L|338:157,1,68,10|0,0:2|1:2,0:0:0:0:
266,317,41695,6,0,L|259:236,2,68,10|0|0,0:2|1:2|1:2,0:2:0:0:
161,347,42169,2,0,P|114:378|46:348,1,136,10|8,0:2|0:2,0:2:0:0:
46,348,42643,1,2,1:2:0:0:
256,192,42958,6,0,B|306:162|348:178|348:178|303:108|217:124|173:184,1,297.5,6|0,1:2|1:2,0:2:0:0:
177,177,44143,1,0,1:2:0:0:
177,177,44222,5,10,0:2:0:0:
316,254,44379,1,2,1:2:0:0:
418,141,44537,1,2,1:2:0:0:
286,62,44695,6,0,L|293:108,1,42.5,14|0,0:2|0:0,0:0:0:0:
267,52,45011,6,0,L|274:98,1,42.5,14|0,0:2|0:0,0:0:0:0:
248,42,45327,6,0,P|169:15|99:93,1,187.000005706787,6|2,1:2|1:2,0:2:0:0:
204,254,45801,2,0,L|212:147,1,93.5000028533936,10|0,0:2|0:2,0:2:0:0:
324,4,46116,1,2,1:2:0:0:
345,205,46274,2,0,P|390:220|441:207,1,93.5000028533936,2|8,1:2|0:2,0:2:0:0:
277,91,46590,1,2,1:2:0:0:
204,254,46748,6,0,P|162:274|113:266,1,93.5000028533936,2|0,3:2|0:2,0:2:0:0:
267,67,47064,1,10,0:2:0:0:
393,270,47222,2,0,L|384:375,1,93.5000028533936,2|0,0:2|1:2,0:2:0:0:
148,192,47537,2,0,L|140:98,1,93.5000028533936,2|8,1:2|0:2,0:2:0:0:
401,18,47853,6,0,P|456:53|402:157,1,187.000005706787,2|0,1:2|1:2,0:2:0:0:
186,28,48327,2,0,P|141:13|83:28,1,93.5000028533936,8|0,0:2|0:2,0:2:0:0:
235,171,48643,1,2,1:2:0:0:
235,171,48801,1,0,1:2:0:0:
322,1,48958,2,0,L|334:102,1,93.5000028533936,8|0,0:2|0:2,0:2:0:0:
407,232,49274,6,0,B|371:196|322:201|322:201|306:249|251:263,1,187.000005706787,2|8,3:2|0:2,0:2:0:0:
121,136,49748,1,0,0:2:0:0:
102,325,49906,1,2,1:2:0:0:
235,171,50064,1,8,0:2:0:0:
38,109,50222,1,8,1:2:0:0:
38,109,50301,1,8,0:2:0:0:
38,109,50379,6,0,P|37:162|145:218,1,187.000005706787,6|2,1:2|1:2,0:2:0:0:
267,103,50853,2,0,P|316:88|362:101,1,93.5000028533936,10|0,0:2|0:2,0:2:0:0:
474,214,51169,1,2,1:2:0:0:
301,284,51327,2,0,L|315:184,1,93.5000028533936,2|8,1:2|0:2,0:2:0:0:
443,58,51643,1,2,1:2:0:0:
495,240,51801,6,0,L|482:332,1,93.5000028533936,2|0,3:2|1:2,0:2:0:0:
355,97,52116,1,10,0:2:0:0:
296,314,52274,2,0,P|250:333|206:325,1,93.5000028533936,2|0,0:2|1:2,0:2:0:0:
52,140,52590,2,0,L|145:150,1,93.5000028533936,2|8,1:2|0:2,0:2:0:0:
341,81,52906,6,0,B|291:52|291:52|319:182,1,187.000005706787,6|0,1:2|1:2,0:2:0:0:
436,341,53379,1,10,0:2:0:0:
463,138,53537,1,0,1:2:0:0:
463,138,53616,1,0,1:2:0:0:
463,138,53695,1,2,1:2:0:0:
320,290,53853,2,0,L|223:304,1,93.5000028533936,2|8,1:2|0:2,0:0:0:0:
144,58,54169,6,0,P|205:75|218:196,1,187.000005706787,6|8,1:2|0:2,0:2:0:0:
225,184,54564,1,8,0:2:0:0:
225,184,54643,1,8,0:2:0:0:
68,373,54801,1,0,1:2:0:0:
61,150,54958,1,0,1:2:0:0:
61,150,55037,1,0,1:2:0:0:
61,150,55116,1,8,0:2:0:0:
227,303,55274,1,8,0:2:0:0:
227,303,55353,1,8,0:2:0:0:
227,303,55432,6,0,B|336:267|287:341|409:303,1,187.000005706787,6|0,1:2|1:2,0:2:0:0:
381,136,55906,2,0,P|357:177|360:233,1,93.5000028533936,10|0,0:2|0:2,0:2:0:0:
485,364,56222,1,2,1:2:0:0:
511,182,56379,2,0,L|501:85,1,93.5000028533936,2|8,1:2|0:2,0:0:0:0:
357,222,56695,6,0,P|316:263|208:210,1,187.000005706787,6|0,1:2|1:2,0:2:0:0:
86,57,57169,1,8,0:2:0:0:
63,263,57327,1,2,0:2:0:0:
201,94,57485,1,2,1:2:0:0:
225,310,57643,1,2,1:2:0:0:
52,174,57801,1,8,0:2:0:0:
255,31,57958,6,0,B|300:1|300:1|284:133,1,187.000005706787,6|0,1:2|1:2,0:2:0:0:
157,360,58432,2,0,P|143:306|158:264,1,93.5000028533936,10|0,0:2|0:2,0:2:0:0:
284,132,58748,1,2,1:2:0:0:
328,322,58906,2,0,P|375:333|422:321,1,93.5000028533936,2|8,1:2|0:2,0:0:0:0:
492,142,59222,6,0,P|428:135|388:250,1,187.000005706787,6|0,1:2|1:2,0:2:0:0:
379,232,59616,1,0,1:0:0:0:
379,232,59695,1,10,0:2:0:0:
256,333,59853,1,2,0:2:0:0:
144,228,60011,5,2,1:2:0:0:
344,307,60169,1,10,0:2:0:0:
134,384,60327,1,10,0:2:0:0:
208,157,60485,6,0,B|250:125|250:125|232:263,1,187.000005706787,6|0,1:2|1:2,0:2:0:0:
16,384,60958,2,0,L|32:284,1,93.5000028533936,10|0,0:2|0:2,0:2:0:0:
135,123,61274,1,2,1:2:0:0:
208,339,61432,2,0,P|258:339|295:314,1,93.5000028533936,2|8,1:2|0:2,0:0:0:0:
422,156,61748,6,0,P|359:134|322:237,1,187.000005706787,6|8,1:2|0:2,0:2:0:0:
494,315,62222,2,0,L|484:217,1,93.5000028533936,8|0,0:2|1:2,0:0:0:0:
366,44,62537,1,2,3:2:0:0:
314,225,62695,1,0,1:2:0:0:
229,58,62853,2,0,P|174:47|128:61,1,93.5000028533936,8|0,0:2|0:2,0:2:0:0:
207,342,63169,5,6,1:2:0:0:
366,118,63327,1,0,1:2:0:0:
405,382,63485,5,8,0:2:0:0:
176,217,63643,1,0,1:2:0:0:
458,90,63801,5,8,0:2:0:0:
297,337,63958,1,0,1:2:0:0:
229,58,64116,1,8,0:2:0:0:
429,261,64274,5,6,1:2:0:0:
256,192,64353,12,8,65379,0:2:0:0:
154,234,65537,6,0,P|93:286|6:261,1,170,6|2,1:2|0:2,0:2:0:0:
63,121,66011,2,0,L|74:218,1,85,10|8,0:2|0:2,0:0:0:0:
72,205,66248,1,8,0:2:0:0:
72,205,66327,1,0,1:2:0:0:
186,61,66485,1,2,1:2:0:0:
240,248,66643,2,0,P|284:258|323:248,1,85,10|2,0:2|1:2,0:0:0:0:
402,75,66958,5,0,3:2:0:0:
482,247,67116,1,10,0:2:0:0:
482,247,67195,1,8,0:2:0:0:
482,247,67274,1,2,1:2:0:0:
306,139,67432,1,2,1:2:0:0:
485,33,67590,1,10,0:2:0:0:
485,33,67669,1,8,0:2:0:0:
485,33,67748,1,10,0:2:0:0:
482,247,67906,1,10,0:2:0:0:
482,247,67985,1,8,0:2:0:0:
482,247,68064,6,0,B|372:225|430:283|318:255,1,170,6|0,1:2|0:2,0:2:0:0:
223,97,68537,2,0,L|211:182,1,85,10|0,0:2|0:2,0:2:0:0:
78,317,68853,1,2,1:2:0:0:
112,139,69011,1,2,1:2:0:0:
224,281,69169,1,8,0:2:0:0:
48,199,69327,6,0,P|26:150|86:58,1,170,2|0,1:2|1:2,0:2:0:0:
211,103,69801,2,0,P|255:112|294:101,1,85,10|0,0:2|0:2,0:2:0:0:
436,184,70116,1,2,1:2:0:0:
415,0,70274,2,0,L|425:87,1,85,2|10,1:2|0:2,0:0:0:0:
349,211,70590,6,0,B|318:264|318:264|349:371,1,170,2|0,1:2|1:2,0:2:0:0:
493,257,71064,2,0,L|399:276,1,85,10|0,0:2|0:2,0:2:0:0:
284,142,71379,1,2,1:2:0:0:
463,161,71537,1,2,1:2:0:0:
326,289,71695,1,8,0:2:0:0:
262,98,71853,6,0,P|223:85|176:98,1,85,2|0,1:2|3:2,0:2:0:0:
96,262,72169,1,0,1:2:0:0:
128,272,72248,1,0,1:2:0:0:
162,271,72327,1,10,0:2:0:0:
194,259,72406,1,0,3:0:0:0:
217,233,72485,1,2,0:2:0:0:
225,200,72564,1,0,3:0:0:0:
220,166,72643,5,0,1:2:0:0:
65,235,72801,2,0,L|71:321,1,85,2|10,1:2|0:2,0:0:0:0:
237,348,73116,6,0,B|336:320|296:384|403:354,1,170,6|0,1:2|1:2,0:2:0:0:
374,187,73590,2,0,L|366:282,1,85,10|0,0:2|0:2,0:2:0:0:
163,313,73906,1,2,1:2:0:0:
274,140,74064,1,2,1:2:0:0:
324,345,74222,1,10,0:2:0:0:
189,135,74379,6,0,P|210:82|315:67,1,170,2|0,1:2|1:2,0:2:0:0:
439,153,74853,2,0,L|354:138,1,85,10|0,0:2|0:2,0:2:0:0:
144,234,75169,1,2,1:2:0:0:
144,234,75327,2,0,L|228:221,1,85,2|10,1:2|0:2,0:0:0:0:
443,66,75643,6,0,P|490:85|488:225,1,203.999993774414,6|0,1:2|1:2,0:2:0:0:
311,384,76116,2,0,L|300:272,1,101.999996887207,10|0,0:2|1:2,0:0:0:0:
144,87,76432,1,10,0:2:0:0:
111,332,76590,1,2,1:2:0:0:
269,149,76748,1,10,0:2:0:0:
34,73,76906,1,2,1:2:0:0:
229,235,77064,6,0,P|280:245|328:227,1,101.999996887207,8|0,0:2|1:2,0:0:0:0:
499,132,77379,2,0,L|489:28,1,101.999996887207,10|0,0:2|1:2,0:0:0:0:
489,30,77616,1,0,1:0:0:0:
489,30,77695,1,10,0:2:0:0:
448,288,77853,1,6,1:2:0:0:
141,60,78169,5,6,1:2:0:0:
256,192,78248,12,0,83695,0:2:0:0:
