osu file format v14

[General]
AudioFilename: audio.mp3
AudioLeadIn: 0
PreviewTime: 55669
Countdown: 0
SampleSet: Normal
StackLeniency: 0.7
Mode: 0
LetterboxInBreaks: 0
WidescreenStoryboard: 1

[Editor]
Bookmarks: 3801,15011,25274,35379,45485,54327,75801,78169,88274,98537,108643,118748,127590,149064,174327,195801,214748,218379
DistanceSpacing: 0.9
BeatDivisor: 4
GridSize: 4
TimelineZoom: 1.5

[Metadata]
Title:Tokoyami no keiyaku KEGARETA-SHOUJO feat. GUMI
TitleUnicode:常闇の契約 ケガレタショウジョ feat. GUMI
Artist:Trial & Error
ArtistUnicode:Trial & Error
Creator:Natsu
Version:Normal
Source:
Tags:vocaloid pishifat megpoid Sonnyc featured artist mappers' guild dance and
BeatmapID:1650969
BeatmapSetID:786498

[Difficulty]
HPDrainRate:4
CircleSize:3.5
OverallDifficulty:4
ApproachRate:5
SliderMultiplier:0.999999999999999
SliderTickRate:1

[Events]
//Background and Video events
0,0,"phib_business_card_anime_north_2017_by_phibonnachee-dbai99h.png",0,0
//Break Periods
2,33053,34116
2,43158,44285
2,98537,107442
//Storyboard Layer 0 (Background)
//Storyboard Layer 1 (Fail)
//Storyboard Layer 2 (Pass)
//Storyboard Layer 3 (Foreground)
//Storyboard Sound Samples

[TimingPoints]
3801,315.789473684211,4,1,1,50,1,0
3801,-100,4,1,1,50,0,0
4906,-100,4,1,1,50,0,1
4985,-100,4,1,1,50,0,0
5143,-100,4,1,1,5,0,0
5222,-100,4,1,1,50,0,0
5379,-100,4,1,1,50,0,0
6169,-100,4,1,1,50,0,0
6406,-100,4,1,1,5,0,0
6485,-100,4,1,1,50,0,0
6643,-100,4,1,1,50,0,0
7432,-100,4,1,1,50,0,0
7669,-100,4,1,1,5,0,0
7748,-100,4,1,1,50,0,0
7906,-100,4,1,1,50,0,0
8695,-100,4,1,1,50,0,0
8932,-100,4,1,1,5,0,0
9011,-100,4,1,1,50,0,0
10195,-100,4,1,1,5,0,0
10274,-100,4,1,1,50,0,0
10432,-100,4,1,1,50,0,0
11222,-100,4,1,1,50,0,0
14695,-100,4,1,1,50,0,0
14932,-100,4,1,1,5,0,0
15011,-100,4,1,1,50,0,1
15090,-100,4,1,1,50,0,0
15248,-100,4,1,1,5,0,0
15327,-100,4,1,1,50,0,0
15485,-100,4,1,1,50,0,0
16274,-100,4,1,1,50,0,0
16511,-100,4,1,1,5,0,0
16590,-100,4,1,1,50,0,0
16748,-100,4,1,1,50,0,0
17537,-100,4,1,1,50,0,0
17774,-100,4,1,1,5,0,0
17853,-100,4,1,1,50,0,0
18011,-100,4,1,1,50,0,0
18801,-100,4,1,1,50,0,0
19037,-100,4,1,1,5,0,0
19116,-100,4,1,1,50,0,0
20301,-100,4,1,1,5,0,0
20379,-100,4,1,1,50,0,0
20537,-100,4,1,1,50,0,0
21327,-100,4,1,1,50,0,0
24801,-100,4,1,1,50,0,0
24958,-100,4,1,1,5,0,0
25274,-100,4,2,1,30,0,0
45485,-100,4,1,1,30,0,0
52906,-100,4,1,1,5,0,0
53064,-100,4,1,1,40,0,0
53143,-100,4,2,1,5,0,0
54169,-100,4,1,1,40,0,0
54327,-100,4,1,1,60,0,1
54801,-100,4,1,1,60,0,1
54958,-100,4,1,1,5,0,1
55116,-100,4,1,1,60,0,1
55274,-100,4,1,1,5,0,1
55432,-100,4,1,1,60,0,1
55511,-100,4,1,1,60,0,0
55669,-100,4,1,1,5,0,0
55748,-100,4,1,1,60,0,1
58195,-100,4,1,1,5,0,1
58274,-100,4,1,1,60,0,1
60722,-100,4,1,1,5,0,1
60801,-100,4,1,1,60,0,1
64511,-100,4,1,1,5,0,1
64590,-100,4,1,1,40,0,1
65458,-100,4,1,1,40,0,0
65537,-100,4,1,1,60,0,1
69564,-100,4,1,1,5,0,1
69643,-100,4,1,1,60,0,1
72090,-100,4,1,1,5,0,1
72169,-100,4,1,1,60,0,1
74379,-100,4,1,1,60,0,0
74458,-100,4,1,1,5,0,0
75169,-100,4,1,1,40,0,0
75327,-100,4,1,1,40,0,0
75643,-100,4,1,1,50,0,1
75722,-100,4,1,1,50,0,0
78090,-100,4,1,1,50,0,0
78169,-100,4,1,1,50,0,1
78248,-100,4,1,1,50,0,0
78406,-100,4,1,1,5,0,0
78485,-100,4,1,1,50,0,0
79432,-100,4,1,1,50,0,0
79669,-100,4,1,1,5,0,0
79748,-100,4,1,1,50,0,0
79906,-100,4,1,1,50,0,0
80695,-100,4,1,1,50,0,0
80932,-100,4,1,1,5,0,0
81011,-100,4,1,1,50,0,0
81169,-100,4,1,1,50,0,0
81958,-100,4,1,1,50,0,0
82195,-100,4,1,1,5,0,0
82274,-100,4,1,1,50,0,0
83222,-100,4,1,1,50,0,0
83458,-100,4,1,1,5,0,0
83537,-100,4,1,1,50,0,0
83695,-100,4,1,1,50,0,0
84485,-100,4,1,1,50,0,0
87958,-100,4,1,1,50,0,0
88195,-100,4,1,1,5,0,0
88274,-100,4,1,1,50,0,1
88353,-100,4,1,1,50,0,0
88511,-100,4,1,1,5,0,0
88590,-100,4,1,1,50,0,0
89537,-100,4,1,1,50,0,0
89774,-100,4,1,1,5,0,0
89853,-100,4,1,1,50,0,0
90011,-100,4,1,1,50,0,0
90801,-100,4,1,1,50,0,0
91037,-100,4,1,1,5,0,0
91116,-100,4,1,1,50,0,0
91274,-100,4,1,1,50,0,0
92064,-100,4,1,1,50,0,0
92301,-100,4,1,1,5,0,0
92379,-100,4,1,1,50,0,0
93327,-100,4,1,1,50,0,0
93564,-100,4,1,1,5,0,0
93643,-100,4,1,1,50,0,0
93801,-100,4,1,1,50,0,0
94590,-100,4,1,1,50,0,0
98064,-100,4,1,1,50,0,0
98222,-100,4,1,1,5,0,0
98537,-100,4,2,1,30,0,0
108643,-100,4,1,1,40,0,0
113932,-100,4,1,1,5,0,0
114011,-100,4,1,1,40,0,0
118748,-100,4,1,1,40,0,0
121274,-100,4,1,1,40,0,0
121906,-100,4,1,1,40,0,0
123801,-100,4,1,1,40,0,0
124432,-100,4,1,1,40,0,0
126169,-100,4,1,1,5,0,0
126327,-100,4,1,1,40,0,0
126406,-100,4,1,1,5,0,0
127432,-100,4,1,1,60,0,1
128064,-100,4,1,1,60,0,1
128222,-100,4,1,1,5,0,1
128379,-100,4,1,1,60,0,1
128537,-100,4,1,1,5,0,1
128695,-100,4,1,1,60,0,1
128774,-100,4,1,1,60,0,0
128932,-100,4,1,1,5,0,0
129011,-100,4,1,1,60,0,1
131458,-100,4,1,1,5,0,1
131537,-100,4,1,1,60,0,1
133985,-100,4,1,1,5,0,1
134064,-100,4,1,1,60,0,1
137774,-100,4,2,1,5,0,1
137853,-100,4,1,1,40,0,1
138722,-100,4,1,1,40,0,0
138801,-100,4,1,1,60,0,1
142827,-100,4,1,1,5,0,1
142906,-100,4,1,1,60,0,1
145353,-100,4,1,1,5,0,1
145432,-100,4,1,1,60,0,1
147643,-100,4,1,1,60,0,0
147722,-100,4,1,1,5,0,0
148432,-100,4,1,1,60,0,0
148906,-100,4,1,1,60,0,1
148985,-100,4,1,1,60,0,0
150406,-100,4,1,1,5,0,0
150485,-100,4,1,1,60,0,0
151669,-100,4,1,1,5,0,0
151748,-100,4,1,1,60,0,0
154116,-100,4,1,1,5,0,0
154169,-100,4,1,1,60,0,0
155458,-100,4,1,1,5,0,0
155537,-100,4,1,1,60,0,0
157906,-100,4,1,1,5,0,0
157985,-100,4,1,1,60,0,0
163037,-100,4,1,1,5,0,0
163116,-100,4,1,1,60,0,0
174327,-100,4,1,1,60,0,1
175116,-100,4,1,1,60,0,1
175432,-100,4,1,1,60,0,1
175511,-100,4,1,1,60,0,0
175669,-100,4,1,1,5,0,0
175748,-100,4,1,1,60,0,1
178195,-100,4,1,1,5,0,1
178274,-100,4,1,1,60,0,1
180722,-100,4,2,1,5,0,1
180801,-100,4,1,1,60,0,1
184511,-100,4,1,1,5,0,1
184590,-100,4,1,1,40,0,1
185458,-100,4,1,1,40,0,0
185537,-100,4,1,1,60,0,1
189564,-100,4,1,1,5,0,1
189643,-100,4,1,1,60,0,1
192090,-100,4,1,1,5,0,1
192169,-100,4,1,1,60,0,1
194379,-100,4,1,1,60,0,0
194616,-100,4,1,1,5,0,0
194695,-100,4,1,1,60,0,0
195643,-100,4,1,1,60,0,1
195879,-100,4,1,1,5,0,1
195958,-100,4,1,1,60,0,1
198406,-100,4,1,1,5,0,1
198485,-100,4,1,1,60,0,1
200932,-100,4,1,1,5,0,1
201011,-100,4,1,1,60,0,1
204722,-100,4,1,1,5,0,1
204801,-100,4,1,1,40,0,1
205669,-100,4,1,1,41,0,0
205748,-100,4,1,1,60,0,1
209774,-100,4,1,1,5,0,1
209853,-100,4,1,1,60,0,1
212301,-100,4,1,1,5,0,1
212379,-100,4,1,1,60,0,1
214590,-100,4,1,1,60,0,0
214748,-100,4,1,1,5,0,0
215379,-100,4,1,1,60,0,0
215932,-100,4,1,1,40,0,0

[Colours]
Combo1 : 170,176,255
Combo2 : 255,223,239
Combo3 : 153,203,152
Combo4 : 255,91,173
Combo5 : 255,255,98
Combo6 : 198,0,198

[HitObjects]
68,94,3801,6,0,L|76:150,1,50,12|8,0:3|0:3,0:0:0:0:
119,150,4116,2,0,L|127:206,1,50,8|8,0:3|0:3,0:0:0:0:
169,211,4432,2,0,L|177:267,2,50,8|8|8,0:3|0:3|0:3,0:0:0:0:
211,195,4906,6,0,L|324:184,1,99.9999999999999,6|8,0:0|0:2,0:0:0:0:
355,189,5379,1,10,0:0:0:0:
440,218,5695,2,0,P|445:191|439:160,2,50,2|2|10,0:0|0:0|0:0,0:0:0:0:
429,262,6169,6,0,L|316:273,1,99.9999999999999,6|8,0:0|0:2,0:0:0:0:
285,268,6642,1,10,0:0:0:0:
200,239,6958,2,0,P|194:265|201:297,2,50,2|2|10,0:0|0:0|0:0,0:0:0:0:
231,206,7432,6,0,L|118:195,1,99.9999999999999,6|8,0:0|0:2,0:0:0:0:
87,200,7905,1,10,0:0:0:0:
2,229,8221,2,0,P|-3:202|3:171,2,50,2|2|10,0:0|0:0|0:0,0:0:0:0:
16,272,8695,6,0,L|129:283,1,99.9999999999999,6|8,0:0|0:2,0:0:0:0:
160,278,9168,1,8,0:0:0:0:
245,249,9485,2,0,P|250:275|244:307,2,50,2|2|10,0:0|0:0|0:0,0:0:0:0:
219,211,9958,6,0,L|332:200,1,99.9999999999999,6|8,0:0|0:2,0:0:0:0:
363,205,10431,1,10,0:0:0:0:
448,234,10748,2,0,P|453:207|447:176,2,50,2|2|10,0:0|0:0|0:0,0:0:0:0:
433,277,11222,6,0,B|335:290|335:290|278:266,1,150,6|8,0:0|0:0,0:0:0:0:
247,250,11853,2,0,L|237:305,1,50,2|2,0:0|0:0,0:0:0:0:
192,301,12169,2,0,L|183:350,1,50,2|10,0:0|0:0,0:0:0:0:
139,338,12485,2,0,P|90:324|38:337,1,99.9999999999999,6|8,0:0|0:2,0:0:0:0:
6,361,12958,5,8,0:0:0:0:
3,270,13274,1,8,0:0:0:0:
81,313,13590,1,8,0:0:0:0:
82,222,13906,1,8,0:0:0:0:
155,274,14222,1,8,0:0:0:0:
157,184,14537,2,0,L|229:176,1,50,8|8,0:0|0:2,0:0:0:0:
288,139,15011,6,0,L|282:250,1,99.9999999999999,6|8,0:0|0:2,0:0:0:0:
280,283,15484,1,10,0:0:0:0:
198,322,15800,2,0,P|192:348|199:380,2,50,2|2|10,0:0|0:0|0:0,0:0:0:0:
167,288,16274,6,0,L|161:177,1,99.9999999999999,6|8,0:0|0:2,0:0:0:0:
159,144,16747,1,10,0:0:0:0:
220,77,17063,2,0,P|226:51|219:19,2,50,2|2|10,0:0|0:0|0:0,0:0:0:0:
247,113,17537,6,0,L|358:119,1,99.9999999999999,6|8,0:0|0:2,0:0:0:0:
391,121,18010,1,10,0:0:0:0:
430,203,18327,2,0,P|456:209|488:202,2,50,2|2|10,0:0|0:0|0:0,0:0:0:0:
384,205,18800,6,0,L|273:211,1,99.9999999999999,6|8,0:0|0:2,0:0:0:0:
240,213,19273,1,10,0:0:0:0:
156,178,19590,2,0,P|130:172|98:179,2,50,2|2|10,0:0|0:0|0:0,0:0:0:0:
162,223,20064,6,0,L|168:334,1,99.9999999999999,6|8,0:0|0:2,0:0:0:0:
170,367,20537,1,10,0:0:0:0:
257,344,20853,2,0,P|283:338|315:345,2,50,2|2|10,0:0|0:0|0:0,0:0:0:0:
264,299,21327,6,0,B|277:201|277:201|253:144,1,150,6|8,0:0|0:0,0:0:0:0:
225,121,21958,2,0,L|170:111,1,50,2|2,0:0|0:0,0:0:0:0:
174,66,22274,2,0,L|125:57,1,50,2|10,0:0|0:0,0:0:0:0:
79,51,22590,2,0,P|65:100|78:152,1,99.9999999999999,6|8,0:0|0:2,0:0:0:0:
101,183,23063,5,8,0:0:0:0:
189,200,23379,1,8,0:0:0:0:
127,265,23695,1,8,0:0:0:0:
215,280,24011,1,8,0:0:0:0:
160,351,24327,1,8,0:0:0:0:
249,359,24643,2,0,L|321:351,1,50,8|8,0:0|0:2,0:0:0:0:
433,341,25274,5,4,0:1:0:0:
372,274,25590,2,0,P|355:228|370:161,1,99.9999999999999,8|8,0:0|0:0,0:0:0:0:
391,144,26064,1,2,0:0:0:0:
425,61,26379,2,0,B|358:33|350:96|278:69,1,150,2|8,0:0|0:0,0:0:0:0:
145,65,27327,6,0,L|131:10,2,50,2|8|2,0:0|0:0|0:0,0:0:0:0:
177,196,28116,2,0,P|224:179|290:187,1,99.9999999999999,8|8,0:0|0:0,0:0:0:0:
317,193,28590,1,2,0:0:0:0:
394,239,28906,6,0,L|384:348,1,99.9999999999999,2|0,0:0|0:0,0:0:0:0:
341,352,29379,2,0,P|287:341|232:354,1,99.9999999999999,8|8,0:0|0:0,0:0:0:0:
156,371,30011,1,8,0:0:0:0:
78,325,30327,6,0,P|60:241|87:165,1,150,10|0,0:0|0:0,0:0:0:0:
163,153,31116,1,2,0:0:0:0:
251,171,31432,2,0,P|364:168|220:88,1,450,2|10,0:0|0:0,0:0:0:0:
342,140,35379,5,4,0:1:0:0:
257,169,35695,2,0,L|272:281,1,99.9999999999999,8|8,0:0|0:0,0:0:0:0:
278,312,36169,1,2,0:0:0:0:
194,280,36484,2,0,P|105:257|38:284,1,150,2|8,0:0|0:0,0:0:0:0:
22,142,37432,6,0,L|14:76,2,50,2|8|2,0:0|0:0|0:0,0:0:0:0:
153,112,38221,2,0,P|200:93|262:102,1,99.9999999999999,8|8,0:0|0:0,0:0:0:0:
291,112,38695,1,2,0:0:0:0:
362,167,39011,6,0,P|379:218|373:269,1,99.9999999999999,2|0,0:0|0:0,0:0:0:0:
339,291,39485,2,0,L|235:302,1,99.9999999999999,8|8,0:0|0:0,0:0:0:0:
165,352,40116,1,8,0:0:0:0:
81,318,40432,6,0,P|64:254|98:177,1,150,10|0,0:0|0:0,0:0:0:0:
184,194,41222,1,2,0:0:0:0:
244,128,41537,2,0,P|356:116|227:248,1,450,2|10,0:0|0:0,0:0:0:0:
41,105,45485,6,0,L|25:40,2,50,12|8|8,0:2|0:2|0:0,0:0:0:0:
121,145,46116,2,0,L|137:210,2,50,8|8|8,0:2|0:0|0:2,0:0:0:0:
196,95,46748,2,0,P|222:88|252:91,1,50,8|8,0:0|0:2,0:0:0:0:
284,110,47064,2,0,P|308:110|332:104,1,50,8|8,0:2|0:0,0:0:0:0:
403,48,47537,2,0,L|418:114,1,50,8|8,0:0|0:2,0:0:0:0:
394,184,48011,6,0,L|410:249,2,50,6|8|8,0:2|0:2|0:0,0:0:0:0:
314,144,48642,2,0,L|298:79,2,50,8|8|8,0:2|0:0|0:2,0:0:0:0:
239,194,49274,2,0,P|213:201|183:198,1,50,8|8,0:0|0:2,0:0:0:0:
151,179,49590,2,0,P|126:178|102:184,1,50,8|8,0:2|0:0,0:0:0:0:
32,241,50064,2,0,L|17:183,1,50,8|8,0:0|0:2,0:0:0:0:
64,114,50537,6,0,L|48:49,2,50,6|8|8,0:2|0:2|0:0,0:0:0:0:
144,154,51169,2,0,L|160:219,2,50,8|8|8,0:2|0:0|0:2,0:0:0:0:
219,104,51800,2,0,P|245:97|275:100,1,50,8|8,0:0|0:2,0:0:0:0:
307,119,52116,2,0,P|331:119|355:113,1,50,8|8,0:2|0:0,0:0:0:0:
426,57,52590,2,0,L|441:123,1,50,8|8,0:0|0:2,0:0:0:0:
501,163,53064,6,0,P|448:230|442:105,1,300,6|0,0:0|0:0,0:0:0:0:
407,20,54327,6,0,P|383:25|355:45,2,50,6|8|8,0:0|0:3|0:3,0:0:0:0:
452,19,54801,1,6,0:0:0:0:
505,91,55116,1,6,0:0:0:0:
481,177,55432,1,6,0:0:0:0:
391,166,55748,6,0,L|376:223,1,50,0|10,0:0|0:0,0:0:0:0:
291,189,56222,2,0,L|276:246,1,50,8|2,0:2|0:0,0:0:0:0:
191,214,56695,2,0,L|176:271,1,50,8|2,0:2|0:0,0:0:0:0:
91,237,57169,2,0,L|76:294,1,50,8|2,0:0|0:0,0:0:0:0:
56,373,57643,1,8,0:2:0:0:
142,350,57958,6,0,P|202:336|257:353,1,99.9999999999999,6|8,0:0|0:2,0:0:0:0:
282,355,58432,1,8,0:0:0:0:
366,324,58748,2,0,L|372:211,1,99.9999999999999,8|8,0:0|0:0,0:0:0:0:
290,181,59379,2,0,L|284:280,1,99.9999999999999,8|8,0:0|0:0,0:0:0:0:
203,324,60011,2,0,P|208:354|204:386,2,50,8|8|8,0:0|0:0|0:0,0:0:0:0:
170,292,60485,1,14,0:0:0:0:
97,237,60801,6,0,L|87:181,1,50,0|10,0:0|0:0,0:0:0:0:
178,187,61274,2,0,L|168:131,1,50,8|2,0:2|0:0,0:0:0:0:
259,135,61748,2,0,L|249:79,1,50,8|2,0:2|0:0,0:0:0:0:
340,85,62221,2,0,L|330:29,1,50,8|2,0:0|0:0,0:0:0:0:
418,60,62695,1,8,0:2:0:0:
484,120,63011,6,0,P|495:164|478:222,1,99.9999999999999,6|0,0:0|0:0,0:0:0:0:
455,253,63485,1,8,0:0:0:0:
366,237,63801,2,0,L|312:237,1,50,14|8,0:0|0:2,0:0:0:0:
240,286,64274,1,6,0:0:0:0:
172,226,64590,6,0,L|159:176,2,50,8|8|8,0:0|0:0|0:0,0:0:0:0:
131,247,65064,2,0,L|144:297,2,50,8|8|8,0:0|0:0|0:0,0:0:0:0:
85,245,65537,6,0,B|54:138,1,99.9999999999999,6|0,0:0|0:2,0:0:0:0:
42,105,66011,1,8,0:0:0:0:
109,45,66327,2,0,P|138:36|174:41,1,50,2|2,0:0|0:0,0:0:0:0:
230,89,66801,2,0,P|298:109|386:85,1,150,6|8,0:0|0:0,0:0:0:0:
409,65,67432,2,0,L|412:7,2,50,2|0|0,0:0|0:0|0:0,0:0:0:0:
460,139,68064,6,0,L|451:261,1,99.9999999999999,6|0,0:0|0:0,0:0:0:0:
446,283,68537,1,8,0:0:0:0:
364,244,68853,2,0,P|338:239|312:243,1,50,2|2,0:0|0:0,0:0:0:0:
229,271,69327,1,6,0:0:0:0:
166,205,69643,5,2,0:0:0:0:
166,205,69801,2,0,L|156:134,2,50,10|2|2,0:0|0:0|0:0,0:0:0:0:
132,235,70274,2,0,L|140:298,1,50,2|10,0:0|0:0,0:0:0:0:
150,328,70590,6,0,P|195:342|257:327,1,99.9999999999999,6|0,0:0|0:0,0:0:0:0:
289,321,71064,1,8,0:0:0:0:
358,263,71379,2,0,P|385:253|426:255,1,50,2|2,0:0|0:0,0:0:0:0:
490,284,71853,6,0,L|474:176,1,99.9999999999999,6|8,0:0|0:0,0:0:0:0:
467,140,72327,1,8,0:2:0:0:
398,81,72643,2,0,P|343:73|286:85,1,99.9999999999999,2|8,0:0|0:0,0:0:0:0:
219,121,73274,5,12,0:0:0:0:
295,168,73590,1,8,0:0:0:0:
299,80,73906,1,8,0:0:0:0:
224,125,74222,1,8,0:0:0:0:
224,125,74379,6,0,P|142:152|67:120,1,150,6|0,0:0|0:0,0:0:0:0:
23,254,75327,5,10,0:2:0:0:
89,314,75643,2,0,P|151:342|234:298,1,150,6|10,0:0|0:0,0:0:0:0:
286,249,76432,2,0,P|338:231|402:242,1,99.9999999999999,8|8,0:2|0:0,0:0:0:0:
427,261,76906,1,2,0:0:0:0:
427,261,77064,6,0,L|422:316,2,50,10|8|8,0:0|0:0|0:0,0:0:0:0:
463,234,77537,1,8,0:2:0:0:
425,152,77853,1,8,0:0:0:0:
346,195,78169,6,0,L|246:204,1,99.9999999999999,6|8,0:0|0:2,0:0:0:0:
201,210,78642,1,10,0:0:0:0:
125,259,78958,2,0,L|106:202,2,50,2|2|10,0:0|0:0|0:0,0:0:0:0:
159,288,79432,6,0,L|258:297,1,99.9999999999999,6|8,0:0|0:2,0:0:0:0:
304,303,79905,1,10,0:0:0:0:
395,304,80221,2,0,L|380:352,2,50,2|2|10,0:0|0:0|0:0,0:0:0:0:
406,260,80695,6,0,L|306:250,1,99.9999999999999,6|8,0:0|0:2,0:0:0:0:
261,245,81168,1,10,0:0:0:0:
185,196,81485,2,0,L|166:253,2,50,2|2|10,0:0|0:0|0:0,0:0:0:0:
206,156,81958,6,0,L|305:165,1,99.9999999999999,6|8,0:0|0:2,0:0:0:0:
351,171,82431,1,8,0:0:0:0:
427,220,82748,2,0,L|446:163,2,50,2|2|10,0:0|0:0|0:0,0:0:0:0:
409,262,83222,6,0,L|309:271,1,99.9999999999999,6|8,0:0|0:2,0:0:0:0:
264,277,83695,1,10,0:0:0:0:
172,278,84011,2,0,L|188:326,2,50,2|2|10,0:0|0:0|0:0,0:0:0:0:
165,233,84485,6,0,B|111:261|65:254|65:254|31:218,1,150,6|8,0:0|0:0,0:0:0:0:
13,180,85116,2,0,L|23:127,1,50,2|2,0:0|0:0,0:0:0:0:
67,125,85432,2,0,L|77:72,1,50,2|10,0:0|0:0,0:0:0:0:
121,73,85748,2,0,P|170:87|222:74,1,99.9999999999999,6|8,0:0|0:2,0:0:0:0:
256,55,86221,5,8,0:0:0:0:
344,37,86537,1,8,0:0:0:0:
366,124,86853,1,8,0:0:0:0:
278,144,87169,1,8,0:0:0:0:
256,55,87485,1,8,0:0:0:0:
344,37,87800,2,0,L|416:29,1,50,8|8,0:0|0:2,0:0:0:0:
474,71,88274,6,0,P|464:113|468:182,1,99.9999999999999,6|8,0:0|0:2,0:0:0:0:
467,214,88747,1,10,0:0:0:0:
443,301,89063,2,0,P|469:307|501:300,2,50,2|2|10,0:0|0:0|0:0,0:0:0:0:
401,282,89537,6,0,P|358:272|290:276,1,99.9999999999999,6|8,0:0|0:2,0:0:0:0:
258,275,90010,1,10,0:0:0:0:
171,251,90327,2,0,P|165:277|172:309,2,50,2|2|10,0:0|0:0|0:0,0:0:0:0:
216,247,90801,6,0,P|225:204|222:136,1,99.9999999999999,6|8,0:0|0:2,0:0:0:0:
223,104,91274,1,10,0:0:0:0:
247,17,91590,2,0,P|221:11|189:18,2,50,2|2|10,0:0|0:0|0:0,0:0:0:0:
275,51,92064,6,0,P|317:60|386:57,1,99.9999999999999,6|8,0:0|0:2,0:0:0:0:
418,58,92537,1,8,0:0:0:0:
505,82,92853,2,0,P|511:56|504:24,2,50,2|2|10,0:0|0:0|0:0,0:0:0:0:
476,117,93327,6,0,P|466:159|470:228,1,99.9999999999999,6|8,0:0|0:2,0:0:0:0:
469,260,93800,1,10,0:0:0:0:
445,347,94116,2,0,P|471:353|503:346,2,50,2|2|10,0:0|0:0|0:0,0:0:0:0:
407,320,94590,6,0,B|309:307|309:307|252:331,1,150,6|8,0:0|0:0,0:0:0:0:
219,341,95221,2,0,L|203:287,1,50,2|2,0:0|0:0,0:0:0:0:
160,304,95537,2,0,L|144:250,1,50,2|10,0:0|0:0,0:0:0:0:
138,211,95853,2,0,P|187:213|243:192,1,99.9999999999999,6|8,0:0|0:2,0:0:0:0:
273,173,96326,5,8,0:0:0:0:
360,192,96642,1,8,0:0:0:0:
303,262,96958,1,8,0:0:0:0:
273,173,97274,1,8,0:0:0:0:
333,106,97590,1,8,0:0:0:0:
360,192,97906,2,0,L|432:184,1,50,8|8,0:0|0:2,0:0:0:0:
41,61,108642,5,4,0:0:0:0:
114,113,108958,2,0,P|129:155|129:225,1,99.9999999999999,12|2,0:0|0:2,0:0:0:0:
126,254,109432,1,2,0:2:0:0:
210,224,109748,2,0,P|299:201|366:228,1,150,2|8,0:2|0:0,0:0:0:0:
479,263,110695,6,0,L|485:312,2,50,2|8|2,0:2|0:0|0:2,0:0:0:0:
411,145,111485,2,0,L|402:77,1,50,8|2,0:0|0:2,0:0:0:0:
359,88,111801,2,0,L|327:41,1,50,2|2,0:2|0:2,0:0:0:0:
262,105,112274,6,0,P|211:122|160:116,1,99.9999999999999,2|0,0:2|0:0,0:0:0:0:
123,100,112748,2,0,L|134:204,1,99.9999999999999,8|2,0:0|0:2,0:0:0:0:
144,288,113379,1,8,0:0:0:0:
224,328,113695,6,0,P|288:345|365:311,1,150,10|0,0:2|0:0,0:0:0:0:
426,249,114485,2,0,L|426:188,1,50,2|8,0:2|0:0,0:0:0:0:
425,153,114801,2,0,B|312:67|225:170|225:170|124:281|25:148,1,450,2|8,0:2|0:0,0:0:0:0:
78,84,116537,6,0,B|126:70|126:70|184:81,2,99.9999999999999,8|8|8,0:0|0:0|0:0,0:0:0:0:
38,165,117485,2,0,P|27:216|46:266,1,99.9999999999999,0|8,0:0|0:3,0:0:0:0:
83,277,117958,2,0,L|-13:330,2,99.9999999999999,8|8|8,0:0|0:3|0:3,0:0:0:0:
122,298,118748,6,0,P|115:324|123:352,2,50,6|2|6,0:0|0:0|0:0,0:0:0:0:
187,236,119379,1,0,2:0:0:0:
187,236,119537,2,0,L|290:234,1,99.9999999999999,8|8,0:0|2:0,0:0:0:0:
366,277,120169,2,0,L|387:209,1,50,8|8,2:0|0:0,0:0:0:0:
322,159,120643,2,0,L|343:91,2,50,8|8|8,2:0|2:2|0:0,0:0:0:0:
232,170,121274,6,0,P|201:165|167:174,2,50,6|6|6,0:0|0:0|0:0,0:0:0:0:
290,238,121906,1,0,2:0:0:0:
290,238,122064,2,0,B|285:343,1,99.9999999999999,8|8,2:0|2:0,0:0:0:0:
240,344,122537,2,0,B|208:326|208:326|190:350|190:350|169:326|169:326|146:351|146:351|124:326|124:326|104:350|104:350|86:326|86:326|66:351|66:351|24:326,1,300,8|8,0:0|0:3,0:0:0:0:
26,240,123800,6,0,L|10:175,2,50,6|2|6,0:0|0:0|0:0,0:0:0:0:
110,207,124432,1,0,2:0:0:0:
110,207,124590,2,0,P|157:194|223:205,1,99.9999999999999,8|8,2:0|2:0,0:0:0:0:
251,206,125064,2,0,L|240:269,1,50,12|8,0:0|2:0,0:0:0:0:
281,278,125379,2,0,L|270:341,1,50,8|8,2:0|0:3,0:0:0:0:
353,367,125853,2,0,L|361:317,1,50,8|8,0:3|0:2,0:0:0:0:
363,227,126327,6,0,P|301:150|295:280,1,300,6|0,0:0|0:0,0:0:0:0:
357,324,127590,6,0,L|345:372,2,50,6|10|10,0:0|0:3|0:3,0:0:0:0:
368,280,128064,1,6,0:0:0:0:
455,258,128379,1,6,0:0:0:0:
393,192,128695,1,6,0:0:0:0:
368,280,129011,6,0,L|353:337,1,50,8|10,0:2|0:0,0:0:0:0:
266,344,129485,2,0,L|278:295,1,50,8|2,0:2|0:0,0:0:0:0:
204,244,129958,2,0,L|189:301,1,50,8|2,0:2|0:0,0:0:0:0:
102,308,130432,2,0,L|114:259,1,50,8|2,0:0|0:0,0:0:0:0:
140,172,130906,1,8,0:2:0:0:
206,112,131221,6,0,P|266:98|321:115,1,99.9999999999999,6|8,0:0|0:2,0:0:0:0:
344,123,131695,1,8,0:0:0:0:
418,174,132011,2,0,P|427:222|412:273,1,99.9999999999999,8|8,0:0|0:0,0:0:0:0:
338,318,132643,2,0,P|328:269|343:218,1,99.9999999999999,8|8,0:0|0:0,0:0:0:0:
418,174,133274,2,0,L|475:178,2,50,8|8|8,0:0|0:2|0:0,0:0:0:0:
380,149,133748,1,6,0:0:0:0:
290,135,134064,6,0,L|300:191,1,50,8|10,0:2|0:0,0:0:0:0:
209,185,134537,2,0,L|219:241,1,50,8|2,0:2|0:0,0:0:0:0:
128,237,135011,2,0,L|138:293,1,50,8|2,0:2|0:0,0:0:0:0:
47,287,135485,2,0,L|57:343,1,50,8|2,0:0|0:0,0:0:0:0:
138,373,135958,1,8,0:2:0:0:
214,326,136274,6,0,P|258:315|316:332,1,99.9999999999999,6|8,0:0|0:2,0:0:0:0:
353,339,136748,1,8,0:0:0:0:
432,297,137064,2,0,P|433:271|427:239,1,50,12|8,0:0|0:2,0:0:0:0:
379,172,137537,1,6,0:0:0:0:
305,119,137853,6,0,L|256:111,2,50,8|8|8,0:0|0:0|0:0,0:0:0:0:
278,155,138327,2,0,L|229:147,2,50,8|8|8,0:0|0:0|0:0,0:0:0:0:
249,189,138800,6,0,P|233:236|246:295,1,99.9999999999999,6|0,0:0|0:2,0:0:0:0:
274,316,139274,1,8,0:0:0:0:
359,344,139590,2,0,L|424:340,1,50,2|2,0:0|0:0,0:0:0:0:
474,278,140064,2,0,P|494:210|470:122,1,150,6|8,0:0|0:0,0:0:0:0:
444,103,140695,2,0,L|495:88,2,50,2|0|0,0:0|0:0|0:0,0:0:0:0:
368,152,141327,6,0,P|318:164|266:155,1,99.9999999999999,6|0,0:0|0:0,0:0:0:0:
230,136,141800,1,8,0:0:0:0:
147,171,142116,2,0,L|152:224,1,50,2|2,0:0|0:0,0:0:0:0:
164,310,142590,1,6,0:0:0:0:
252,293,142906,5,2,0:0:0:0:
252,293,143064,2,0,L|323:303,2,50,10|2|2,0:0|0:0|0:0,0:0:0:0:
253,248,143537,2,0,L|203:241,1,50,2|10,0:0|0:0,0:0:0:0:
158,233,143853,6,0,P|172:188|157:126,1,99.9999999999999,6|0,0:0|0:0,0:0:0:0:
133,102,144327,1,8,0:0:0:0:
207,51,144643,2,0,L|275:43,1,50,2|2,0:0|0:0,0:0:0:0:
346,39,145116,6,0,L|333:146,1,99.9999999999999,6|8,0:0|0:0,0:0:0:0:
327,183,145590,1,8,0:2:0:0:
277,258,145906,2,0,P|222:266|165:254,1,99.9999999999999,2|8,0:0|0:0,0:0:0:0:
99,215,146537,5,12,0:0:0:0:
107,304,146853,1,8,0:0:0:0:
23,271,147169,1,8,0:0:0:0:
102,220,147485,1,8,0:0:0:0:
102,220,147643,6,0,P|132:123|31:172,1,250,6|8,0:0|0:0,0:0:0:0:
0,234,148748,1,8,0:0:0:0:
0,234,148906,6,0,L|28:382,1,150,6|8,0:0|0:0,0:0:0:0:
114,360,149695,2,0,L|105:311,2,50,2|2|8,0:0|0:0|0:0,0:0:0:0:
159,367,150169,2,0,P|208:367|272:347,1,99.9999999999999,6|2,0:0|0:0,0:0:0:0:
301,340,150643,1,10,0:0:0:0:
383,300,150958,6,4,P|389:331|387:362,2,50,2|2|10,0:0|0:0|0:0,0:0:0:0:
360,259,151432,2,0,B|239:256,1,99.9999999999999,6|2,0:0|0:0,0:0:0:0:
215,247,151906,1,10,0:0:0:0:
126,232,152222,2,0,P|120:256|137:290,2,50,2|2|10,0:0|0:0|0:0,0:0:0:0:
149,193,152695,1,6,0:0:0:0:
231,157,153011,6,0,L|351:150,1,99.9999999999999,2|2,0:0|0:0,0:0:0:0:
373,166,153485,2,0,L|361:225,2,50,2|2|10,0:0|0:0|0:0,0:0:0:0:
415,152,153958,2,0,P|434:92|405:10,1,150,6|10,0:0|0:0,0:0:0:0:
317,23,154748,6,0,L|255:30,2,50,2|2|8,0:0|0:0|0:0,0:0:0:0:
309,67,155222,2,0,P|296:139|332:219,1,150,6|10,0:0|0:0,0:0:0:0:
380,277,156011,6,0,L|317:294,1,50,2|2,0:0|0:0,0:0:0:0:
288,303,156327,2,0,L|225:320,1,50,10|2,0:0|0:0,0:0:0:0:
196,327,156643,2,0,P|173:282|177:222,1,99.9999999999999,2|10,0:0|0:0,0:0:0:0:
219,156,157274,6,0,L|289:157,2,50,2|2|10,0:0|0:0|0:0,0:0:0:0:
189,121,157748,2,0,P|136:111|72:122,1,99.9999999999999,6|10,0:0|0:0,0:0:0:0:
57,147,158222,2,0,L|83:254,2,99.9999999999999,10|10|10,0:0|0:0|0:0,0:0:0:0:
46,103,159011,1,6,0:0:0:0:
92,25,159327,5,2,0:0:0:0:
92,25,159485,2,0,P|143:38|199:29,1,99.9999999999999,14|2,0:0|0:0,0:0:0:0:
234,31,159958,1,0,0:0:0:0:
234,31,160116,2,0,L|227:84,1,50,10|0,0:0|0:0,0:0:0:0:
269,96,160432,2,0,L|262:149,1,50,2|0,0:0|0:0,0:0:0:0:
265,190,160748,2,0,P|322:182|367:199,2,99.9999999999999,10|2|10,0:0|0:0|0:0,0:0:0:0:
186,234,161695,6,0,P|137:247|71:234,1,99.9999999999999,2|10,0:0|0:0,0:0:0:0:
57,208,162169,2,0,L|48:143,1,50,2|2,0:0|0:0,0:0:0:0:
43,68,162643,1,10,0:0:0:0:
43,68,162801,6,0,P|94:73|142:44,1,99.9999999999999,6|2,0:0|0:0,0:0:0:0:
177,32,163274,2,0,L|214:141,1,99.9999999999999,10|2,0:0|0:0,0:0:0:0:
225,169,163748,1,2,0:0:0:0:
259,252,164064,6,0,B|314:266|314:266|402:238,1,150,6|8,0:0|0:0,0:0:0:0:
488,210,164853,2,0,L|488:273,2,50,10|2|2,0:0|0:0|0:0,0:0:0:0:
469,121,165485,2,0,P|438:113|407:116,1,50,2|2,0:0|0:0,0:0:0:0:
375,123,165801,2,0,P|350:122|326:115,1,50,10|2,0:0|0:0,0:0:0:0:
284,97,166116,2,0,L|289:204,1,99.9999999999999,10|10,0:0|0:0,0:0:0:0:
284,287,166748,5,10,0:0:0:0:
367,321,167064,1,10,0:0:0:0:
358,231,167379,1,10,0:0:0:0:
441,265,167695,1,10,0:0:0:0:
480,184,168011,6,0,L|484:131,1,50,10|0,0:0|0:0,0:0:0:0:
438,138,168327,2,0,L|427:80,1,50,8|0,0:0|0:0,0:0:0:0:
388,109,168643,2,0,L|356:56,1,50,10|0,0:0|0:0,0:0:0:0:
334,101,168958,2,0,L|281:72,1,50,8|0,0:0|0:0,0:0:0:0:
273,119,169274,2,0,L|216:121,2,50,10|0|10,0:0|0:0|0:0,0:0:0:0:
317,197,169906,6,0,P|321:226|313:255,2,50,10|2|10,0:0|0:0|0:0,0:0:0:0:
231,226,170537,2,0,P|220:254|198:277,2,50,10|2|10,0:0|0:0|0:0,0:0:0:0:
144,200,171169,2,0,P|130:219|102:233,2,50,10|2|10,0:0|0:0|0:0,0:0:0:0:
205,133,171801,6,0,L|320:118,1,99.9999999999999,14|8,0:0|0:0,0:0:0:0:
349,116,172274,1,0,0:0:0:0:
349,116,172432,2,0,L|345:170,1,50,10|0,0:0|0:0,0:0:0:0:
386,185,172748,2,0,L|382:239,1,50,8|0,0:0|0:0,0:0:0:0:
374,279,173064,6,0,P|330:270|260:285,1,99.9999999999999,14|8,0:0|0:0,0:0:0:0:
232,291,173537,2,0,L|223:235,1,50,6|8,0:0|0:0,0:0:0:0:
211,197,173853,2,0,P|167:188|97:203,1,99.9999999999999,6|0,0:0|0:0,0:0:0:0:
68,205,174327,6,0,L|79:261,2,50,14|10|10,0:3|0:3|0:3,0:0:0:0:
56,161,174801,1,6,0:0:0:0:
123,101,175116,1,6,0:0:0:0:
36,74,175432,1,6,0:0:0:0:
56,161,175748,6,0,L|71:218,1,50,8|10,0:2|0:0,0:0:0:0:
156,184,176222,2,0,L|171:241,1,50,8|2,0:2|0:0,0:0:0:0:
256,209,176695,2,0,L|271:266,1,50,8|2,0:2|0:0,0:0:0:0:
356,232,177169,2,0,L|371:289,1,50,8|2,0:0|0:0,0:0:0:0:
391,368,177643,1,8,0:2:0:0:
302,352,177958,6,0,P|242:338|187:355,1,99.9999999999999,6|8,0:0|0:2,0:0:0:0:
161,356,178432,1,8,0:0:0:0:
85,306,178748,2,0,P|73:258|91:193,1,99.9999999999999,8|8,0:0|0:0,0:0:0:0:
155,156,179379,2,0,L|262:150,1,99.9999999999999,8|8,0:0|0:0,0:0:0:0:
340,122,180011,2,0,P|345:152|341:184,2,50,8|8|8,0:0|0:2|0:0,0:0:0:0:
310,87,180485,1,6,0:0:0:0:
254,150,180801,6,0,L|264:206,1,50,8|10,0:2|0:0,0:0:0:0:
174,184,181274,2,0,L|184:240,1,50,8|2,0:2|0:0,0:0:0:0:
93,216,181748,2,0,L|103:272,1,50,8|2,0:2|0:0,0:0:0:0:
12,253,182221,2,0,L|22:309,1,50,8|2,0:0|0:0,0:0:0:0:
92,357,182695,1,8,0:2:0:0:
174,320,183011,6,0,P|218:309|276:326,1,99.9999999999999,6|0,0:0|0:0,0:0:0:0:
312,336,183485,1,8,0:0:0:0:
377,274,183801,2,0,L|360:205,1,50,12|8,0:0|0:2,0:0:0:0:
340,138,184274,1,6,0:0:0:0:
277,203,184590,6,0,L|223:209,2,50,8|8|8,0:0|0:0|0:0,0:0:0:0:
258,244,185064,2,0,L|204:250,2,50,8|8|8,0:0|0:0|0:0,0:0:0:0:
248,287,185537,6,0,B|358:276,1,99.9999999999999,6|0,0:0|0:0,0:0:0:0:
392,275,186011,1,8,0:0:0:0:
466,224,186327,2,0,P|475:195|470:159,1,50,2|2,0:0|0:0,0:0:0:0:
410,112,186801,2,0,P|342:92|254:116,1,150,6|8,0:0|0:0,0:0:0:0:
221,111,187432,2,0,L|224:53,2,50,2|0|0,0:0|0:0|0:0,0:0:0:0:
137,144,188064,6,0,L|128:266,1,99.9999999999999,6|0,0:0|0:0,0:0:0:0:
126,288,188537,1,8,0:0:0:0:
201,336,188853,2,0,P|227:341|253:337,1,50,2|2,0:0|0:0,0:0:0:0:
336,309,189327,1,6,0:0:0:0:
409,256,189643,5,2,0:0:0:0:
409,256,189801,2,0,L|419:185,2,50,10|2|2,0:0|0:0|0:0,0:0:0:0:
371,231,190274,2,0,L|377:181,1,50,2|10,0:0|0:0,0:0:0:0:
334,197,190590,6,0,P|289:183|227:198,1,99.9999999999999,6|0,0:0|0:0,0:0:0:0:
195,204,191064,1,8,0:0:0:0:
115,244,191379,2,0,L|113:313,1,50,2|2,0:0|0:0,0:0:0:0:
179,356,191853,6,0,P|228:363|294:341,1,99.9999999999999,6|8,0:0|0:0,0:0:0:0:
318,335,192327,1,8,0:0:0:0:
375,265,192643,2,0,P|383:210|371:153,1,99.9999999999999,2|8,0:0|0:0,0:0:0:0:
326,91,193274,5,8,0:0:0:0:
288,172,193590,1,8,0:0:0:0:
375,166,193906,1,8,0:0:0:0:
330,96,194222,1,8,0:0:0:0:
330,96,194379,6,0,L|268:91,1,50,6|0,0:0|0:0,0:0:0:0:
235,88,194695,2,0,P|247:45|239:13,2,74.9999999999999,8|8|8,0:2|0:2|0:2,0:0:0:0:
196,111,195327,2,0,L|131:108,1,50,8|8,0:2|0:2,0:0:0:0:
100,106,195643,1,6,0:0:0:0:
55,183,195958,6,0,L|70:240,1,50,8|10,0:2|0:0,0:0:0:0:
157,247,196432,2,0,L|145:198,1,50,8|2,0:2|0:0,0:0:0:0:
219,147,196906,2,0,L|234:204,1,50,8|2,0:2|0:0,0:0:0:0:
321,211,197379,2,0,L|309:162,1,50,8|2,0:0|0:0,0:0:0:0:
283,75,197853,1,8,0:2:0:0:
368,102,198169,6,0,P|428:116|483:99,1,99.9999999999999,6|8,0:0|0:2,0:0:0:0:
506,91,198642,1,8,0:0:0:0:
499,180,198958,2,0,L|493:279,1,99.9999999999999,8|8,0:0|0:0,0:0:0:0:
405,304,199590,2,0,P|356:294|305:309,1,99.9999999999999,8|8,0:0|0:0,0:0:0:0:
219,320,200221,2,0,L|232:381,2,50,8|8|8,0:0|0:2|0:0,0:0:0:0:
209,275,200695,1,6,0:0:0:0:
243,191,201011,6,0,L|305:200,1,50,8|10,0:2|0:0,0:0:0:0:
332,117,201485,2,0,L|394:126,1,50,8|2,0:2|0:0,0:0:0:0:
430,199,201958,2,0,L|368:208,1,50,8|2,0:2|0:0,0:0:0:0:
384,296,202432,2,0,L|322:305,1,50,8|2,0:0|0:0,0:0:0:0:
245,319,202905,1,8,0:2:0:0:
165,276,203221,6,0,P|154:232|171:174,1,99.9999999999999,6|0,0:0|0:0,0:0:0:0:
178,137,203695,1,8,0:0:0:0:
265,156,204011,2,0,P|291:157|323:151,1,50,8|8,0:0|0:2,0:0:0:0:
390,103,204484,1,6,0:0:0:0:
466,150,204800,6,0,L|480:209,2,50,8|8|8,0:0|0:0|0:0,0:0:0:0:
434,182,205274,2,0,L|448:241,2,50,8|8|8,0:0|0:0|0:0,0:0:0:0:
397,207,205748,6,0,P|350:223|291:210,1,99.9999999999999,6|0,0:0|0:0,0:0:0:0:
257,203,206221,1,8,0:0:0:0:
166,204,206537,2,0,L|185:267,1,50,2|2,0:0|0:0,0:0:0:0:
220,333,207011,2,0,P|288:353|376:329,1,150,6|8,0:0|0:0,0:0:0:0:
405,320,207642,2,0,L|423:373,2,50,2|0|0,0:0|0:0|0:0,0:0:0:0:
373,235,208274,6,0,P|361:185|370:133,1,99.9999999999999,6|0,0:0|0:0,0:0:0:0:
389,97,208747,1,0,0:0:0:0:
311,51,209064,2,0,L|242:63,1,50,0|2,0:0|0:0,0:0:0:0:
172,76,209537,1,6,0:0:0:0:
133,157,209853,5,2,0:0:0:0:
133,157,210011,2,0,L|67:160,2,50,10|2|2,0:0|0:0|0:0,0:0:0:0:
160,192,210485,2,0,L|210:189,1,50,2|10,0:0|0:0,0:0:0:0:
255,191,210800,6,0,P|241:236|256:298,1,99.9999999999999,6|0,0:0|0:0,0:0:0:0:
280,322,211274,1,8,0:0:0:0:
366,344,211590,2,0,L|434:336,1,50,2|2,0:0|0:0,0:0:0:0:
478,273,212063,6,0,P|489:222|475:172,1,99.9999999999999,6|8,0:0|0:0,0:0:0:0:
452,138,212537,1,8,0:0:0:0:
363,154,212853,2,0,P|308:162|251:150,1,99.9999999999999,2|8,0:0|0:0,0:0:0:0:
185,111,213484,5,8,0:0:0:0:
188,200,213800,1,8,0:0:0:0:
264,154,214116,1,8,0:0:0:0:
189,117,214432,1,8,0:0:0:0:
189,117,214590,6,0,P|92:87|106:199,1,250,6|8,0:0|0:0,0:0:0:0:
136,224,215537,2,0,L|200:221,1,50,8|8,0:2|0:0,0:0:0:0:
231,220,215853,1,6,0:0:0:0:
256,192,215932,12,2,218379,0:0:0:0:
