osu file format v14

[General]
AudioFilename: audio.mp3
AudioLeadIn: 0
PreviewTime: 44064
Countdown: 0
SampleSet: Soft
StackLeniency: 0.7
Mode: 0
LetterboxInBreaks: 0
WidescreenStoryboard: 0

[Editor]
DistanceSpacing: 0.9
BeatDivisor: 4
GridSize: 16
TimelineZoom: 1.3

[Metadata]
Title:Tokoyami no Keiyaku KEGARETA-SHOUJO feat. GUMI (Short Ver.)
TitleUnicode:Tokoyami no Keiyaku KEGARETA-SHOUJO feat. GUMI (Short Ver.)
Artist:Trial & Error
ArtistUnicode:Trial & Error
Creator:Cipa
Version:Extreme
Source:
Tags:Trial & Error Tokoyami no Keiyaku KEGARETA-SHOUJO feat. GUMI (Short Ver.) GUMI Trial&Error
BeatmapID:1979039
BeatmapSetID:947544

[Difficulty]
HPDrainRate:5.5
CircleSize:4.4
OverallDifficulty:8.5
ApproachRate:9.3
SliderMultiplier:1.9
SliderTickRate:2

[Events]
//Background and Video events
0,0,"mumei_by_wlop_da1d0b7-pre.jpg",0,0
//Break Periods
//Storyboard Layer 0 (Background)
//Storyboard Layer 1 (Fail)
//Storyboard Layer 2 (Pass)
//Storyboard Layer 3 (Foreground)
//Storyboard Sound Samples

[TimingPoints]
3801,315.789473684211,4,2,2,100,1,0
4274,-133.333333333333,4,2,2,100,0,0
4906,-90.9090909090909,4,2,2,100,0,0
9090,-90.9090909090909,4,2,2,100,0,0
12958,-90.9090909090909,4,2,2,100,0,1
14695,-90.9090909090909,4,2,2,100,0,0
15169,-153.846153846154,4,2,2,100,0,0
19274,-142.857142857143,4,2,2,100,0,0
20222,-153.846153846154,4,2,2,100,0,0
35379,-111.111111111111,4,2,2,100,0,0
42958,-166.666666666667,4,2,2,100,0,0
44695,-100,4,2,2,100,0,0
45327,-80,4,2,2,100,0,1
64274,-200,4,2,2,100,0,1
65222,-90.9090909090909,4,2,2,100,0,0
76116,-90.9090909090909,4,2,2,100,0,1
78327,-90.9090909090909,4,2,2,100,0,0

[Colours]
Combo1 : 128,128,128
Combo2 : 64,0,0
Combo3 : 159,80,0
Combo4 : 242,24,57

[HitObjects]
128,96,3801,5,2,0:0:0:0:
320,256,3958,1,2,0:0:0:0:
144,144,4116,1,2,0:0:0:0:
304,48,4274,2,0,B|352:64|352:64|368:64|368:80|368:80|384:80|384:96|384:96|448:112,1,142.500005435944,10|2,0:0|0:0,0:0:0:0:
304,208,4748,1,2,0:0:0:0:
364,341,4906,6,0,B|317:283|317:283|209:307|209:307|158:257|158:257,1,209.000006378174,10|2,0:0|0:0,0:0:0:0:
80,176,5379,2,0,P|144:192|192:192,1,104.500003189087,2|2,0:0|0:0,0:0:0:0:
176,16,5695,1,2,0:0:0:0:
224,208,5853,1,2,0:0:0:0:
320,32,6011,1,2,0:0:0:0:
208,144,6169,6,0,L|419:143,1,209.000006378174,10|2,0:0|0:0,0:0:0:0:
336,352,6643,2,0,B|368:320|368:320|384:256,1,104.500003189087,2|2,0:0|0:0,0:0:0:0:
336,80,6958,1,2,0:0:0:0:
224,224,7116,1,2,0:0:0:0:
416,208,7274,1,2,0:0:0:0:
192,240,7432,2,0,B|192:149|192:149|176:117|176:117|176:27,1,209.000006378174,10|2,0:0|0:0,0:0:0:0:
304,336,7906,2,0,P|256:320|208:272,1,104.500003189087,2|2,0:0|0:0,0:0:0:0:
128,352,8222,5,2,0:0:0:0:
368,336,8379,1,2,0:0:0:0:
112,368,8537,1,2,0:0:0:0:
400,320,8695,2,0,L|398:105,1,209.000006378174,10|2,0:0|0:0,0:0:0:0:
400,96,9090,1,4,0:0:0:0:
400,96,9169,1,6,0:0:0:0:
224,176,9327,6,0,L|224:48,1,104.500003189087,6|4,0:0|0:0,0:0:0:0:
432,112,9643,2,0,L|432:224,1,104.500003189087,6|4,0:0|0:0,0:0:0:0:
224,288,9958,2,0,B|224:256|224:256|256:144|256:144|240:80,1,209.000006378174,12|2,0:0|0:0,0:0:0:0:
96,16,10432,2,0,B|80:32|80:32|80:128,1,104.500003189087,2|2,0:0|0:0,0:0:0:0:
176,272,10748,1,2,0:0:0:0:
256,112,10906,1,2,0:0:0:0:
240,320,11064,1,2,0:0:0:0:
144,144,11222,2,0,P|192:112|336:176,1,209.000006378174,10|2,0:0|0:0,0:0:0:0:
192,288,11695,5,2,0:0:0:0:
368,320,11853,2,0,L|384:208,1,104.500003189087,2|2,0:0|0:0,0:0:0:0:
192,224,12169,2,0,L|176:112,1,104.500003189087,2|2,0:0|0:0,0:0:0:0:
368,48,12485,2,0,B|368:112|368:112|416:160|384:256,1,209.000006378174,10|2,0:0|0:0,0:0:0:0:
192,368,12958,5,10,0:0:0:0:
240,48,13116,1,2,0:0:0:0:
320,368,13274,5,10,0:0:0:0:
272,48,13432,1,2,0:0:0:0:
48,256,13590,5,10,0:0:0:0:
432,208,13748,1,2,0:0:0:0:
48,128,13906,5,10,0:0:0:0:
432,160,14064,1,2,0:0:0:0:
208,304,14222,5,10,0:0:0:0:
272,80,14379,1,2,0:0:0:0:
304,352,14537,5,10,0:0:0:0:
192,32,14695,1,12,0:0:0:0:
304,352,15169,6,0,P|288:336|272:288,1,61.7499971733095,2|2,0:0|0:0,0:0:0:0:
352,208,15485,2,0,P|368:176|368:128,1,61.7499971733095,2|2,0:0|0:0,0:0:0:0:
176,176,15801,1,2,0:0:0:0:
256,32,15958,2,0,L|192:32,1,61.7499971733095,2|2,0:0|0:0,0:0:0:0:
320,240,16274,2,0,B|320:160|320:160|288:128,1,123.499994346619,2|2,0:0|0:0,0:0:0:0:
289,129,16748,1,2,0:0:0:0:
176,272,16906,6,0,P|144:256|96:256,1,61.7499971733095,2|2,0:0|0:0,0:0:0:0:
192,160,17222,1,2,0:0:0:0:
192,320,17379,1,2,0:0:0:0:
224,128,17537,2,0,P|240:160|240:208,2,61.7499971733095,2|2|2,0:0|0:0|0:0,0:0:0:0:
352,320,18011,6,0,B|384:304|384:304|400:224,1,92.6249957599642,2|2,0:0|0:0,0:0:0:0:
400,208,18327,1,2,0:0:0:0:
192,304,18485,2,0,L|176:240,1,61.7499971733095,2|2,0:0|0:0,0:0:0:0:
336,128,18801,2,0,P|272:96|208:112,1,123.499994346619,2|2,0:0|0:0,0:0:0:0:
144,336,19274,6,0,L|144:192,2,132.999995941162,2|2|2,0:0|0:0|0:0,0:0:0:0:
352,368,20064,1,2,0:0:0:0:
144,304,20222,6,0,B|160:288|160:288|176:224,1,61.7499971733095,2|2,0:0|0:0,0:0:0:0:
368,272,20537,2,0,B|352:256|352:256|336:208,1,61.7499971733095,2|2,0:0|0:0,0:0:0:0:
176,144,20853,1,2,0:0:0:0:
320,48,21011,2,0,B|304:64|304:64|320:128,1,61.7499971733095,2|2,0:0|0:0,0:0:0:0:
432,144,21327,2,0,B|432:208|432:208|368:256,1,123.499994346619,2|2,0:0|0:0,0:0:0:0:
192,192,21801,6,0,L|176:256,1,61.7499971733095,2|2,0:0|0:0,0:0:0:0:
352,160,22116,2,0,L|368:240,1,61.7499971733095,2|2,0:0|0:0,0:0:0:0:
144,96,22432,2,0,L|128:160,1,61.7499971733095,2|2,0:0|0:0,0:0:0:0:
224,336,22748,6,0,L|224:224,1,92.6249957599642,10|2,0:0|0:0,0:0:0:0:
272,192,23064,2,0,B|288:208|288:208|304:256,1,61.7499971733095,2|2,0:0|0:0,0:0:0:0:
96,224,23379,2,0,B|80:240|80:240|64:304,1,61.7499971733095,2|2,0:0|0:0,0:0:0:0:
304,352,23695,2,0,B|320:336|320:336|336:272,1,61.7499971733095,2|2,0:0|0:0,0:0:0:0:
416,128,24011,5,6,0:0:0:0:
416,128,24090,1,6,0:0:0:0:
416,128,24169,1,2,0:0:0:0:
400,288,24327,6,0,B|368:272|368:272|336:240,1,61.7499971733095,2|2,0:0|0:0,0:0:0:0:
256,80,24643,2,0,B|240:112|240:112|240:160,1,61.7499971733095,2|2,0:0|0:0,0:0:0:0:
176,352,24958,2,0,B|160:320|160:320|160:272,1,61.7499971733095,2|2,0:0|0:0,0:0:0:0:
96,48,25274,6,0,B|96:96|128:64|112:144,1,92.6249957599642,10|2,0:0|0:0,0:0:0:0:
32,208,25590,2,0,L|32:144,1,61.7499971733095,2|2,0:0|0:0,0:0:0:0:
176,176,25906,1,2,0:0:0:0:
240,32,26064,2,0,L|160:32,1,61.7499971733095,2|2,0:0|0:0,0:0:0:0:
224,256,26379,2,0,B|240:224|240:224|208:128,1,123.499994346619,2|2,0:0|0:0,0:0:0:0:
320,304,26853,1,2,0:0:0:0:
432,208,27011,6,0,P|400:192|352:192,1,61.7499971733095,2|2,0:0|0:0,0:0:0:0:
272,160,27327,1,2,0:0:0:0:
304,320,27484,1,2,0:0:0:0:
144,224,27643,2,0,P|144:240|160:304,2,61.7499971733095,2|2|2,0:0|0:0|0:0,0:0:0:0:
320,208,28116,6,0,B|352:192|352:192|368:112,1,92.6249957599642,2|2,0:0|0:0,0:0:0:0:
368,96,28432,1,2,0:0:0:0:
160,160,28590,2,0,L|144:96,1,61.7499971733095,2|2,0:0|0:0,0:0:0:0:
352,272,28906,2,0,P|288:288|224:256,1,123.499994346619,2|2,0:0|0:0,0:0:0:0:
192,42,29379,6,0,B|192:64|192:64|176:128|176:128|192:160,2,123.499994346619,2|2|2,0:0|0:0|0:0,0:0:0:0:
64,160,30169,1,2,0:0:0:0:
144,304,30327,6,0,B|160:288|160:288|176:224,1,61.7499971733095,2|2,0:0|0:0,0:0:0:0:
320,160,30643,2,0,B|304:144|304:144|288:96,1,61.7499971733095,2|2,0:0|0:0,0:0:0:0:
160,80,30958,1,2,0:0:0:0:
352,32,31116,2,0,B|352:112,1,61.7499971733095,2|2,0:0|0:0,0:0:0:0:
352,224,31432,2,0,B|352:272|352:272|304:352,1,123.499994346619,2|2,0:0|0:0,0:0:0:0:
177,203,31906,6,0,L|192:144,1,61.7499971733095,2|2,0:0|0:0,0:0:0:0:
348,172,32221,2,0,L|336:112,1,61.7499971733095,2|2,0:0|0:0,0:0:0:0:
144,256,32537,2,0,L|158:196,1,61.7499971733095,2|2,0:0|0:0,0:0:0:0:
320,336,32853,6,0,L|320:224,1,92.6249957599642,10|2,0:0|0:0,0:0:0:0:
352,160,33169,2,0,B|384:176|384:224,1,61.7499971733095,2|2,0:0|0:0,0:0:0:0:
128,192,33485,2,0,B|96:208|96:272,1,61.7499971733095,2|2,0:0|0:0,0:0:0:0:
256,368,33800,2,0,B|288:352|288:288,1,61.7499971733095,2|2,0:0|0:0,0:0:0:0:
400,384,34116,5,2,0:0:0:0:
304,240,34274,1,2,0:0:0:0:
480,208,34432,2,0,B|464:176|464:176|416:160,1,61.7499971733095,2|2,0:0|0:0,0:0:0:0:
256,80,34748,2,0,B|240:112|240:112|240:160,1,61.7499971733095,2|2,0:0|0:0,0:0:0:0:
176,352,35064,2,0,B|160:320|160:320|160:272,1,61.7499971733095,2|2,0:0|0:0,0:0:0:0:
80,64,35379,6,0,P|80:112|128:208,1,128.249996086121,10|2,0:0|0:0,0:0:0:0:
176,240,35695,1,8,0:0:0:0:
176,240,36011,5,8,0:0:0:0:
176,80,36169,2,0,B|240:80|240:80|272:48|272:48|352:48,1,170.999994781494,10|10,0:0|0:0,0:0:0:0:
256,208,36643,5,8,0:0:0:0:
400,96,36801,1,10,0:0:0:0:
416,320,36958,1,8,0:0:0:0:
368,144,37116,6,0,L|272:144,1,85.4999973907472,10|2,0:0|0:0,0:0:0:0:
282,144,37432,1,8,0:0:0:0:
176,304,37590,2,0,P|240:320|272:304,1,85.4999973907472,10|2,0:0|0:0,0:0:0:0:
432,176,37906,5,8,0:0:0:0:
384,336,38064,1,10,0:0:0:0:
256,128,38222,1,8,0:0:0:0:
256,128,38537,5,8,0:0:0:0:
336,272,38695,2,0,B|208:272|304:320|160:304,1,170.999994781494,10|2,0:0|0:0,0:0:0:0:
80,112,39169,5,8,0:0:0:0:
80,320,39327,1,10,0:0:0:0:
80,320,39485,1,8,0:0:0:0:
176,111,39643,2,0,L|176:196,1,85.4999973907472,10|2,0:0|0:0,0:0:0:0:
176,197,39958,1,8,0:0:0:0:
16,208,40116,2,0,P|11:153|48:112,1,85.4999973907472,10|2,0:0|0:0,0:0:0:0:
160,16,40432,5,8,0:0:0:0:
208,224,40590,1,10,0:0:0:0:
272,16,40748,1,8,0:0:0:0:
272,16,41064,5,8,0:0:0:0:
288,240,41222,2,0,B|288:192|288:192|320:144|320:144|320:64,1,170.999994781494,10|2,0:0|0:0,0:0:0:0:
176,112,41695,5,8,0:0:0:0:
176,336,41853,1,10,0:0:0:0:
272,112,42011,1,8,0:0:0:0:
192,288,42169,2,0,L|288:288,1,85.4999973907472,10|2,0:0|0:0,0:0:0:0:
272,288,42485,1,8,0:0:0:0:
416,352,42643,2,0,P|432:288|400:256,1,85.4999973907472,10|2,0:0|0:0,0:0:0:0:
400,96,42958,6,2,B|352:192|320:96|256:192|256:192|208:128|208:128|240:32,1,341.999989562989
208,272,44064,5,2,0:0:0:0:
208,272,44143,1,2,0:0:0:0:
208,272,44222,1,10,0:0:0:0:
80,64,44379,1,2,0:0:0:0:
112,368,44537,1,2,0:0:0:0:
144,112,44695,2,0,B|208:112|208:112|256:96,1,95,10|2,0:0|0:0,0:0:0:0:
304,304,45011,2,0,B|277:318|277:318|213:318,1,95,10|2,0:0|0:0,0:0:0:0:
416,96,45327,6,0,P|432:176|400:304,1,178.125,2|2,0:0|0:0,0:0:0:0:
400,304,45643,1,10,0:0:0:0:
160,256,45801,2,0,L|160:128,1,118.75,2|2,0:0|0:0,0:0:0:0:
400,48,46116,1,10,0:0:0:0:
192,224,46274,2,0,L|192:96,1,118.75,2|2,0:0|0:0,0:0:0:0:
352,176,46590,1,10,0:0:0:0:
272,368,46748,6,0,B|240:368|240:368|176:304,1,118.75,2|2,0:0|0:0,0:0:0:0:
160,80,47064,1,10,0:0:0:0:
272,320,47222,2,0,B|240:320|240:320|176:256,1,118.75,2|2,0:0|0:0,0:0:0:0:
54,83,47537,2,0,B|86:51|86:51|182:51,1,118.75,2|2,0:0|0:0,0:0:0:0:
320,256,47853,6,0,P|416:176|448:64,1,237.5,2|2,0:0|0:0,0:0:0:0:
128,16,48327,2,0,P|128:48|128:144,1,118.75,2|2,0:0|0:0,0:0:0:0:
272,176,48643,1,2,0:0:0:0:
0,208,48801,1,2,0:0:0:0:
272,176,48958,2,0,B|304:208|304:208|304:320,1,118.75,2|2,0:0|0:0,0:0:0:0:
160,48,49274,5,2,0:0:0:0:
96,320,49432,1,2,0:0:0:0:
128,128,49590,2,0,L|0:128,1,118.75,2|2,0:0|0:0,0:0:0:0:
240,272,49906,2,0,B|240:322|240:322|192:370,1,118.75,2|2,0:0|0:0,0:0:0:0:
304,80,50222,1,2,0:0:0:0:
304,80,50301,1,2,0:0:0:0:
304,80,50379,6,0,B|304:128|304:128|336:192|336:192|336:304,1,178.125,10|10,0:0|0:0,0:0:0:0:
336,288,50695,1,10,0:0:0:0:
480,80,50853,2,0,B|496:112|496:112|496:208,1,118.75,2|2,0:0|0:0,0:0:0:0:
256,80,51169,1,10,0:0:0:0:
336,304,51327,2,0,P|272:320|208:288,1,118.75,2|2,0:0|0:0,0:0:0:0:
192,80,51643,1,10,0:0:0:0:
80,320,51801,6,0,L|80:144,1,118.75,2|2,0:0|0:0,0:0:0:0:
336,176,52116,1,10,0:0:0:0:
144,32,52274,2,0,B|128:64|128:64|128:176,1,118.75,2|2,0:0|0:0,0:0:0:0:
272,384,52590,2,0,B|272:336|272:256,1,118.75,2|2,0:0|0:0,0:0:0:0:
261,66,52906,6,0,P|376:84|448:176,1,237.5,2|2,0:0|0:0,0:0:0:0:
352,368,53379,1,2,0:0:0:0:
256,160,53537,1,2,0:0:0:0:
256,160,53616,1,2,0:0:0:0:
256,160,53695,1,10,0:0:0:0:
448,368,53853,6,0,P|448:272|432:240,1,118.75,2|2,0:0|0:0,0:0:0:0:
192,320,54169,2,0,P|176:272|176:192,1,118.75,2|2,0:0|0:0,0:0:0:0:
256,80,54485,5,2,0:0:0:0:
272,96,54564,1,10,0:0:0:0:
288,112,54643,2,0,L|288:240,1,118.75,2|2,0:0|0:0,0:0:0:0:
448,304,54958,5,0,0:0:0:0:
432,304,55037,1,10,0:0:0:0:
416,304,55116,1,2,0:0:0:0:
400,256,55195,1,10,0:0:0:0:
368,224,55274,1,10,0:0:0:0:
320,208,55353,1,10,0:0:0:0:
272,224,55432,6,0,B|272:144|272:144|240:96|240:96|240:-16,1,237.5,10|2,0:0|0:0,0:0:0:0:
128,240,55906,2,0,B|101:209|101:209|117:129,1,118.75,2|2,0:0|0:0,0:0:0:0:
272,368,56222,1,2,0:0:0:0:
448,224,56379,2,0,L|320:192,1,118.75,2|2,0:0|0:0,0:0:0:0:
192,48,56695,6,0,B|224:80|224:80|160:272,1,237.5,2|2,0:0|0:0,0:0:0:0:
384,368,57169,1,2,0:0:0:0:
336,160,57327,1,2,0:0:0:0:
496,288,57485,1,2,0:0:0:0:
288,128,57643,2,0,L|288:256,1,118.75,2|2,0:0|0:0,0:0:0:0:
144,368,57958,6,0,B|144:304|144:304|112:208|112:208|112:128,1,237.5,2|2,0:0|0:0,0:0:0:0:
304,32,58432,2,0,P|240:16|192:32,1,118.75,2|2,0:0|0:0,0:0:0:0:
256,208,58748,1,2,0:0:0:0:
464,64,58906,2,0,L|512:192,1,118.75,2|2,0:0|0:0,0:0:0:0:
400,352,59222,6,0,L|320:160,1,178.125,2|2,0:0|0:0,0:0:0:0:
304,160,59537,1,2,0:0:0:0:
224,288,59695,1,2,0:0:0:0:
368,128,59853,1,2,0:0:0:0:
368,304,60011,1,2,0:0:0:0:
304,96,60169,1,2,0:0:0:0:
256,336,60327,1,2,0:0:0:0:
464,192,60485,6,0,B|496:176|496:176|320:48,1,237.5
240,352,60958,2,0,P|160:288|160:208,1,178.125,2|2,0:0|0:0,0:0:0:0:
160,176,61274,1,2,0:0:0:0:
368,176,61432,2,0,L|368:32,1,118.75,2|2,0:0|0:0,0:0:0:0:
464,320,61748,6,0,B|384:352|384:352|272:304,1,178.125,2|2,0:0|0:0,0:0:0:0:
256,288,62064,1,2,0:0:0:0:
256,16,62222,2,0,L|256:144,1,118.75,2|2,0:0|0:0,0:0:0:0:
16,304,62537,2,0,B|64:272|64:272|80:192,1,118.75,2|2,0:0|0:0,0:0:0:0:
96,32,62853,1,2,0:0:0:0:
176,320,63011,1,2,0:0:0:0:
192,16,63169,6,0,B|160:96|160:96|176:128,1,118.75,2|2,0:0|0:0,0:0:0:0:
368,240,63485,2,0,B|384:224|384:224|368:96,1,118.75,2|2,0:0|0:0,0:0:0:0:
192,352,63801,1,2,0:0:0:0:
256,16,63958,1,2,0:0:0:0:
320,352,64116,1,2,0:0:0:0:
304,16,64274,2,0,P|272:112|208:32,1,237.5,2|2,0:0|0:0,0:0:0:0:
128,240,65222,6,0,L|128:128,1,104.500003189087,2|2,0:0|0:0,0:0:0:0:
288,352,65537,2,0,B|272:272|272:272|336:160|336:160,1,209.000006378174,2|2,0:0|0:0,0:0:0:0:
400,16,66011,1,2,0:0:0:0:
448,224,66169,1,2,0:0:0:0:
288,64,66327,1,2,0:0:0:0:
496,128,66485,1,2,0:0:0:0:
288,256,66643,2,0,L|176:256,1,104.500003189087,2|2,0:0|0:0,0:0:0:0:
112,80,66958,5,2,0:0:0:0:
144,304,67116,1,2,0:0:0:0:
144,304,67195,1,2,0:0:0:0:
144,304,67274,2,0,P|192:256|208:208,1,104.500003189087,10|2,0:0|0:0,0:0:0:0:
320,48,67590,1,2,0:0:0:0:
320,48,67669,1,2,0:0:0:0:
320,48,67748,2,0,L|320:176,1,104.500003189087,10|2,0:0|0:0,0:0:0:0:
416,352,68064,6,0,B|416:288|416:288|448:224|448:224|448:144,1,209.000006378174,10|2,0:0|0:0,0:0:0:0:
192,240,68537,2,0,P|256:256|304:256,1,104.500003189087,2|2,0:0|0:0,0:0:0:0:
352,32,68853,1,2,0:0:0:0:
224,208,69011,1,2,0:0:0:0:
192,16,69169,1,2,0:0:0:0:
352,144,69327,6,0,L|143:144,1,209.000006378174,10|2,0:0|0:0,0:0:0:0:
336,352,69801,2,0,B|368:320|368:320|384:256,1,104.500003189087,2|2,0:0|0:0,0:0:0:0:
336,80,70116,1,2,0:0:0:0:
224,224,70274,1,2,0:0:0:0:
240,16,70432,1,2,0:0:0:0:
320,224,70590,2,0,P|272:176|128:128,1,209.000006378174,10|2,0:0|0:0,0:0:0:0:
304,336,71064,2,0,P|256:320|208:256,1,104.500003189087,2|2,0:0|0:0,0:0:0:0:
240,144,71380,5,2,0:0:0:0:
192,304,71537,1,2,0:0:0:0:
368,160,71695,1,2,0:0:0:0:
288,320,71853,2,0,L|286:105,1,209.000006378174,10|2,0:0|0:0,0:0:0:0:
320,80,72248,1,4,0:0:0:0:
320,80,72327,1,6,0:0:0:0:
176,176,72485,6,0,L|176:48,1,104.500003189087,4|4,0:0|0:0,0:0:0:0:
400,144,72801,2,0,L|400:256,1,104.500003189087,6|6,0:0|0:0,0:0:0:0:
224,288,73116,2,0,B|256:320|256:320|256:192|256:128,1,209.000006378174,4|4,0:0|0:0,0:0:0:0:
96,16,73590,2,0,B|80:32|80:32|80:128,1,104.500003189087
176,256,73906,1,2,0:0:0:0:
208,48,74064,1,2,0:0:0:0:
288,272,74222,1,2,0:0:0:0:
176,144,74380,2,0,P|224:112|368:176,1,209.000006378174,10|2,0:0|0:0,0:0:0:0:
192,288,74853,5,2,0:0:0:0:
382,216,75011,2,0,L|368:320,1,104.500003189087
160,112,75327,2,0,L|175:216,1,104.500003189087
400,48,75643,2,0,B|352:32|352:32|352:240,1,209.000006378174
144,352,76116,5,10,0:0:0:0:
272,48,76274,1,2,0:0:0:0:
384,352,76432,1,0,0:0:0:0:
96,96,76590,5,0,0:0:0:0:
496,160,76748,1,0,0:0:0:0:
96,320,76906,1,0,0:0:0:0:
176,32,77064,5,0,0:0:0:0:
224,352,77222,1,0,0:0:0:0:
336,16,77379,5,0,0:0:0:0:
400,352,77537,1,0,0:0:0:0:
144,16,77695,5,0,0:0:0:0:
208,368,77853,1,0,0:0:0:0:
256,192,78169,5,10,0:0:0:0:
256,192,78327,12,2,83537,0:0:0:0:
