osu file format v14

[General]
AudioFilename: audio.mp3
AudioLeadIn: 0
PreviewTime: 55432
Countdown: 0
SampleSet: Normal
StackLeniency: 0.7
Mode: 1
LetterboxInBreaks: 0
WidescreenStoryboard: 0

[Editor]
DistanceSpacing: 4.4
BeatDivisor: 4
GridSize: 32
TimelineZoom: 2.799999

[Metadata]
Title:Tokoyami no keiyaku KEGARETA-SHOUJO feat. GUMI
TitleUnicode:常闇の契約 ケガレタショウジョ feat. GUMI
Artist:Trial & Error
ArtistUnicode:Trial & Error
Creator:Nardoxyribonucleic
Version:Nwolf's Oni
Source:osu!
Tags:Taiko Featured Artist FA Vocaloid Megpoid qoot8123 Nwolf
BeatmapID:1772280
BeatmapSetID:847433

[Difficulty]
HPDrainRate:6
CircleSize:4
OverallDifficulty:5.5
ApproachRate:9
SliderMultiplier:1.4
SliderTickRate:3

[Events]
//Background and Video events
0,0,"bg.jpg",0,0
//Break Periods
//Storyboard Layer 0 (Background)
//Storyboard Layer 1 (Fail)
//Storyboard Layer 2 (Pass)
//Storyboard Layer 3 (Foreground)
//Storyboard Sound Samples

[TimingPoints]
3801,315.789473684211,4,1,0,85,1,0
25274,-100,4,1,0,70,0,0
45485,-100,4,1,0,80,0,0
55432,-100,4,1,0,95,0,1
75643,-100,4,1,0,90,0,0
78169,-100,4,1,0,85,0,0
98537,-100,4,1,0,75,0,0
108643,-100,4,1,0,80,0,0
118748,-100,4,1,0,85,0,0
128695,-100,4,1,0,95,0,1
148906,-100,4,1,0,100,0,0
175432,-100,4,1,0,95,0,1
215853,-100,4,1,0,85,0,0
236222,-100,4,1,0,75,0,0
237564,-100,4,1,0,65,0,0
238906,-100,4,1,0,55,0,0
240248,-100,4,1,0,45,0,0
241590,-100,4,1,0,35,0,0

[HitObjects]
288,160,3801,5,8,0:0:0:0:
224,160,3958,1,0,0:0:0:0:
224,160,4037,1,0,0:0:0:0:
224,160,4116,1,0,0:0:0:0:
288,160,4274,1,8,0:0:0:0:
224,160,4590,1,0,0:0:0:0:
224,160,4748,1,0,0:0:0:0:
288,224,4906,1,12,0:0:0:0:
224,160,5222,1,0,0:0:0:0:
288,160,5379,1,8,0:0:0:0:
288,160,5616,1,8,0:0:0:0:
224,160,5695,1,0,0:0:0:0:
224,160,5853,1,0,0:0:0:0:
288,160,6011,1,8,0:0:0:0:
224,160,6169,1,0,0:0:0:0:
224,160,6485,1,0,0:0:0:0:
288,160,6643,1,8,0:0:0:0:
224,160,6801,1,0,0:0:0:0:
224,160,6879,1,0,0:0:0:0:
224,160,6958,1,0,0:0:0:0:
288,160,7116,1,8,0:0:0:0:
288,160,7274,1,8,0:0:0:0:
224,160,7432,1,0,0:0:0:0:
224,160,7748,1,0,0:0:0:0:
288,160,7906,1,8,0:0:0:0:
224,160,8143,1,0,0:0:0:0:
224,160,8222,1,0,0:0:0:0:
224,160,8379,1,0,0:0:0:0:
288,160,8537,1,8,0:0:0:0:
224,160,8695,1,0,0:0:0:0:
224,160,9011,1,0,0:0:0:0:
288,160,9169,1,8,0:0:0:0:
288,160,9327,1,8,0:0:0:0:
288,160,9406,1,8,0:0:0:0:
288,160,9485,1,8,0:0:0:0:
224,160,9643,1,0,0:0:0:0:
288,160,9801,1,8,0:0:0:0:
224,160,9958,1,0,0:0:0:0:
224,160,10274,1,0,0:0:0:0:
288,160,10432,1,8,0:0:0:0:
224,160,10669,1,0,0:0:0:0:
224,160,10748,1,0,0:0:0:0:
288,160,10906,1,8,0:0:0:0:
288,160,11064,1,8,0:0:0:0:
224,160,11222,1,0,0:0:0:0:
224,160,11537,1,0,0:0:0:0:
288,160,11695,1,8,0:0:0:0:
224,160,11853,1,0,0:0:0:0:
288,160,11932,1,8,0:0:0:0:
224,160,12011,1,0,0:0:0:0:
224,160,12169,1,0,0:0:0:0:
288,160,12327,1,8,0:0:0:0:
288,224,12485,1,12,0:0:0:0:
224,160,12801,1,0,0:0:0:0:
288,160,12958,1,8,0:0:0:0:
288,160,13037,1,8,0:0:0:0:
288,160,13116,1,8,0:0:0:0:
288,160,13274,1,8,0:0:0:0:
288,160,13353,1,8,0:0:0:0:
288,160,13432,1,8,0:0:0:0:
224,160,13590,1,0,0:0:0:0:
288,160,13748,1,8,0:0:0:0:
224,160,13906,1,0,0:0:0:0:
224,160,13985,1,0,0:0:0:0:
224,160,14064,1,0,0:0:0:0:
288,160,14222,1,8,0:0:0:0:
288,160,14301,1,8,0:0:0:0:
288,160,14379,1,8,0:0:0:0:
224,160,14537,1,0,0:0:0:0:
288,160,14695,1,8,0:0:0:0:
224,224,15011,1,4,0:0:0:0:
224,160,15327,1,0,0:0:0:0:
288,160,15485,1,8,0:0:0:0:
288,160,15722,1,8,0:0:0:0:
224,160,15801,1,0,0:0:0:0:
224,160,15958,1,0,0:0:0:0:
288,160,16116,1,8,0:0:0:0:
224,160,16274,1,0,0:0:0:0:
224,160,16590,1,0,0:0:0:0:
288,160,16748,1,8,0:0:0:0:
224,160,16906,1,0,0:0:0:0:
224,160,16985,1,0,0:0:0:0:
288,160,17064,1,8,0:0:0:0:
224,160,17222,1,0,0:0:0:0:
288,160,17379,1,8,0:0:0:0:
224,160,17537,1,0,0:0:0:0:
224,160,17853,1,0,0:0:0:0:
288,160,18011,1,8,0:0:0:0:
224,160,18248,1,0,0:0:0:0:
224,160,18327,1,0,0:0:0:0:
224,160,18485,1,0,0:0:0:0:
288,160,18643,1,8,0:0:0:0:
224,160,18801,1,0,0:0:0:0:
224,160,19116,1,0,0:0:0:0:
288,160,19274,1,8,0:0:0:0:
288,160,19432,1,8,0:0:0:0:
288,160,19511,1,8,0:0:0:0:
224,160,19590,1,0,0:0:0:0:
224,160,19748,1,0,0:0:0:0:
288,160,19906,1,8,0:0:0:0:
224,160,20064,1,0,0:0:0:0:
224,160,20379,1,0,0:0:0:0:
288,160,20537,1,8,0:0:0:0:
224,160,20695,1,0,0:0:0:0:
224,160,20774,1,0,0:0:0:0:
224,160,20853,1,0,0:0:0:0:
224,160,21011,1,0,0:0:0:0:
288,160,21169,1,8,0:0:0:0:
224,160,21327,1,0,0:0:0:0:
224,160,21643,1,0,0:0:0:0:
288,160,21801,1,8,0:0:0:0:
224,160,21958,1,0,0:0:0:0:
288,160,22037,1,8,0:0:0:0:
224,160,22116,1,0,0:0:0:0:
224,160,22274,1,0,0:0:0:0:
288,160,22432,1,8,0:0:0:0:
288,224,22590,1,12,0:0:0:0:
224,160,22906,1,0,0:0:0:0:
288,160,23064,1,8,0:0:0:0:
288,160,23143,1,8,0:0:0:0:
288,160,23222,1,8,0:0:0:0:
288,160,23379,1,8,0:0:0:0:
288,160,23458,1,8,0:0:0:0:
288,160,23537,1,8,0:0:0:0:
288,160,23695,1,8,0:0:0:0:
224,160,23853,1,0,0:0:0:0:
288,160,24011,1,8,0:0:0:0:
288,160,24090,1,8,0:0:0:0:
288,160,24169,1,8,0:0:0:0:
224,160,24327,1,0,0:0:0:0:
224,160,24406,1,0,0:0:0:0:
224,160,24485,1,0,0:0:0:0:
288,160,24643,1,8,0:0:0:0:
224,160,24801,1,0,0:0:0:0:
224,160,25274,5,0,0:0:0:0:
224,160,25590,1,0,0:0:0:0:
224,160,25906,1,0,0:0:0:0:
224,160,26222,1,0,0:0:0:0:
224,160,26537,1,0,0:0:0:0:
224,160,26853,1,0,0:0:0:0:
224,160,27169,1,0,0:0:0:0:
224,160,27485,1,0,0:0:0:0:
288,160,27643,1,8,0:0:0:0:
224,160,27801,1,0,0:0:0:0:
224,160,28116,1,0,0:0:0:0:
224,160,28432,1,0,0:0:0:0:
224,160,28748,1,0,0:0:0:0:
224,160,29064,1,0,0:0:0:0:
224,160,29379,1,0,0:0:0:0:
224,160,29695,1,0,0:0:0:0:
288,160,29853,1,8,0:0:0:0:
224,160,30011,1,0,0:0:0:0:
288,160,30169,1,8,0:0:0:0:
224,160,30327,1,0,0:0:0:0:
224,160,30643,1,0,0:0:0:0:
224,160,30958,1,0,0:0:0:0:
224,160,31274,1,0,0:0:0:0:
224,160,31590,1,0,0:0:0:0:
224,160,31906,1,0,0:0:0:0:
224,160,32222,1,0,0:0:0:0:
224,160,32537,1,0,0:0:0:0:
288,160,32695,1,8,0:0:0:0:
224,160,32853,1,0,0:0:0:0:
224,160,33485,1,0,0:0:0:0:
224,160,33801,1,0,0:0:0:0:
288,160,34116,1,8,0:0:0:0:
224,160,34748,1,0,0:0:0:0:
288,160,35064,1,8,0:0:0:0:
224,160,35379,1,0,0:0:0:0:
224,160,35695,1,0,0:0:0:0:
224,160,36011,1,0,0:0:0:0:
224,160,36327,1,0,0:0:0:0:
224,160,36643,1,0,0:0:0:0:
224,160,36958,1,0,0:0:0:0:
224,160,37274,1,0,0:0:0:0:
224,160,37590,1,0,0:0:0:0:
288,160,37748,1,8,0:0:0:0:
224,160,37906,1,0,0:0:0:0:
224,160,38222,1,0,0:0:0:0:
224,160,38537,1,0,0:0:0:0:
224,160,38853,1,0,0:0:0:0:
224,160,39169,1,0,0:0:0:0:
224,160,39485,1,0,0:0:0:0:
224,160,39801,1,0,0:0:0:0:
288,160,39958,1,8,0:0:0:0:
224,160,40116,1,0,0:0:0:0:
288,160,40274,1,8,0:0:0:0:
224,160,40432,1,0,0:0:0:0:
224,160,40748,1,0,0:0:0:0:
224,160,41064,1,0,0:0:0:0:
224,160,41379,1,0,0:0:0:0:
288,160,41537,1,8,0:0:0:0:
224,160,41695,1,0,0:0:0:0:
224,160,42011,1,0,0:0:0:0:
224,160,42327,1,0,0:0:0:0:
224,160,42643,1,0,0:0:0:0:
224,160,42801,1,0,0:0:0:0:
288,160,42958,1,8,0:0:0:0:
288,160,43590,1,8,0:0:0:0:
288,160,43906,1,8,0:0:0:0:
224,160,44222,1,0,0:0:0:0:
224,160,44853,1,0,0:0:0:0:
224,160,45169,1,0,0:0:0:0:
224,160,45485,5,0,0:0:0:0:
224,160,45564,1,0,0:0:0:0:
224,160,45643,1,0,0:0:0:0:
288,160,45801,1,8,0:0:0:0:
224,160,46116,1,0,0:0:0:0:
288,160,46274,1,8,0:0:0:0:
224,160,46432,1,0,0:0:0:0:
288,160,46748,1,8,0:0:0:0:
224,160,47064,1,0,0:0:0:0:
288,160,47222,1,8,0:0:0:0:
288,160,47537,1,8,0:0:0:0:
224,160,47695,1,0,0:0:0:0:
224,160,48011,1,0,0:0:0:0:
224,160,48090,1,0,0:0:0:0:
224,160,48169,1,0,0:0:0:0:
288,160,48327,1,8,0:0:0:0:
224,160,48643,1,0,0:0:0:0:
288,160,48801,1,8,0:0:0:0:
224,160,48958,1,0,0:0:0:0:
288,160,49274,1,8,0:0:0:0:
224,160,49590,1,0,0:0:0:0:
288,160,49748,1,8,0:0:0:0:
288,160,50064,1,8,0:0:0:0:
224,160,50222,1,0,0:0:0:0:
224,160,50537,1,0,0:0:0:0:
224,160,50616,1,0,0:0:0:0:
224,160,50695,1,0,0:0:0:0:
288,160,50853,1,8,0:0:0:0:
224,160,51169,1,0,0:0:0:0:
288,160,51327,1,8,0:0:0:0:
224,160,51485,1,0,0:0:0:0:
288,160,51801,1,8,0:0:0:0:
224,160,52116,1,0,0:0:0:0:
288,160,52274,1,8,0:0:0:0:
288,160,52590,1,8,0:0:0:0:
224,160,52748,1,0,0:0:0:0:
224,160,53064,1,0,0:0:0:0:
224,160,53143,1,0,0:0:0:0:
224,160,53222,1,0,0:0:0:0:
224,160,54169,1,0,0:0:0:0:
224,160,54248,1,0,0:0:0:0:
288,160,54327,1,8,0:0:0:0:
288,160,54485,1,8,0:0:0:0:
288,160,54643,1,8,0:0:0:0:
224,224,54801,1,4,0:0:0:0:
224,224,55116,1,4,0:0:0:0:
288,224,55432,5,12,0:0:0:0:
224,160,55748,1,0,0:0:0:0:
288,160,55906,1,8,0:0:0:0:
288,160,56064,1,8,0:0:0:0:
288,160,56143,1,8,0:0:0:0:
224,160,56222,1,0,0:0:0:0:
224,160,56379,1,0,0:0:0:0:
288,160,56537,1,8,0:0:0:0:
224,160,56695,1,0,0:0:0:0:
224,160,56853,1,0,0:0:0:0:
288,160,57169,1,8,0:0:0:0:
288,160,57327,1,8,0:0:0:0:
288,160,57406,1,8,0:0:0:0:
224,160,57485,1,0,0:0:0:0:
224,160,57643,1,0,0:0:0:0:
288,160,57801,1,8,0:0:0:0:
224,160,57958,1,0,0:0:0:0:
224,160,58274,1,0,0:0:0:0:
288,160,58432,1,8,0:0:0:0:
224,160,58748,1,0,0:0:0:0:
224,160,58906,1,0,0:0:0:0:
288,160,59064,1,8,0:0:0:0:
288,160,59379,1,8,0:0:0:0:
224,160,59537,1,0,0:0:0:0:
288,160,59695,1,8,0:0:0:0:
224,160,59853,1,0,0:0:0:0:
224,160,59932,1,0,0:0:0:0:
288,160,60011,1,8,0:0:0:0:
288,160,60090,1,8,0:0:0:0:
224,160,60169,1,0,0:0:0:0:
288,160,60327,1,8,0:0:0:0:
224,224,60485,1,4,0:0:0:0:
224,160,60801,1,0,0:0:0:0:
288,160,60958,1,8,0:0:0:0:
288,160,61116,1,8,0:0:0:0:
288,160,61195,1,8,0:0:0:0:
224,160,61274,1,0,0:0:0:0:
224,160,61432,1,0,0:0:0:0:
288,160,61590,1,8,0:0:0:0:
224,160,61748,1,0,0:0:0:0:
224,160,61906,1,0,0:0:0:0:
288,160,62222,1,8,0:0:0:0:
288,160,62379,1,8,0:0:0:0:
288,160,62458,1,8,0:0:0:0:
224,160,62537,1,0,0:0:0:0:
224,160,62695,1,0,0:0:0:0:
288,160,62853,1,8,0:0:0:0:
224,160,63011,1,0,0:0:0:0:
224,160,63327,1,0,0:0:0:0:
288,160,63485,1,8,0:0:0:0:
224,160,63643,1,0,0:0:0:0:
224,160,63722,1,0,0:0:0:0:
288,160,63801,1,8,0:0:0:0:
224,160,63958,1,0,0:0:0:0:
288,160,64116,1,8,0:0:0:0:
224,160,64274,1,0,0:0:0:0:
224,160,64590,1,0,0:0:0:0:
224,160,64669,1,0,0:0:0:0:
288,160,64748,1,8,0:0:0:0:
288,160,64827,1,8,0:0:0:0:
224,160,64906,1,0,0:0:0:0:
288,160,65064,1,8,0:0:0:0:
224,160,65222,1,0,0:0:0:0:
224,160,65301,1,0,0:0:0:0:
224,160,65379,1,0,0:0:0:0:
288,224,65537,1,12,0:0:0:0:
224,160,65853,1,0,0:0:0:0:
288,160,66011,1,8,0:0:0:0:
288,160,66327,1,8,0:0:0:0:
224,160,66485,1,0,0:0:0:0:
288,160,66643,1,8,0:0:0:0:
288,160,66801,1,8,0:0:0:0:
224,160,67116,1,0,0:0:0:0:
288,160,67274,1,8,0:0:0:0:
288,160,67432,1,8,0:0:0:0:
288,160,67511,1,8,0:0:0:0:
224,160,67590,1,0,0:0:0:0:
224,160,67748,1,0,0:0:0:0:
288,160,67906,1,8,0:0:0:0:
224,160,68064,1,0,0:0:0:0:
224,160,68379,1,0,0:0:0:0:
288,160,68537,1,8,0:0:0:0:
224,160,68853,1,0,0:0:0:0:
224,160,69011,1,0,0:0:0:0:
288,160,69169,1,8,0:0:0:0:
224,160,69327,1,0,0:0:0:0:
224,160,69643,1,0,0:0:0:0:
224,160,69722,1,0,0:0:0:0:
288,160,69801,1,8,0:0:0:0:
288,160,69958,1,8,0:0:0:0:
288,160,70037,1,8,0:0:0:0:
224,160,70116,1,0,0:0:0:0:
224,160,70274,1,0,0:0:0:0:
224,160,70432,1,0,0:0:0:0:
288,224,70590,1,12,0:0:0:0:
224,160,70906,1,0,0:0:0:0:
288,160,71064,1,8,0:0:0:0:
224,160,71222,1,0,0:0:0:0:
224,160,71301,1,0,0:0:0:0:
288,160,71379,1,8,0:0:0:0:
224,160,71537,1,0,0:0:0:0:
288,160,71695,1,8,0:0:0:0:
288,224,71853,1,12,0:0:0:0:
224,160,72169,1,0,0:0:0:0:
288,160,72327,1,8,0:0:0:0:
224,160,72485,1,0,0:0:0:0:
288,160,72643,1,8,0:0:0:0:
288,160,72722,1,8,0:0:0:0:
224,160,72801,1,0,0:0:0:0:
288,160,72958,1,8,0:0:0:0:
288,224,73274,1,12,0:0:0:0:
224,160,73432,1,0,0:0:0:0:
224,160,73511,1,0,0:0:0:0:
288,160,73590,1,8,0:0:0:0:
224,160,73748,1,0,0:0:0:0:
288,160,73906,1,8,0:0:0:0:
288,160,74064,1,8,0:0:0:0:
224,160,74222,1,0,0:0:0:0:
288,224,74379,1,12,0:0:0:0:
288,160,75169,1,8,0:0:0:0:
224,160,75327,1,0,0:0:0:0:
288,160,75485,1,8,0:0:0:0:
224,224,75643,5,4,0:0:0:0:
224,160,75958,1,0,0:0:0:0:
288,160,76116,1,8,0:0:0:0:
224,160,76274,1,0,0:0:0:0:
224,160,76353,1,0,0:0:0:0:
224,160,76432,1,0,0:0:0:0:
224,160,76590,1,0,0:0:0:0:
288,160,76748,1,8,0:0:0:0:
224,160,76906,1,0,0:0:0:0:
224,160,77064,1,0,0:0:0:0:
288,160,77222,1,8,0:0:0:0:
288,160,77301,1,8,0:0:0:0:
288,160,77379,1,8,0:0:0:0:
224,160,77537,1,0,0:0:0:0:
288,160,77774,1,8,0:0:0:0:
288,160,77853,1,8,0:0:0:0:
288,160,78011,1,8,0:0:0:0:
288,160,78090,1,8,0:0:0:0:
224,160,78169,1,0,0:0:0:0:
224,160,78485,1,0,0:0:0:0:
288,160,78643,1,8,0:0:0:0:
288,160,78879,1,8,0:0:0:0:
224,160,78958,1,0,0:0:0:0:
224,160,79116,1,0,0:0:0:0:
288,160,79274,1,8,0:0:0:0:
224,160,79432,1,0,0:0:0:0:
224,160,79748,1,0,0:0:0:0:
288,160,79906,1,8,0:0:0:0:
224,160,80064,1,0,0:0:0:0:
224,160,80143,1,0,0:0:0:0:
224,160,80222,1,0,0:0:0:0:
288,160,80379,1,8,0:0:0:0:
288,160,80537,1,8,0:0:0:0:
224,160,80695,1,0,0:0:0:0:
224,160,81011,1,0,0:0:0:0:
288,160,81169,1,8,0:0:0:0:
224,160,81406,1,0,0:0:0:0:
224,160,81485,1,0,0:0:0:0:
288,160,81643,1,8,0:0:0:0:
288,160,81801,1,8,0:0:0:0:
224,160,81958,1,0,0:0:0:0:
224,160,82274,1,0,0:0:0:0:
224,160,82353,1,0,0:0:0:0:
288,160,82432,1,8,0:0:0:0:
288,160,82511,1,8,0:0:0:0:
224,160,82590,1,0,0:0:0:0:
224,160,82748,1,0,0:0:0:0:
224,160,82906,1,0,0:0:0:0:
224,160,82985,1,0,0:0:0:0:
288,160,83064,1,8,0:0:0:0:
224,160,83222,1,0,0:0:0:0:
224,160,83537,1,0,0:0:0:0:
288,160,83695,1,8,0:0:0:0:
224,160,83853,1,0,0:0:0:0:
288,160,83932,1,8,0:0:0:0:
224,160,84011,1,0,0:0:0:0:
224,160,84169,1,0,0:0:0:0:
288,160,84327,1,8,0:0:0:0:
224,160,84485,1,0,0:0:0:0:
224,160,84801,1,0,0:0:0:0:
288,160,84958,1,8,0:0:0:0:
224,160,85116,1,0,0:0:0:0:
288,160,85195,1,8,0:0:0:0:
224,160,85274,1,0,0:0:0:0:
224,160,85432,1,0,0:0:0:0:
288,160,85590,1,8,0:0:0:0:
288,224,85748,1,12,0:0:0:0:
224,160,86064,1,0,0:0:0:0:
288,160,86222,1,8,0:0:0:0:
288,160,86301,1,8,0:0:0:0:
224,160,86379,1,0,0:0:0:0:
288,160,86537,1,8,0:0:0:0:
288,160,86616,1,8,0:0:0:0:
224,160,86695,1,0,0:0:0:0:
288,160,86853,1,8,0:0:0:0:
224,160,87011,1,0,0:0:0:0:
224,160,87169,1,0,0:0:0:0:
224,160,87248,1,0,0:0:0:0:
288,160,87327,1,8,0:0:0:0:
224,160,87485,1,0,0:0:0:0:
224,160,87564,1,0,0:0:0:0:
224,160,87643,1,0,0:0:0:0:
224,160,87801,1,0,0:0:0:0:
288,160,87958,1,8,0:0:0:0:
224,224,88274,1,4,0:0:0:0:
224,160,88590,1,0,0:0:0:0:
288,160,88748,1,8,0:0:0:0:
288,160,88985,1,8,0:0:0:0:
224,160,89064,1,0,0:0:0:0:
288,160,89222,1,8,0:0:0:0:
288,160,89379,1,8,0:0:0:0:
224,160,89537,1,0,0:0:0:0:
224,160,89853,1,0,0:0:0:0:
288,160,90011,1,8,0:0:0:0:
224,160,90169,1,0,0:0:0:0:
224,160,90248,1,0,0:0:0:0:
288,160,90327,1,8,0:0:0:0:
224,160,90485,1,0,0:0:0:0:
288,160,90643,1,8,0:0:0:0:
224,160,90801,1,0,0:0:0:0:
224,160,91116,1,0,0:0:0:0:
288,160,91274,1,8,0:0:0:0:
224,160,91511,1,0,0:0:0:0:
224,160,91590,1,0,0:0:0:0:
288,160,91748,1,8,0:0:0:0:
288,160,91906,1,8,0:0:0:0:
224,160,92064,1,0,0:0:0:0:
224,160,92379,1,0,0:0:0:0:
224,160,92458,1,0,0:0:0:0:
288,160,92537,1,8,0:0:0:0:
288,160,92616,1,8,0:0:0:0:
224,160,92695,1,0,0:0:0:0:
224,160,92853,1,0,0:0:0:0:
224,160,93011,1,0,0:0:0:0:
224,160,93090,1,0,0:0:0:0:
288,160,93169,1,8,0:0:0:0:
224,160,93327,1,0,0:0:0:0:
224,160,93643,1,0,0:0:0:0:
288,160,93801,1,8,0:0:0:0:
288,160,94037,1,8,0:0:0:0:
224,160,94116,1,0,0:0:0:0:
224,160,94274,1,0,0:0:0:0:
288,160,94432,1,8,0:0:0:0:
224,160,94590,1,0,0:0:0:0:
224,160,94906,1,0,0:0:0:0:
288,160,95064,1,8,0:0:0:0:
224,160,95222,1,0,0:0:0:0:
288,160,95301,1,8,0:0:0:0:
224,160,95379,1,0,0:0:0:0:
224,160,95537,1,0,0:0:0:0:
224,160,95616,1,0,0:0:0:0:
288,160,95695,1,8,0:0:0:0:
288,224,95853,1,12,0:0:0:0:
224,160,96169,1,0,0:0:0:0:
288,160,96327,1,8,0:0:0:0:
288,160,96406,1,8,0:0:0:0:
224,160,96485,1,0,0:0:0:0:
288,160,96643,1,8,0:0:0:0:
288,160,96722,1,8,0:0:0:0:
224,160,96801,1,0,0:0:0:0:
288,160,96958,1,8,0:0:0:0:
224,160,97116,1,0,0:0:0:0:
224,160,97274,1,0,0:0:0:0:
224,160,97353,1,0,0:0:0:0:
288,160,97432,1,8,0:0:0:0:
224,160,97590,1,0,0:0:0:0:
224,160,97669,1,0,0:0:0:0:
224,160,97748,1,0,0:0:0:0:
224,160,97906,1,0,0:0:0:0:
288,224,98064,1,12,0:0:0:0:
224,160,98537,5,0,0:0:0:0:
224,160,98853,1,0,0:0:0:0:
288,160,99169,1,8,0:0:0:0:
288,160,99327,1,8,0:0:0:0:
288,160,99643,1,8,0:0:0:0:
224,160,99801,1,0,0:0:0:0:
224,160,100116,1,0,0:0:0:0:
288,160,100432,1,8,0:0:0:0:
224,160,100590,1,0,0:0:0:0:
288,160,100748,1,8,0:0:0:0:
288,160,100906,1,8,0:0:0:0:
224,160,101064,1,0,0:0:0:0:
288,160,101379,1,8,0:0:0:0:
288,160,101695,1,8,0:0:0:0:
224,160,101853,1,0,0:0:0:0:
288,160,102011,1,8,0:0:0:0:
288,160,102169,1,8,0:0:0:0:
288,160,102485,1,8,0:0:0:0:
224,160,102643,1,0,0:0:0:0:
288,160,102958,1,8,0:0:0:0:
288,160,103274,1,8,0:0:0:0:
224,160,103590,1,0,0:0:0:0:
224,160,103906,1,0,0:0:0:0:
288,160,104222,1,8,0:0:0:0:
224,160,104379,1,0,0:0:0:0:
224,160,104695,1,0,0:0:0:0:
288,160,105011,1,8,0:0:0:0:
224,160,105169,1,0,0:0:0:0:
288,160,105485,1,8,0:0:0:0:
224,160,105801,1,0,0:0:0:0:
224,160,106116,1,0,0:0:0:0:
224,160,106432,1,0,0:0:0:0:
288,160,106748,1,8,0:0:0:0:
224,160,107379,1,0,0:0:0:0:
224,160,107853,1,0,0:0:0:0:
224,160,107932,1,0,0:0:0:0:
224,160,108011,1,0,0:0:0:0:
224,160,108169,1,0,0:0:0:0:
224,160,108327,1,0,0:0:0:0:
224,160,108485,1,0,0:0:0:0:
224,224,108643,1,4,0:0:0:0:
288,160,108958,1,8,0:0:0:0:
288,160,109274,1,8,0:0:0:0:
224,160,109432,1,0,0:0:0:0:
288,160,109590,1,8,0:0:0:0:
288,160,109748,1,8,0:0:0:0:
224,160,109906,1,0,0:0:0:0:
288,160,110222,1,8,0:0:0:0:
224,160,110537,1,0,0:0:0:0:
288,160,110695,1,8,0:0:0:0:
288,160,110853,1,8,0:0:0:0:
288,160,111011,1,8,0:0:0:0:
224,160,111169,1,0,0:0:0:0:
288,160,111485,1,8,0:0:0:0:
224,160,111801,1,0,0:0:0:0:
288,160,111958,1,8,0:0:0:0:
288,160,112116,1,8,0:0:0:0:
224,160,112274,1,0,0:0:0:0:
224,160,112432,1,0,0:0:0:0:
288,160,112748,1,8,0:0:0:0:
224,160,112906,1,0,0:0:0:0:
288,160,113064,1,8,0:0:0:0:
224,160,113222,1,0,0:0:0:0:
288,160,113379,1,8,0:0:0:0:
224,160,113695,1,0,0:0:0:0:
288,160,114011,1,8,0:0:0:0:
224,160,114327,1,0,0:0:0:0:
224,160,114485,1,0,0:0:0:0:
288,160,114643,1,8,0:0:0:0:
288,160,114801,1,8,0:0:0:0:
224,160,114958,1,0,0:0:0:0:
288,160,115274,1,8,0:0:0:0:
224,160,115590,1,0,0:0:0:0:
224,160,115748,1,0,0:0:0:0:
288,160,115906,1,8,0:0:0:0:
224,160,116064,1,0,0:0:0:0:
224,160,116143,1,0,0:0:0:0:
224,160,116222,1,0,0:0:0:0:
224,160,116379,1,0,0:0:0:0:
288,160,116537,1,8,0:0:0:0:
288,160,116853,1,8,0:0:0:0:
224,160,117011,1,0,0:0:0:0:
288,160,117169,1,8,0:0:0:0:
224,160,117327,1,0,0:0:0:0:
224,160,117406,1,0,0:0:0:0:
288,160,117485,1,8,0:0:0:0:
224,160,117643,1,0,0:0:0:0:
224,160,117722,1,0,0:0:0:0:
224,160,117801,1,0,0:0:0:0:
288,160,117958,1,8,0:0:0:0:
224,160,118274,1,0,0:0:0:0:
288,160,118432,1,8,0:0:0:0:
224,160,118590,1,0,0:0:0:0:
224,224,118748,5,4,0:0:0:0:
288,224,119064,1,12,0:0:0:0:
288,160,119537,1,8,0:0:0:0:
224,160,119695,1,0,0:0:0:0:
224,160,120011,1,0,0:0:0:0:
288,160,120327,1,8,0:0:0:0:
224,160,120643,1,0,0:0:0:0:
224,160,120801,1,0,0:0:0:0:
288,160,120958,1,8,0:0:0:0:
224,224,121274,1,4,0:0:0:0:
288,224,121590,1,12,0:0:0:0:
32,32,122537,2,4,L|96:32,9,46.6666666666667
288,160,123695,1,8,0:0:0:0:
224,224,123801,1,4,0:0:0:0:
288,224,124116,1,12,0:0:0:0:
224,160,124590,1,0,0:0:0:0:
288,224,125064,1,12,0:0:0:0:
224,160,125379,1,0,0:0:0:0:
288,224,125537,1,12,0:0:0:0:
224,160,125853,1,0,0:0:0:0:
288,224,126011,1,12,0:0:0:0:
224,224,126327,1,4,0:0:0:0:
224,160,127432,1,0,0:0:0:0:
224,160,127511,1,0,0:0:0:0:
288,160,127590,1,8,0:0:0:0:
288,160,127748,1,8,0:0:0:0:
288,160,127906,1,8,0:0:0:0:
224,224,128064,1,4,0:0:0:0:
224,224,128379,1,4,0:0:0:0:
288,224,128695,5,12,0:0:0:0:
224,160,129011,1,0,0:0:0:0:
224,160,129090,1,0,0:0:0:0:
288,160,129169,1,8,0:0:0:0:
288,160,129327,1,8,0:0:0:0:
224,160,129485,1,0,0:0:0:0:
224,160,129564,1,0,0:0:0:0:
224,160,129643,1,0,0:0:0:0:
288,160,129801,1,8,0:0:0:0:
224,160,129958,1,0,0:0:0:0:
288,160,130037,1,8,0:0:0:0:
224,160,130116,1,0,0:0:0:0:
288,160,130432,1,8,0:0:0:0:
288,160,130590,1,8,0:0:0:0:
288,160,130669,1,8,0:0:0:0:
224,160,130748,1,0,0:0:0:0:
224,160,130906,1,0,0:0:0:0:
288,160,131064,1,8,0:0:0:0:
224,160,131222,1,0,0:0:0:0:
224,160,131301,1,0,0:0:0:0:
224,160,131379,1,0,0:0:0:0:
224,160,131537,1,0,0:0:0:0:
288,160,131695,1,8,0:0:0:0:
224,160,132011,1,0,0:0:0:0:
224,160,132090,1,0,0:0:0:0:
224,160,132169,1,0,0:0:0:0:
288,160,132327,1,8,0:0:0:0:
224,160,132643,1,0,0:0:0:0:
224,160,132722,1,0,0:0:0:0:
224,160,132801,1,0,0:0:0:0:
288,160,132958,1,8,0:0:0:0:
288,160,133274,1,8,0:0:0:0:
288,160,133353,1,8,0:0:0:0:
288,160,133432,1,8,0:0:0:0:
224,160,133590,1,0,0:0:0:0:
288,224,133748,1,12,0:0:0:0:
224,160,134064,1,0,0:0:0:0:
224,160,134143,1,0,0:0:0:0:
288,160,134222,1,8,0:0:0:0:
288,160,134379,1,8,0:0:0:0:
224,160,134537,1,0,0:0:0:0:
224,160,134616,1,0,0:0:0:0:
224,160,134695,1,0,0:0:0:0:
288,160,134853,1,8,0:0:0:0:
224,160,135011,1,0,0:0:0:0:
224,160,135090,1,0,0:0:0:0:
288,160,135169,1,8,0:0:0:0:
288,160,135485,1,8,0:0:0:0:
288,160,135643,1,8,0:0:0:0:
288,160,135722,1,8,0:0:0:0:
224,160,135801,1,0,0:0:0:0:
224,160,135958,1,0,0:0:0:0:
288,160,136116,1,8,0:0:0:0:
224,160,136274,1,0,0:0:0:0:
224,160,136590,1,0,0:0:0:0:
224,160,136669,1,0,0:0:0:0:
288,160,136748,1,8,0:0:0:0:
288,160,136906,1,8,0:0:0:0:
288,160,136985,1,8,0:0:0:0:
224,160,137064,1,0,0:0:0:0:
224,160,137222,1,0,0:0:0:0:
288,160,137379,1,8,0:0:0:0:
224,160,137537,1,0,0:0:0:0:
224,160,137853,1,0,0:0:0:0:
288,160,137932,1,8,0:0:0:0:
224,160,138011,1,0,0:0:0:0:
288,160,138090,1,8,0:0:0:0:
224,160,138169,1,0,0:0:0:0:
288,160,138327,1,8,0:0:0:0:
288,160,138485,1,0,0:0:0:0:
288,160,138564,1,8,0:0:0:0:
224,160,138643,1,0,0:0:0:0:
288,224,138801,1,12,0:0:0:0:
224,160,139116,1,0,0:0:0:0:
288,160,139274,1,8,0:0:0:0:
224,160,139590,1,0,0:0:0:0:
224,160,139748,1,0,0:0:0:0:
288,160,139906,1,8,0:0:0:0:
288,160,140064,1,8,0:0:0:0:
224,160,140379,1,0,0:0:0:0:
288,160,140537,1,8,0:0:0:0:
288,160,140695,1,8,0:0:0:0:
288,160,140774,1,8,0:0:0:0:
224,160,140853,1,0,0:0:0:0:
224,160,141011,1,0,0:0:0:0:
288,160,141169,1,8,0:0:0:0:
224,160,141327,1,0,0:0:0:0:
224,160,141643,1,0,0:0:0:0:
288,160,141801,1,8,0:0:0:0:
224,160,142116,1,0,0:0:0:0:
224,160,142274,1,0,0:0:0:0:
288,160,142432,1,8,0:0:0:0:
224,160,142590,1,0,0:0:0:0:
224,160,142906,1,0,0:0:0:0:
224,160,142985,1,0,0:0:0:0:
288,160,143064,1,8,0:0:0:0:
288,160,143143,1,8,0:0:0:0:
224,160,143222,1,0,0:0:0:0:
288,160,143379,1,8,0:0:0:0:
224,160,143537,1,0,0:0:0:0:
224,160,143695,1,0,0:0:0:0:
288,224,143853,1,12,0:0:0:0:
224,160,144169,1,0,0:0:0:0:
288,160,144327,1,8,0:0:0:0:
288,160,144406,1,8,0:0:0:0:
224,160,144485,1,0,0:0:0:0:
288,160,144643,1,8,0:0:0:0:
224,160,144801,1,0,0:0:0:0:
224,160,144879,1,0,0:0:0:0:
288,160,144958,1,8,0:0:0:0:
288,224,145116,1,12,0:0:0:0:
224,160,145432,1,0,0:0:0:0:
288,160,145590,1,8,0:0:0:0:
224,160,145748,1,0,0:0:0:0:
224,160,145906,1,0,0:0:0:0:
224,160,145985,1,0,0:0:0:0:
224,160,146064,1,0,0:0:0:0:
288,160,146222,1,8,0:0:0:0:
288,224,146537,1,12,0:0:0:0:
224,160,146695,1,0,0:0:0:0:
224,160,146774,1,0,0:0:0:0:
288,160,146853,1,8,0:0:0:0:
224,160,147011,1,0,0:0:0:0:
288,160,147169,1,8,0:0:0:0:
288,160,147248,1,8,0:0:0:0:
288,160,147327,1,8,0:0:0:0:
224,160,147485,1,0,0:0:0:0:
288,224,147643,1,12,0:0:0:0:
288,160,148432,1,8,0:0:0:0:
224,160,148590,1,0,0:0:0:0:
288,160,148748,1,8,0:0:0:0:
224,224,148906,5,4,0:0:0:0:
224,160,149222,1,0,0:0:0:0:
288,160,149379,1,8,0:0:0:0:
224,160,149537,1,0,0:0:0:0:
224,160,149616,1,0,0:0:0:0:
288,160,149695,1,8,0:0:0:0:
288,160,149774,1,8,0:0:0:0:
224,160,149853,1,0,0:0:0:0:
288,160,150011,1,8,0:0:0:0:
224,160,150169,1,0,0:0:0:0:
224,160,150485,1,0,0:0:0:0:
288,160,150643,1,8,0:0:0:0:
224,160,150801,1,0,0:0:0:0:
224,160,150879,1,0,0:0:0:0:
288,160,150958,1,8,0:0:0:0:
288,160,151037,1,8,0:0:0:0:
288,160,151116,1,8,0:0:0:0:
288,160,151274,1,8,0:0:0:0:
224,160,151432,1,0,0:0:0:0:
224,160,151748,1,0,0:0:0:0:
288,160,151906,1,8,0:0:0:0:
224,160,152064,1,0,0:0:0:0:
224,160,152143,1,0,0:0:0:0:
288,160,152222,1,8,0:0:0:0:
224,160,152301,1,0,0:0:0:0:
288,160,152379,1,8,0:0:0:0:
288,160,152537,1,8,0:0:0:0:
224,160,152695,1,0,0:0:0:0:
224,160,153011,1,0,0:0:0:0:
224,160,153090,1,0,0:0:0:0:
288,160,153169,1,8,0:0:0:0:
288,160,153327,1,8,0:0:0:0:
288,160,153406,1,8,0:0:0:0:
224,160,153485,1,0,0:0:0:0:
224,160,153643,1,0,0:0:0:0:
288,160,153801,1,8,0:0:0:0:
224,224,153958,1,4,0:0:0:0:
288,160,154432,1,8,0:0:0:0:
224,160,154590,1,0,0:0:0:0:
224,160,154748,1,0,0:0:0:0:
224,160,154827,1,0,0:0:0:0:
224,160,154906,1,0,0:0:0:0:
224,160,154985,1,0,0:0:0:0:
288,160,155064,1,8,0:0:0:0:
224,160,155222,1,0,0:0:0:0:
224,160,155537,1,0,0:0:0:0:
224,160,155616,1,0,0:0:0:0:
288,160,155695,1,8,0:0:0:0:
224,160,155853,1,0,0:0:0:0:
288,160,156011,1,8,0:0:0:0:
288,160,156090,1,8,0:0:0:0:
288,160,156169,1,0,0:0:0:0:
224,160,156248,1,0,0:0:0:0:
288,160,156327,1,8,0:0:0:0:
224,160,156485,1,0,0:0:0:0:
224,160,156801,1,0,0:0:0:0:
288,160,156958,1,8,0:0:0:0:
224,160,157116,1,0,0:0:0:0:
224,160,157274,1,0,0:0:0:0:
224,160,157353,1,0,0:0:0:0:
288,160,157432,1,8,0:0:0:0:
288,160,157511,1,8,0:0:0:0:
224,160,157590,1,0,0:0:0:0:
288,224,157748,1,12,0:0:0:0:
224,160,158064,1,0,0:0:0:0:
224,160,158143,1,0,0:0:0:0:
288,160,158222,1,8,0:0:0:0:
288,160,158301,1,8,0:0:0:0:
224,160,158379,1,0,0:0:0:0:
288,160,158537,1,8,0:0:0:0:
288,160,158616,1,8,0:0:0:0:
288,160,158695,1,8,0:0:0:0:
288,160,158774,1,8,0:0:0:0:
224,160,158853,1,0,0:0:0:0:
288,224,159011,1,12,0:0:0:0:
224,160,159327,1,0,0:0:0:0:
288,160,159485,1,8,0:0:0:0:
288,160,159564,1,8,0:0:0:0:
288,160,159643,1,8,0:0:0:0:
288,160,159722,1,8,0:0:0:0:
288,160,159801,1,8,0:0:0:0:
224,160,159958,1,0,0:0:0:0:
288,160,160116,1,8,0:0:0:0:
288,160,160274,1,8,0:0:0:0:
224,160,160590,1,0,0:0:0:0:
224,160,160669,1,0,0:0:0:0:
288,160,160748,1,8,0:0:0:0:
288,160,160827,1,8,0:0:0:0:
224,160,160906,1,0,0:0:0:0:
288,160,161064,1,8,0:0:0:0:
224,160,161222,1,0,0:0:0:0:
224,160,161301,1,0,0:0:0:0:
288,160,161379,1,8,0:0:0:0:
224,160,161537,1,0,0:0:0:0:
224,160,161853,1,0,0:0:0:0:
224,160,161932,1,0,0:0:0:0:
288,160,162011,1,8,0:0:0:0:
288,160,162169,1,8,0:0:0:0:
288,160,162248,1,8,0:0:0:0:
224,160,162327,1,0,0:0:0:0:
224,160,162485,1,0,0:0:0:0:
288,160,162643,1,8,0:0:0:0:
288,160,162722,1,8,0:0:0:0:
288,160,162801,1,8,0:0:0:0:
288,160,163116,1,8,0:0:0:0:
288,160,163274,1,8,0:0:0:0:
224,160,163432,1,0,0:0:0:0:
224,160,163511,1,0,0:0:0:0:
288,160,163590,1,8,0:0:0:0:
288,160,163669,1,8,0:0:0:0:
224,160,163748,1,0,0:0:0:0:
288,160,163906,1,8,0:0:0:0:
224,224,164064,1,4,0:0:0:0:
288,160,164537,1,8,0:0:0:0:
288,160,164695,1,8,0:0:0:0:
288,160,164774,1,8,0:0:0:0:
224,160,164853,1,0,0:0:0:0:
224,160,165011,1,0,0:0:0:0:
288,160,165169,1,8,0:0:0:0:
288,160,165248,1,8,0:0:0:0:
288,160,165327,1,8,0:0:0:0:
224,160,165643,1,0,0:0:0:0:
224,160,165722,1,0,0:0:0:0:
288,160,165801,1,8,0:0:0:0:
288,160,165958,1,8,0:0:0:0:
288,160,166037,1,8,0:0:0:0:
224,160,166116,1,0,0:0:0:0:
224,160,166274,1,0,0:0:0:0:
224,160,166353,1,0,0:0:0:0:
288,160,166432,1,8,0:0:0:0:
288,160,166511,1,8,0:0:0:0:
224,160,166590,1,0,0:0:0:0:
288,160,166748,1,8,0:0:0:0:
288,160,167064,1,8,0:0:0:0:
224,160,167222,1,0,0:0:0:0:
224,160,167301,1,0,0:0:0:0:
288,160,167379,1,8,0:0:0:0:
288,160,167458,1,8,0:0:0:0:
224,160,167537,1,0,0:0:0:0:
288,160,167695,1,8,0:0:0:0:
224,160,167853,1,0,0:0:0:0:
288,160,168011,1,8,0:0:0:0:
224,160,168169,1,0,0:0:0:0:
224,160,168248,1,0,0:0:0:0:
288,160,168327,1,8,0:0:0:0:
288,160,168643,1,8,0:0:0:0:
224,160,168801,1,0,0:0:0:0:
288,160,168958,1,8,0:0:0:0:
288,160,169274,1,8,0:0:0:0:
224,160,169432,1,0,0:0:0:0:
224,160,169511,1,0,0:0:0:0:
288,160,169590,1,8,0:0:0:0:
224,160,169748,1,0,0:0:0:0:
224,160,169827,1,0,0:0:0:0:
288,160,169906,1,8,0:0:0:0:
288,160,169985,1,8,0:0:0:0:
224,160,170064,1,0,0:0:0:0:
288,160,170222,1,8,0:0:0:0:
288,160,170537,1,8,0:0:0:0:
288,160,170616,1,8,0:0:0:0:
288,160,170695,1,8,0:0:0:0:
224,160,170853,1,0,0:0:0:0:
224,160,170932,1,0,0:0:0:0:
224,160,171011,1,0,0:0:0:0:
288,160,171169,1,8,0:0:0:0:
288,160,171248,1,8,0:0:0:0:
288,160,171327,1,8,0:0:0:0:
224,160,171485,1,0,0:0:0:0:
288,160,171801,1,8,0:0:0:0:
288,160,171879,1,8,0:0:0:0:
224,160,171958,1,0,0:0:0:0:
288,160,172116,1,8,0:0:0:0:
288,160,172195,1,8,0:0:0:0:
224,160,172274,1,0,0:0:0:0:
288,160,172432,1,8,0:0:0:0:
288,160,172511,1,8,0:0:0:0:
224,160,172590,1,0,0:0:0:0:
224,160,172748,1,0,0:0:0:0:
288,160,173064,1,8,0:0:0:0:
288,160,173143,1,8,0:0:0:0:
224,160,173222,1,0,0:0:0:0:
224,160,173301,1,0,0:0:0:0:
288,160,173379,1,8,0:0:0:0:
224,160,173537,1,0,0:0:0:0:
288,160,173695,1,8,0:0:0:0:
288,160,173774,1,8,0:0:0:0:
224,160,173853,1,0,0:0:0:0:
224,160,173932,1,0,0:0:0:0:
288,160,174011,1,8,0:0:0:0:
224,160,174169,1,0,0:0:0:0:
288,160,174327,1,8,0:0:0:0:
224,160,174406,1,0,0:0:0:0:
288,160,174485,1,8,0:0:0:0:
224,160,174564,1,0,0:0:0:0:
288,160,174643,1,8,0:0:0:0:
224,224,174801,1,4,0:0:0:0:
224,224,175116,1,4,0:0:0:0:
288,224,175432,5,12,0:0:0:0:
224,160,175748,1,0,0:0:0:0:
288,160,175906,1,8,0:0:0:0:
288,160,176064,1,8,0:0:0:0:
288,160,176143,1,8,0:0:0:0:
224,160,176222,1,0,0:0:0:0:
224,160,176379,1,0,0:0:0:0:
288,160,176537,1,8,0:0:0:0:
224,160,176695,1,0,0:0:0:0:
288,160,176774,1,8,0:0:0:0:
224,160,176853,1,0,0:0:0:0:
224,160,177011,1,0,0:0:0:0:
288,160,177169,1,8,0:0:0:0:
288,160,177327,1,8,0:0:0:0:
288,160,177406,1,8,0:0:0:0:
224,160,177485,1,0,0:0:0:0:
224,160,177643,1,0,0:0:0:0:
288,160,177801,1,8,0:0:0:0:
224,160,177958,1,0,0:0:0:0:
224,160,178274,1,0,0:0:0:0:
288,160,178432,1,8,0:0:0:0:
224,160,178590,1,0,0:0:0:0:
224,160,178669,1,0,0:0:0:0:
224,160,178748,1,0,0:0:0:0:
224,160,178906,1,0,0:0:0:0:
288,160,179064,1,8,0:0:0:0:
288,160,179222,1,8,0:0:0:0:
288,160,179301,1,8,0:0:0:0:
288,160,179379,1,8,0:0:0:0:
224,160,179537,1,0,0:0:0:0:
288,160,179695,1,8,0:0:0:0:
224,160,179853,1,0,0:0:0:0:
224,160,179932,1,0,0:0:0:0:
288,160,180011,1,8,0:0:0:0:
288,160,180090,1,8,0:0:0:0:
224,160,180169,1,0,0:0:0:0:
288,160,180327,1,8,0:0:0:0:
224,224,180485,1,4,0:0:0:0:
224,160,180801,1,0,0:0:0:0:
288,160,180958,1,8,0:0:0:0:
288,160,181116,1,8,0:0:0:0:
288,160,181195,1,8,0:0:0:0:
224,160,181274,1,0,0:0:0:0:
224,160,181432,1,0,0:0:0:0:
288,160,181590,1,8,0:0:0:0:
224,160,181748,1,0,0:0:0:0:
224,160,181827,1,0,0:0:0:0:
224,160,181906,1,0,0:0:0:0:
224,160,182064,1,0,0:0:0:0:
288,160,182222,1,8,0:0:0:0:
288,160,182379,1,8,0:0:0:0:
288,160,182458,1,8,0:0:0:0:
224,160,182537,1,0,0:0:0:0:
224,160,182695,1,0,0:0:0:0:
224,160,182774,1,0,0:0:0:0:
288,160,182853,1,8,0:0:0:0:
224,160,183011,1,0,0:0:0:0:
224,160,183327,1,0,0:0:0:0:
288,160,183485,1,8,0:0:0:0:
288,160,183564,1,8,0:0:0:0:
224,160,183643,1,0,0:0:0:0:
288,160,183801,1,8,0:0:0:0:
224,160,183958,1,0,0:0:0:0:
224,160,184037,1,0,0:0:0:0:
288,160,184116,1,8,0:0:0:0:
224,160,184274,1,0,0:0:0:0:
224,160,184590,1,0,0:0:0:0:
224,160,184669,1,0,0:0:0:0:
288,160,184748,1,8,0:0:0:0:
288,160,184827,1,8,0:0:0:0:
224,160,184906,1,0,0:0:0:0:
288,160,185064,1,8,0:0:0:0:
224,160,185222,1,0,0:0:0:0:
224,160,185301,1,0,0:0:0:0:
224,160,185379,1,0,0:0:0:0:
288,224,185537,1,12,0:0:0:0:
224,160,185853,1,0,0:0:0:0:
288,160,186011,1,8,0:0:0:0:
288,160,186327,1,8,0:0:0:0:
224,160,186485,1,0,0:0:0:0:
288,160,186643,1,8,0:0:0:0:
288,160,186801,1,8,0:0:0:0:
224,160,187116,1,0,0:0:0:0:
288,160,187274,1,8,0:0:0:0:
288,160,187432,1,8,0:0:0:0:
288,160,187511,1,8,0:0:0:0:
224,160,187590,1,0,0:0:0:0:
224,160,187748,1,0,0:0:0:0:
288,160,187906,1,8,0:0:0:0:
224,160,188064,1,0,0:0:0:0:
224,160,188379,1,0,0:0:0:0:
288,160,188537,1,8,0:0:0:0:
224,160,188853,1,0,0:0:0:0:
224,160,189011,1,0,0:0:0:0:
288,160,189169,1,8,0:0:0:0:
224,160,189327,1,0,0:0:0:0:
224,160,189643,1,0,0:0:0:0:
224,160,189722,1,0,0:0:0:0:
288,160,189801,1,8,0:0:0:0:
288,160,189958,1,8,0:0:0:0:
288,160,190037,1,8,0:0:0:0:
224,160,190116,1,0,0:0:0:0:
224,160,190274,1,0,0:0:0:0:
224,160,190432,1,0,0:0:0:0:
288,224,190590,1,12,0:0:0:0:
224,160,190906,1,0,0:0:0:0:
288,160,191064,1,8,0:0:0:0:
224,160,191222,1,0,0:0:0:0:
224,160,191301,1,0,0:0:0:0:
288,160,191379,1,8,0:0:0:0:
224,160,191537,1,0,0:0:0:0:
288,160,191695,1,8,0:0:0:0:
288,224,191853,1,12,0:0:0:0:
224,160,192169,1,0,0:0:0:0:
288,160,192327,1,8,0:0:0:0:
224,160,192485,1,0,0:0:0:0:
288,160,192643,1,8,0:0:0:0:
288,160,192722,1,8,0:0:0:0:
224,160,192801,1,0,0:0:0:0:
288,160,192958,1,8,0:0:0:0:
224,160,193116,1,0,0:0:0:0:
288,224,193274,1,12,0:0:0:0:
288,160,193590,1,8,0:0:0:0:
288,160,193748,1,8,0:0:0:0:
288,160,193827,1,8,0:0:0:0:
224,160,193906,1,0,0:0:0:0:
224,160,193985,1,0,0:0:0:0:
288,160,194064,1,8,0:0:0:0:
224,160,194222,1,0,0:0:0:0:
288,224,194379,1,12,0:0:0:0:
256,192,194695,12,0,195485,0:0:0:0:
288,224,195643,5,12,0:0:0:0:
224,160,195958,1,0,0:0:0:0:
224,160,196037,1,0,0:0:0:0:
288,160,196116,1,8,0:0:0:0:
288,160,196274,1,8,0:0:0:0:
224,160,196432,1,0,0:0:0:0:
224,160,196511,1,0,0:0:0:0:
224,160,196590,1,0,0:0:0:0:
288,160,196748,1,8,0:0:0:0:
224,160,196906,1,0,0:0:0:0:
288,160,196985,1,8,0:0:0:0:
224,160,197064,1,0,0:0:0:0:
224,160,197222,1,0,0:0:0:0:
288,160,197379,1,8,0:0:0:0:
288,160,197537,1,8,0:0:0:0:
288,160,197616,1,8,0:0:0:0:
224,160,197695,1,0,0:0:0:0:
224,160,197853,1,0,0:0:0:0:
288,160,198011,1,8,0:0:0:0:
224,160,198169,1,0,0:0:0:0:
224,160,198248,1,0,0:0:0:0:
224,160,198327,1,0,0:0:0:0:
224,160,198406,1,0,0:0:0:0:
224,160,198485,1,0,0:0:0:0:
288,160,198643,1,8,0:0:0:0:
288,160,198801,1,8,0:0:0:0:
224,160,198958,1,0,0:0:0:0:
224,160,199037,1,0,0:0:0:0:
224,160,199116,1,0,0:0:0:0:
224,160,199195,1,0,0:0:0:0:
288,160,199274,1,8,0:0:0:0:
224,160,199590,1,0,0:0:0:0:
224,160,199669,1,0,0:0:0:0:
224,160,199748,1,0,0:0:0:0:
224,160,199827,1,0,0:0:0:0:
288,160,199906,1,8,0:0:0:0:
224,160,200064,1,0,0:0:0:0:
288,160,200222,1,8,0:0:0:0:
288,160,200301,1,8,0:0:0:0:
288,160,200379,1,8,0:0:0:0:
288,160,200458,1,8,0:0:0:0:
224,160,200537,1,0,0:0:0:0:
288,224,200695,1,12,0:0:0:0:
224,160,201011,1,0,0:0:0:0:
224,160,201090,1,0,0:0:0:0:
288,160,201169,1,8,0:0:0:0:
288,160,201327,1,8,0:0:0:0:
224,160,201485,1,0,0:0:0:0:
224,160,201564,1,0,0:0:0:0:
224,160,201643,1,0,0:0:0:0:
288,160,201801,1,8,0:0:0:0:
224,160,201958,1,0,0:0:0:0:
224,160,202037,1,0,0:0:0:0:
288,160,202116,1,8,0:0:0:0:
224,160,202274,1,0,0:0:0:0:
288,160,202432,1,8,0:0:0:0:
288,160,202590,1,8,0:0:0:0:
288,160,202669,1,8,0:0:0:0:
224,160,202748,1,0,0:0:0:0:
224,160,202906,1,0,0:0:0:0:
288,160,203064,1,8,0:0:0:0:
224,160,203222,1,0,0:0:0:0:
224,160,203537,1,0,0:0:0:0:
224,160,203616,1,0,0:0:0:0:
288,160,203695,1,8,0:0:0:0:
288,160,203853,1,8,0:0:0:0:
288,160,203932,1,8,0:0:0:0:
224,160,204011,1,0,0:0:0:0:
224,160,204169,1,0,0:0:0:0:
288,160,204327,1,8,0:0:0:0:
224,160,204485,1,0,0:0:0:0:
224,160,204801,1,0,0:0:0:0:
288,160,204879,1,8,0:0:0:0:
224,160,204958,1,0,0:0:0:0:
288,160,205037,1,8,0:0:0:0:
224,160,205116,1,0,0:0:0:0:
288,160,205274,1,8,0:0:0:0:
288,160,205432,1,0,0:0:0:0:
288,160,205511,1,8,0:0:0:0:
224,160,205590,1,0,0:0:0:0:
288,224,205748,1,12,0:0:0:0:
224,160,206064,1,0,0:0:0:0:
288,160,206222,1,8,0:0:0:0:
224,160,206537,1,0,0:0:0:0:
224,160,206695,1,0,0:0:0:0:
288,160,206853,1,8,0:0:0:0:
288,160,206932,1,8,0:0:0:0:
288,160,207011,1,8,0:0:0:0:
224,160,207327,1,0,0:0:0:0:
288,160,207485,1,8,0:0:0:0:
224,160,207801,1,0,0:0:0:0:
224,160,207958,1,0,0:0:0:0:
288,160,208116,1,8,0:0:0:0:
224,160,208274,1,0,0:0:0:0:
224,160,208590,1,0,0:0:0:0:
288,160,208748,1,8,0:0:0:0:
224,160,209064,1,0,0:0:0:0:
224,160,209222,1,0,0:0:0:0:
288,160,209379,1,8,0:0:0:0:
288,160,209458,1,8,0:0:0:0:
224,160,209537,1,0,0:0:0:0:
224,160,209853,1,0,0:0:0:0:
224,160,209932,1,0,0:0:0:0:
288,160,210011,1,8,0:0:0:0:
288,160,210090,1,8,0:0:0:0:
224,160,210169,1,0,0:0:0:0:
288,160,210327,1,8,0:0:0:0:
224,160,210485,1,0,0:0:0:0:
224,160,210643,1,0,0:0:0:0:
288,224,210801,1,12,0:0:0:0:
224,160,211116,1,0,0:0:0:0:
288,160,211274,1,8,0:0:0:0:
288,160,211353,1,8,0:0:0:0:
224,160,211432,1,0,0:0:0:0:
288,160,211590,1,8,0:0:0:0:
224,160,211748,1,0,0:0:0:0:
224,160,211827,1,0,0:0:0:0:
288,160,211906,1,8,0:0:0:0:
288,224,212064,1,12,0:0:0:0:
224,160,212379,1,0,0:0:0:0:
288,160,212537,1,8,0:0:0:0:
224,160,212695,1,0,0:0:0:0:
224,160,212853,1,0,0:0:0:0:
224,160,212932,1,0,0:0:0:0:
224,160,213011,1,0,0:0:0:0:
224,160,213090,1,0,0:0:0:0:
288,160,213169,1,8,0:0:0:0:
288,224,213485,1,12,0:0:0:0:
224,160,213643,1,0,0:0:0:0:
224,160,213722,1,0,0:0:0:0:
288,160,213801,1,8,0:0:0:0:
224,160,213958,1,0,0:0:0:0:
288,160,214116,1,8,0:0:0:0:
288,160,214195,1,8,0:0:0:0:
288,160,214274,1,8,0:0:0:0:
224,160,214432,1,0,0:0:0:0:
288,224,214590,1,12,0:0:0:0:
288,160,215379,1,8,0:0:0:0:
224,160,215537,1,0,0:0:0:0:
288,160,215695,1,8,0:0:0:0:
224,224,215853,5,4,0:0:0:0:
224,160,216169,1,0,0:0:0:0:
288,160,216327,1,8,0:0:0:0:
288,160,216564,1,8,0:0:0:0:
224,160,216643,1,0,0:0:0:0:
224,160,216801,1,0,0:0:0:0:
288,160,216958,1,8,0:0:0:0:
224,160,217116,1,0,0:0:0:0:
224,160,217432,1,0,0:0:0:0:
288,160,217590,1,8,0:0:0:0:
224,160,217748,1,0,0:0:0:0:
224,160,217827,1,0,0:0:0:0:
224,160,217906,1,0,0:0:0:0:
288,160,218064,1,8,0:0:0:0:
288,160,218222,1,8,0:0:0:0:
288,160,218301,1,8,0:0:0:0:
224,160,218379,1,0,0:0:0:0:
224,160,218695,1,0,0:0:0:0:
288,160,218853,1,8,0:0:0:0:
224,160,219090,1,0,0:0:0:0:
224,160,219169,1,0,0:0:0:0:
288,160,219327,1,8,0:0:0:0:
288,160,219485,1,8,0:0:0:0:
224,160,219643,1,0,0:0:0:0:
224,160,219958,1,0,0:0:0:0:
288,160,220116,1,8,0:0:0:0:
224,160,220274,1,0,0:0:0:0:
224,160,220353,1,0,0:0:0:0:
224,160,220432,1,0,0:0:0:0:
224,160,220590,1,0,0:0:0:0:
288,160,220748,1,8,0:0:0:0:
288,160,220827,1,8,0:0:0:0:
224,160,220906,1,0,0:0:0:0:
224,160,221222,1,0,0:0:0:0:
288,160,221379,1,8,0:0:0:0:
224,160,221537,1,0,0:0:0:0:
288,160,221616,1,8,0:0:0:0:
224,160,221695,1,0,0:0:0:0:
224,160,221853,1,0,0:0:0:0:
288,160,222011,1,8,0:0:0:0:
224,160,222169,1,0,0:0:0:0:
224,160,222485,1,0,0:0:0:0:
288,160,222643,1,8,0:0:0:0:
224,160,222801,1,0,0:0:0:0:
288,160,222879,1,8,0:0:0:0:
224,160,222958,1,0,0:0:0:0:
224,160,223116,1,0,0:0:0:0:
224,160,223195,1,0,0:0:0:0:
288,160,223274,1,8,0:0:0:0:
288,224,223432,1,12,0:0:0:0:
224,160,223748,1,0,0:0:0:0:
288,160,223906,1,8,0:0:0:0:
288,160,223985,1,8,0:0:0:0:
288,160,224064,1,8,0:0:0:0:
288,160,224222,1,8,0:0:0:0:
288,160,224301,1,8,0:0:0:0:
224,160,224379,1,0,0:0:0:0:
288,160,224537,1,8,0:0:0:0:
224,160,224695,1,0,0:0:0:0:
288,160,224853,1,8,0:0:0:0:
288,160,224932,1,8,0:0:0:0:
288,160,225011,1,8,0:0:0:0:
224,160,225169,1,0,0:0:0:0:
224,160,225248,1,0,0:0:0:0:
224,160,225327,1,0,0:0:0:0:
288,160,225485,1,8,0:0:0:0:
224,160,225643,1,0,0:0:0:0:
288,224,225958,1,12,0:0:0:0:
224,160,226274,1,0,0:0:0:0:
288,160,226432,1,8,0:0:0:0:
224,160,226669,1,0,0:0:0:0:
288,160,226748,1,8,0:0:0:0:
224,160,226906,1,0,0:0:0:0:
288,160,227064,1,8,0:0:0:0:
224,160,227222,1,0,0:0:0:0:
224,160,227537,1,0,0:0:0:0:
288,160,227695,1,8,0:0:0:0:
224,160,227853,1,0,0:0:0:0:
224,160,227932,1,0,0:0:0:0:
288,160,228011,1,8,0:0:0:0:
224,160,228169,1,0,0:0:0:0:
288,160,228327,1,8,0:0:0:0:
288,160,228406,1,8,0:0:0:0:
224,160,228485,1,0,0:0:0:0:
224,160,228801,1,0,0:0:0:0:
288,160,228958,1,8,0:0:0:0:
224,160,229195,1,0,0:0:0:0:
224,160,229274,1,0,0:0:0:0:
224,160,229432,1,0,0:0:0:0:
288,160,229590,1,8,0:0:0:0:
224,160,229748,1,0,0:0:0:0:
224,160,230064,1,0,0:0:0:0:
288,160,230222,1,8,0:0:0:0:
288,160,230379,1,8,0:0:0:0:
288,160,230458,1,8,0:0:0:0:
288,160,230537,1,8,0:0:0:0:
224,160,230695,1,0,0:0:0:0:
288,160,230853,1,8,0:0:0:0:
288,160,230932,1,8,0:0:0:0:
224,160,231011,1,0,0:0:0:0:
224,160,231327,1,0,0:0:0:0:
288,160,231485,1,8,0:0:0:0:
288,160,231722,1,8,0:0:0:0:
224,160,231801,1,0,0:0:0:0:
224,160,231958,1,0,0:0:0:0:
288,160,232116,1,8,0:0:0:0:
224,160,232274,1,0,0:0:0:0:
224,160,232590,1,0,0:0:0:0:
288,160,232748,1,8,0:0:0:0:
224,160,232906,1,0,0:0:0:0:
288,160,232985,1,8,0:0:0:0:
224,160,233064,1,0,0:0:0:0:
224,160,233222,1,0,0:0:0:0:
224,160,233301,1,0,0:0:0:0:
288,160,233379,1,8,0:0:0:0:
288,224,233537,1,12,0:0:0:0:
224,160,233853,1,0,0:0:0:0:
288,160,234011,1,8,0:0:0:0:
288,160,234090,1,8,0:0:0:0:
288,160,234169,1,8,0:0:0:0:
224,160,234327,1,0,0:0:0:0:
224,160,234485,1,0,0:0:0:0:
288,160,234643,1,8,0:0:0:0:
288,160,234722,1,8,0:0:0:0:
224,160,234801,1,0,0:0:0:0:
288,160,234958,1,8,0:0:0:0:
288,160,235037,1,8,0:0:0:0:
288,160,235116,1,8,0:0:0:0:
224,160,235274,1,0,0:0:0:0:
224,160,235353,1,0,0:0:0:0:
224,160,235432,1,0,0:0:0:0:
288,160,235590,1,8,0:0:0:0:
224,160,235748,1,0,0:0:0:0:
288,224,236064,1,12,0:0:0:0:
256,192,236222,12,0,241590,0:0:0:0:
