osu file format v14

[General]
AudioFilename: audio.mp3
AudioLeadIn: 0
PreviewTime: 55432
Countdown: 0
SampleSet: Normal
StackLeniency: 0.7
Mode: 1
LetterboxInBreaks: 0
WidescreenStoryboard: 0

[Editor]
Bookmarks: 15011,35379,88274,225958
DistanceSpacing: 4.4
BeatDivisor: 4
GridSize: 16
TimelineZoom: 0.8

[Metadata]
Title:Tokoyami no keiyaku KEGARETA-SHOUJO feat. GUMI
TitleUnicode:常闇の契約 ケガレタショウジョ feat. GUMI
Artist:Trial & Error
ArtistUnicode:Trial & Error
Creator:Nardoxyribonucleic
Version:Kantan
Source:osu!
Tags:Taiko Featured Artist FA Vocaloid Megpoid qoot8123 Nwolf
BeatmapID:1772279
BeatmapSetID:847433

[Difficulty]
HPDrainRate:7
CircleSize:5
OverallDifficulty:3
ApproachRate:5
SliderMultiplier:1.4
SliderTickRate:1

[Events]
//Background and Video events
0,0,"bg.jpg",0,0
//Break Periods
//Storyboard Layer 0 (Background)
//Storyboard Layer 1 (Fail)
//Storyboard Layer 2 (Pass)
//Storyboard Layer 3 (Foreground)
//Storyboard Sound Samples

[TimingPoints]
3801,315.789473684211,4,1,0,85,1,0
25274,-100,4,1,0,70,0,0
45485,-100,4,1,0,80,0,0
55432,-100,4,1,0,95,0,1
75643,-100,4,1,0,90,0,0
78169,-100,4,1,0,85,0,0
98537,-100,4,1,0,75,0,0
108643,-100,4,1,0,80,0,0
118748,-100,4,1,0,85,0,0
128695,-100,4,1,0,95,0,1
148906,-100,4,1,0,100,0,0
175432,-100,4,1,0,95,0,1
215853,-100,4,1,0,85,0,0
236222,-100,4,1,0,75,0,0
237564,-100,4,1,0,65,0,0
238906,-100,4,1,0,55,0,0
240248,-100,4,1,0,45,0,0
241590,-100,4,1,0,35,0,0

[HitObjects]
256,192,3801,5,8,0:0:0:0:
256,192,4906,1,4,0:0:0:0:
256,192,5695,1,8,0:0:0:0:
256,192,6327,1,0,0:0:0:0:
256,192,6958,1,8,0:0:0:0:
256,192,7274,1,8,0:0:0:0:
256,192,7590,1,0,0:0:0:0:
256,192,8222,1,8,0:0:0:0:
256,192,8853,1,0,0:0:0:0:
256,192,10116,1,0,0:0:0:0:
256,192,10748,1,8,0:0:0:0:
256,192,11379,1,0,0:0:0:0:
256,192,11695,1,8,0:0:0:0:
256,192,12485,1,12,0:0:0:0:
256,192,13274,1,8,0:0:0:0:
256,192,13906,1,0,0:0:0:0:
256,192,15011,1,4,0:0:0:0:
256,192,15801,1,8,0:0:0:0:
256,192,16432,1,0,0:0:0:0:
256,192,17064,1,8,0:0:0:0:
256,192,17379,1,8,0:0:0:0:
256,192,17695,1,0,0:0:0:0:
256,192,18327,1,8,0:0:0:0:
256,192,18958,1,0,0:0:0:0:
256,192,20222,1,0,0:0:0:0:
256,192,20853,1,8,0:0:0:0:
256,192,21485,1,0,0:0:0:0:
256,192,21801,1,8,0:0:0:0:
256,192,22590,1,12,0:0:0:0:
256,192,23379,1,8,0:0:0:0:
256,192,24011,1,0,0:0:0:0:
256,192,24327,1,8,0:0:0:0:
256,192,24643,1,8,0:0:0:0:
256,192,25274,1,0,0:0:0:0:
256,192,26537,1,0,0:0:0:0:
256,192,27801,1,8,0:0:0:0:
256,192,29064,1,8,0:0:0:0:
256,192,29695,1,0,0:0:0:0:
256,192,30327,1,8,0:0:0:0:
256,192,31590,1,0,0:0:0:0:
256,192,32853,1,8,0:0:0:0:
256,192,35379,1,0,0:0:0:0:
256,192,36643,1,0,0:0:0:0:
256,192,37906,1,8,0:0:0:0:
256,192,39169,1,8,0:0:0:0:
256,192,39801,1,0,0:0:0:0:
256,192,40432,1,8,0:0:0:0:
256,192,41695,1,0,0:0:0:0:
256,192,42958,1,8,0:0:0:0:
256,192,45485,1,0,0:0:0:0:
256,192,46748,1,8,0:0:0:0:
256,192,47379,1,8,0:0:0:0:
256,192,47695,1,0,0:0:0:0:
256,192,48011,1,0,0:0:0:0:
256,192,49274,1,8,0:0:0:0:
256,192,49906,1,0,0:0:0:0:
256,192,50222,1,8,0:0:0:0:
256,192,50537,1,0,0:0:0:0:
256,192,51801,1,8,0:0:0:0:
256,192,52432,1,0,0:0:0:0:
256,192,52748,1,0,0:0:0:0:
256,192,53064,1,8,0:0:0:0:
256,192,54327,1,12,0:0:0:0:
256,192,55432,1,4,0:0:0:0:
256,192,56222,1,8,0:0:0:0:
256,192,56853,1,0,0:0:0:0:
256,192,57485,1,8,0:0:0:0:
256,192,57801,1,8,0:0:0:0:
256,192,58116,1,0,0:0:0:0:
256,192,58748,1,0,0:0:0:0:
256,192,59379,1,8,0:0:0:0:
256,192,60485,1,4,0:0:0:0:
256,192,61274,1,8,0:0:0:0:
256,192,61906,1,0,0:0:0:0:
256,192,62537,1,0,0:0:0:0:
256,192,62853,1,0,0:0:0:0:
256,192,63169,1,8,0:0:0:0:
256,192,63801,1,0,0:0:0:0:
256,192,64274,1,8,0:0:0:0:
256,192,65537,1,4,0:0:0:0:
256,192,66327,1,8,0:0:0:0:
256,192,66958,1,0,0:0:0:0:
256,192,67590,1,8,0:0:0:0:
256,192,67906,1,0,0:0:0:0:
256,192,68222,1,8,0:0:0:0:
256,192,68853,1,8,0:0:0:0:
256,192,69485,1,0,0:0:0:0:
256,192,70590,1,4,0:0:0:0:
256,192,71379,1,8,0:0:0:0:
256,192,72011,1,0,0:0:0:0:
256,192,72327,1,8,0:0:0:0:
256,192,72643,1,0,0:0:0:0:
256,192,73274,1,12,0:0:0:0:
256,192,73906,1,0,0:0:0:0:
256,192,74379,1,4,0:0:0:0:
256,192,75643,1,4,0:0:0:0:
256,192,76748,1,8,0:0:0:0:
256,192,77064,1,0,0:0:0:0:
256,192,77695,1,8,0:0:0:0:
256,192,78169,1,4,0:0:0:0:
256,192,78958,1,8,0:0:0:0:
256,192,79590,1,0,0:0:0:0:
256,192,80222,1,8,0:0:0:0:
256,192,80537,1,8,0:0:0:0:
256,192,80853,1,0,0:0:0:0:
256,192,81485,1,8,0:0:0:0:
256,192,82116,1,0,0:0:0:0:
256,192,83379,1,0,0:0:0:0:
256,192,84011,1,8,0:0:0:0:
256,192,84643,1,0,0:0:0:0:
256,192,84958,1,8,0:0:0:0:
256,192,85748,1,12,0:0:0:0:
256,192,86537,1,8,0:0:0:0:
256,192,87169,1,0,0:0:0:0:
256,192,88274,1,4,0:0:0:0:
256,192,89064,1,8,0:0:0:0:
256,192,89695,1,0,0:0:0:0:
256,192,90327,1,8,0:0:0:0:
256,192,90643,1,8,0:0:0:0:
256,192,90958,1,0,0:0:0:0:
256,192,91590,1,8,0:0:0:0:
256,192,92222,1,0,0:0:0:0:
256,192,93485,1,0,0:0:0:0:
256,192,94116,1,8,0:0:0:0:
256,192,94748,1,0,0:0:0:0:
256,192,95064,1,8,0:0:0:0:
256,192,95853,1,12,0:0:0:0:
256,192,96643,1,8,0:0:0:0:
256,192,97274,1,0,0:0:0:0:
256,192,97590,1,8,0:0:0:0:
256,192,97906,1,8,0:0:0:0:
256,192,98537,1,0,0:0:0:0:
256,192,99801,1,0,0:0:0:0:
256,192,100432,1,8,0:0:0:0:
256,192,101064,1,0,0:0:0:0:
256,192,102327,1,0,0:0:0:0:
256,192,102958,1,8,0:0:0:0:
256,192,103274,1,0,0:0:0:0:
256,192,103590,1,8,0:0:0:0:
256,192,104853,1,0,0:0:0:0:
256,192,105485,1,8,0:0:0:0:
256,192,106116,1,0,0:0:0:0:
256,192,107379,1,0,0:0:0:0:
256,192,108643,1,4,0:0:0:0:
256,192,109274,1,8,0:0:0:0:
256,192,109906,1,0,0:0:0:0:
256,192,110222,1,8,0:0:0:0:
256,192,110853,1,8,0:0:0:0:
256,192,111169,1,0,0:0:0:0:
256,192,111801,1,0,0:0:0:0:
256,192,112432,1,8,0:0:0:0:
256,192,113064,1,8,0:0:0:0:
256,192,113379,1,0,0:0:0:0:
256,192,113695,1,8,0:0:0:0:
256,192,114958,1,8,0:0:0:0:
256,192,115590,1,0,0:0:0:0:
256,192,115906,1,0,0:0:0:0:
256,192,116222,1,0,0:0:0:0:
256,192,116853,1,8,0:0:0:0:
256,192,117169,1,8,0:0:0:0:
256,192,117485,1,8,0:0:0:0:
256,192,118116,1,0,0:0:0:0:
256,192,118748,1,12,0:0:0:0:
256,192,119064,1,12,0:0:0:0:
256,192,120643,1,8,0:0:0:0:
256,192,121274,1,4,0:0:0:0:
256,192,121590,1,4,0:0:0:0:
256,192,123169,1,0,0:0:0:0:
256,192,123801,1,12,0:0:0:0:
256,192,124116,1,12,0:0:0:0:
256,192,125064,1,12,0:0:0:0:
256,192,126011,1,0,0:0:0:0:
256,192,126327,1,4,0:0:0:0:
256,192,127590,1,12,0:0:0:0:
256,192,128695,1,4,0:0:0:0:
256,192,129485,1,8,0:0:0:0:
256,192,130116,1,0,0:0:0:0:
256,192,130748,1,8,0:0:0:0:
256,192,131064,1,8,0:0:0:0:
256,192,131379,1,0,0:0:0:0:
256,192,132011,1,0,0:0:0:0:
256,192,132643,1,8,0:0:0:0:
256,192,133748,1,4,0:0:0:0:
256,192,134537,1,8,0:0:0:0:
256,192,135169,1,0,0:0:0:0:
256,192,135801,1,0,0:0:0:0:
256,192,136116,1,0,0:0:0:0:
256,192,136432,1,8,0:0:0:0:
256,192,137064,1,0,0:0:0:0:
256,192,137537,1,8,0:0:0:0:
256,192,138801,1,4,0:0:0:0:
256,192,139590,1,8,0:0:0:0:
256,192,140222,1,0,0:0:0:0:
256,192,140853,1,8,0:0:0:0:
256,192,141169,1,0,0:0:0:0:
256,192,141485,1,8,0:0:0:0:
256,192,142116,1,8,0:0:0:0:
256,192,142748,1,0,0:0:0:0:
256,192,143853,1,4,0:0:0:0:
256,192,144643,1,8,0:0:0:0:
256,192,145274,1,0,0:0:0:0:
256,192,145590,1,8,0:0:0:0:
256,192,145906,1,0,0:0:0:0:
256,192,146537,1,12,0:0:0:0:
256,192,147169,1,0,0:0:0:0:
256,192,147643,1,4,0:0:0:0:
256,192,148906,1,4,0:0:0:0:
256,192,149695,1,8,0:0:0:0:
256,192,150327,1,0,0:0:0:0:
256,192,150958,1,8,0:0:0:0:
256,192,151274,1,8,0:0:0:0:
256,192,151590,1,0,0:0:0:0:
256,192,152222,1,8,0:0:0:0:
256,192,152853,1,0,0:0:0:0:
256,192,153958,1,12,0:0:0:0:
256,192,154748,1,8,0:0:0:0:
256,192,155379,1,0,0:0:0:0:
256,192,155695,1,0,0:0:0:0:
256,192,156011,1,8,0:0:0:0:
256,192,156643,1,0,0:0:0:0:
256,192,157274,1,8,0:0:0:0:
256,192,157748,1,12,0:0:0:0:
256,192,159011,1,12,0:0:0:0:
256,192,159801,1,8,0:0:0:0:
256,192,160432,1,0,0:0:0:0:
256,192,161064,1,8,0:0:0:0:
256,192,161379,1,0,0:0:0:0:
256,192,161695,1,8,0:0:0:0:
256,192,162327,1,0,0:0:0:0:
256,192,162958,1,8,0:0:0:0:
256,192,164064,1,12,0:0:0:0:
256,192,164853,1,0,0:0:0:0:
256,192,165485,1,8,0:0:0:0:
256,192,165801,1,8,0:0:0:0:
256,192,166116,1,0,0:0:0:0:
256,192,166748,1,8,0:0:0:0:
256,192,167379,1,0,0:0:0:0:
256,192,167695,1,8,0:0:0:0:
256,192,168011,1,0,0:0:0:0:
256,192,168643,1,8,0:0:0:0:
256,192,169274,1,0,0:0:0:0:
256,192,169906,1,0,0:0:0:0:
256,192,170222,1,0,0:0:0:0:
256,192,170537,1,8,0:0:0:0:
256,192,171169,1,0,0:0:0:0:
256,192,171801,1,8,0:0:0:0:
256,192,172432,1,0,0:0:0:0:
256,192,172748,1,0,0:0:0:0:
256,192,173064,1,8,0:0:0:0:
256,192,173379,1,8,0:0:0:0:
256,192,173695,1,0,0:0:0:0:
256,192,174327,1,12,0:0:0:0:
256,192,175432,1,4,0:0:0:0:
256,192,176222,1,8,0:0:0:0:
256,192,176853,1,0,0:0:0:0:
256,192,177485,1,8,0:0:0:0:
256,192,177801,1,8,0:0:0:0:
256,192,178116,1,0,0:0:0:0:
256,192,178748,1,0,0:0:0:0:
256,192,179379,1,8,0:0:0:0:
256,192,180485,1,4,0:0:0:0:
256,192,181274,1,8,0:0:0:0:
256,192,181906,1,0,0:0:0:0:
256,192,182537,1,0,0:0:0:0:
256,192,182853,1,0,0:0:0:0:
256,192,183169,1,8,0:0:0:0:
256,192,183801,1,0,0:0:0:0:
256,192,184274,1,8,0:0:0:0:
256,192,185537,1,4,0:0:0:0:
256,192,186327,1,8,0:0:0:0:
256,192,186958,1,0,0:0:0:0:
256,192,187590,1,8,0:0:0:0:
256,192,187906,1,0,0:0:0:0:
256,192,188222,1,8,0:0:0:0:
256,192,188853,1,8,0:0:0:0:
256,192,189485,1,0,0:0:0:0:
256,192,190590,1,4,0:0:0:0:
256,192,191379,1,8,0:0:0:0:
256,192,192011,1,0,0:0:0:0:
256,192,192327,1,8,0:0:0:0:
256,192,192643,1,8,0:0:0:0:
256,192,193274,1,4,0:0:0:0:
256,192,193906,1,0,0:0:0:0:
256,192,194379,1,12,0:0:0:0:
256,192,195643,1,4,0:0:0:0:
256,192,196432,1,8,0:0:0:0:
256,192,197064,1,0,0:0:0:0:
256,192,197695,1,8,0:0:0:0:
256,192,198011,1,8,0:0:0:0:
256,192,198327,1,0,0:0:0:0:
256,192,198958,1,0,0:0:0:0:
256,192,199590,1,8,0:0:0:0:
256,192,200695,1,4,0:0:0:0:
256,192,201485,1,8,0:0:0:0:
256,192,202116,1,0,0:0:0:0:
256,192,202748,1,0,0:0:0:0:
256,192,203064,1,0,0:0:0:0:
256,192,203379,1,8,0:0:0:0:
256,192,204011,1,0,0:0:0:0:
256,192,204485,1,8,0:0:0:0:
256,192,205748,1,4,0:0:0:0:
256,192,206537,1,8,0:0:0:0:
256,192,207169,1,0,0:0:0:0:
256,192,207801,1,8,0:0:0:0:
256,192,208116,1,0,0:0:0:0:
256,192,208432,1,8,0:0:0:0:
256,192,208748,1,8,0:0:0:0:
256,192,209064,1,0,0:0:0:0:
256,192,209695,1,8,0:0:0:0:
256,192,210801,1,4,0:0:0:0:
256,192,211590,1,8,0:0:0:0:
256,192,212222,1,0,0:0:0:0:
256,192,212537,1,8,0:0:0:0:
256,192,212853,1,0,0:0:0:0:
256,192,213485,1,12,0:0:0:0:
256,192,214116,1,0,0:0:0:0:
256,192,214590,1,4,0:0:0:0:
256,192,215853,1,4,0:0:0:0:
256,192,216643,1,8,0:0:0:0:
256,192,217274,1,0,0:0:0:0:
256,192,217906,1,8,0:0:0:0:
256,192,218222,1,8,0:0:0:0:
256,192,218537,1,0,0:0:0:0:
256,192,219169,1,8,0:0:0:0:
256,192,219801,1,0,0:0:0:0:
256,192,221064,1,0,0:0:0:0:
256,192,221695,1,8,0:0:0:0:
256,192,222327,1,0,0:0:0:0:
256,192,222643,1,8,0:0:0:0:
256,192,223432,1,12,0:0:0:0:
256,192,224222,1,8,0:0:0:0:
256,192,224853,1,0,0:0:0:0:
256,192,225958,1,4,0:0:0:0:
256,192,226748,1,8,0:0:0:0:
256,192,227379,1,0,0:0:0:0:
256,192,228011,1,8,0:0:0:0:
256,192,228327,1,8,0:0:0:0:
256,192,228643,1,0,0:0:0:0:
256,192,229274,1,8,0:0:0:0:
256,192,229906,1,0,0:0:0:0:
256,192,231169,1,0,0:0:0:0:
256,192,231801,1,8,0:0:0:0:
256,192,232432,1,0,0:0:0:0:
256,192,232748,1,8,0:0:0:0:
256,192,233537,1,12,0:0:0:0:
256,192,234327,1,8,0:0:0:0:
256,192,234958,1,0,0:0:0:0:
256,192,235274,1,8,0:0:0:0:
256,192,235590,1,8,0:0:0:0:
256,192,236064,1,4,0:0:0:0:
256,192,236222,12,0,241590,0:0:0:0:
